#VERSION:0.83;
#TITLE:マトリョシカ;
#SUBTITLE:;
#ARTIST:ハチ;
#TITLETRANSLIT:Matryoshka;
#SUBTITLETRANSLIT:;
#ARTISTTRANSLIT:Hachi;
#GENRE:;
#ORIGIN:;
#CREDIT:;
#BANNER:;
#BACKGROUND:;
#PREVIEWVID:;
#JACKET:;
#CDIMAGE:;
#DISCIMAGE:;
#LYRICSPATH:;
#CDTITLE:;
#MUSIC:Matryoshka.ogg;
#OFFSET:-0.185000;
#SAMPLESTART:46.499001;
#SAMPLELENGTH:12.000000;
#SELECTABLE:YES;
#BPMS:0.000=205.020,
256.000=208.000,
264.000=211.750,
272.000=228.000,
280.000=238.000,
284.000=250.000,
288.000=257.000,
296.000=262.000,
304.000=279.000,
312.000=294.000,
316.000=296.000;
#STOPS:;
#DELAYS:;
#WARPS:;
#TIMESIGNATURES:0.000=4=4;
#TICKCOUNTS:0.000=4;
#COMBOS:0.000=1;
#SPEEDS:0.000=1.000=0.000=0;
#SCROLLS:0.000=1.000;
#FAKES:;
#LABELS:0.000=Song Start,
48.000=left facing_ with down anchor;
#BGCHANGES:;
#KEYSOUNDS:;
#ATTACKS:
;

//---------------dance-single - ----------------
#NOTEDATA:;
#CHARTNAME:;
#STEPSTYPE:dance-single;
#DESCRIPTION:;
#CHARTSTYLE:;
#DIFFICULTY:Hard;
#METER:14;
#RADARVALUES:0.762071,0.784598,0.327941,1.027547,0.032794,488.000000,458.000000,30.000000,94.000000,0.000000,0.000000,0.000000,0.000000,0.000000,0.762071,0.784598,0.327941,1.027547,0.032794,488.000000,458.000000,30.000000,94.000000,0.000000,0.000000,0.000000,0.000000,0.000000;
#CREDIT:nobarben;
#NOTES:
// measure 0
0000
0000
0000
0000
,  // measure 1
0000
0000
0000
0000
,  // measure 2
0000
0000
0000
0000
,  // measure 3
0000
0000
0000
0000
,  // measure 4
0002
0000
1003
0100
0010
0001
0000
1000
,  // measure 5
0001
0100
0010
0000
0002
0000
0013
0100
,  // measure 6
0020
0000
1030
0001
0010
0100
0000
1000
,  // measure 7
0001
0001
1000
1000
0002
0000
0003
0000
,  // measure 8
2000
0000
3001
0100
0010
1000
0000
0001
,  // measure 9
1000
0100
0010
0000
2000
0000
3010
0100
,  // measure 10
0020
0000
0031
1000
0010
0100
0000
0001
,  // measure 11
1000
1000
0001
0001
2000
0000
3000
0000
,  // measure 12
0001
2000
0000
3020
0000
0130
0010
0100
,  // measure 13
2000
0000
3100
0010
0200
0000
0310
0002
,  // measure 14
0000
0013
0100
0001
1000
0000
0100
0010
,  // measure 15
0001
1000
0010
0000
0200
0000
0301
0000
,  // measure 16
0001
2000
0000
3100
0010
0100
0010
0100
,  // measure 17
0002
0000
0103
0010
0200
0000
0310
2000
,  // measure 18
0000
3010
0100
0010
0001
1000
0000
0010
,  // measure 19
0100
0000
0001
0000
1002
0000
0000
0013
,  // measure 20
0001
0100
0010
1000
0001
0010
0000
0001
,  // measure 21
1000
0010
0100
0010
0002
0000
0013
0100
,  // measure 22
0020
0000
1030
0001
0010
0100
0000
1000
,  // measure 23
0001
0000
0001
0000
1000
0000
1000
0000
0002
0000
1003
0100
1000
0000
0100
0000
,  // measure 24
1000
0010
0100
0010
1000
0100
0010
0100
,  // measure 25
0002
0000
0103
0010
0200
0000
0310
2000
,  // measure 26
0000
3010
0100
1000
0001
0000
0001
0100
,  // measure 27
0010
0000
0100
0000
0001
0000
0010
0000
0100
0000
1000
0001
1000
0000
0001
0000
,  // measure 28
1000
0001
0100
0010
0000
0100
0010
0100
,  // measure 29
2000
3100
0001
1000
0200
0000
0310
2000
,  // measure 30
0000
3010
0100
0010
0001
0010
0100
1000
,  // measure 31
0001
0000
0100
0000
0010
0000
1000
0000
0001
1000
0001
1000
0001
0000
0000
0000
,  // measure 32
2000
0000
0001
3001
0010
0000
0100
1000
,  // measure 33
0002
0000
0103
0010
0020
0000
0230
1000
,  // measure 34
0000
0310
1000
0001
0010
0000
0200
0001
,  // measure 35
0000
0310
0001
1000
0020
0000
0130
0000
,  // measure 36
0002
0000
1000
1003
0100
0000
0010
0001
,  // measure 37
2000
0000
3010
0100
0200
0000
0310
0000
,  // measure 38
2000
3002
0023
0130
,  // measure 39
1001
0110
1001
0000
,  // measure 40
1000
0000
0000
0000
0000
0000
0000
0000
0001
0000
0000
0000
0000
0000
0000
0000
0010
0000
0000
0000
0000
0000
0000
0000
0100
0000
0000
0000
0000
0000
0000
0000
1000
0000
0000
0000
0000
0000
0000
0000
0001
0000
0000
0000
0000
0000
0000
0000
0100
0000
0000
0000
0000
0000
0000
0000
0020
0030
0000
0000
0000
0000
0000
0000
,  // measure 41
0000
0000
0000
0000
0000
0000
0000
0000
0020
0030
0000
0000
0000
0000
0000
0000
0001
0000
0000
0000
0000
0000
0000
0000
1000
0000
0000
0000
0000
0000
0000
0000
0010
0000
0000
0000
0000
0000
0000
0000
0000
0000
0000
0000
0000
0000
0000
0000
1001
0000
0000
0000
0000
0000
0000
0000
0000
0000
0000
0000
0000
0000
0000
0000
,  // measure 42
1000
0000
0000
0000
0000
0000
0000
0000
0200
0300
0000
0000
0000
0000
0000
0000
0200
0300
0000
0000
0000
0000
0000
0000
0001
0000
0000
0000
0000
0000
0000
0000
1000
0000
0000
0000
0000
0000
0000
0000
0200
0300
0000
0000
0000
0000
0000
0000
0200
0300
0000
0000
0000
0000
0000
0000
0001
0000
0000
0000
0000
0000
0000
0000
,  // measure 43
1000
0000
0001
0010
0100
0000
0110
0000
,  // measure 44
0001
0000
0000
0000
0000
0000
0000
0000
1000
0000
0000
0000
0000
0000
0000
0000
0010
0000
0000
0000
0000
0000
0000
0000
0100
0000
0000
0000
0000
0000
0000
0000
0001
0000
0000
0000
0000
0000
0000
0000
1000
0000
0000
0000
0000
0000
0000
0000
0100
0000
0000
0000
0000
0000
0000
0000
0020
0030
0000
0000
0000
0000
0000
0000
,  // measure 45
0000
0000
0000
0000
0000
0000
0000
0000
0020
0030
0000
0000
0000
0000
0000
0000
1000
0000
0000
0000
0000
0000
0000
0000
0001
0000
0000
0000
0000
0000
0000
0000
0010
0000
0000
0000
0000
0000
0000
0000
0000
0000
0000
0000
0000
0000
0000
0000
1001
0000
0000
0000
0000
0000
0000
0000
0000
0000
0000
0000
0000
0000
0000
0000
,  // measure 46
0110
0000
1000
0200
0000
0310
0100
1000
,  // measure 47
0010
0100
1000
0100
0002
0000
0013
0000
,  // measure 48
0001
0000
0000
0000
0000
0000
0000
0000
1000
0000
0000
0000
0000
0000
0000
0000
0010
0000
0000
0000
0000
0000
0000
0000
0100
0000
0000
0000
0000
0000
0000
0000
0001
0000
0000
0000
0000
0000
0000
0000
1000
0000
0000
0000
0000
0000
0000
0000
0100
0000
0000
0000
0000
0000
0000
0000
0020
0030
0000
0000
0000
0000
0000
0000
,  // measure 49
0000
0000
0000
0000
0000
0000
0000
0000
0020
0030
0000
0000
0000
0000
0000
0000
1000
0000
0000
0000
0000
0000
0000
0000
0001
0000
0000
0000
0000
0000
0000
0000
0010
0000
0000
0000
0000
0000
0000
0000
0000
0000
0000
0000
0000
0000
0000
0000
1001
0000
0000
0000
0000
0000
0000
0000
0000
0000
0000
0000
0000
0000
0000
0000
,  // measure 50
0001
0000
0000
0000
0000
0000
0000
0000
0200
0300
0000
0000
0000
0000
0000
0000
0200
0300
0000
0000
0000
0000
0000
0000
1000
0000
0000
0000
0000
0000
0000
0000
0001
0000
0000
0000
0000
0000
0000
0000
0200
0300
0000
0000
0000
0000
0000
0000
0200
0300
0000
0000
0000
0000
0000
0000
1000
0000
0000
0000
0000
0000
0000
0000
,  // measure 51
0001
0000
0000
0000
1000
0000
0010
0000
0100
0000
0010
0100
0010
0000
1000
0000
,  // measure 52
1000
0000
0000
0000
0000
0000
0000
0000
0001
0000
0000
0000
0000
0000
0000
0000
0010
0000
0000
0000
0000
0000
0000
0000
0100
0000
0000
0000
0000
0000
0000
0000
1000
0000
0000
0000
0000
0000
0000
0000
0001
0000
0000
0000
0000
0000
0000
0000
0100
0000
0000
0000
0000
0000
0000
0000
0020
0030
0000
0000
0000
0000
0000
0000
,  // measure 53
0000
0000
0000
0000
0000
0000
0000
0000
0020
0030
0000
0000
0000
0000
0000
0000
0001
0000
0000
0000
0000
0000
0000
0000
1000
0000
0000
0000
0000
0000
0000
0000
0010
0000
0000
0000
0000
0000
0000
0000
0000
0000
0000
0000
0000
0000
0000
0000
1001
0000
0000
0000
0000
0000
0000
0000
0000
0000
0000
0000
0000
0000
0000
0000
,  // measure 54
0110
0000
0001
0200
0000
0310
0100
0001
,  // measure 55
0010
0000
0100
0000
0001
0000
0100
0000
2000
0000
3001
0100
0001
0000
0100
0000
,  // measure 56
0120
0000
1030
0001
0020
0000
0130
0002
,  // measure 57
0000
0103
0010
0001
0100
0001
0010
0001
,  // measure 58
0200
0000
0310
0100
2000
0000
3001
0010
,  // measure 59
0100
0110
1002
0013
,  // measure 60
0120
0000
0031
1000
0020
0000
0130
2000
,  // measure 61
0000
3100
0010
1000
0100
1000
0010
1000
,  // measure 62
0200
0000
0310
0100
0002
0000
1003
0010
,  // measure 63
0100
0110
2002
3003
,  // measure 64
2100
3001
2010
3001
,  // measure 65
0010
0001
0010
0100
2000
0000
3010
0000
,  // measure 66
0102
1003
0012
1003
,  // measure 67
0100
0010
0100
0010
0200
0000
1300
0000
,  // measure 68
2010
3001
2100
3001
,  // measure 69
0010
0001
0010
0100
2000
0000
3010
0000
,  // measure 70
0100
0001
0100
0010
2000
0000
3100
0000
,  // measure 71
0010
0001
0010
0100
2000
0000
3100
0000
,  // measure 72
2100
3001
2010
3001
,  // measure 73
0010
0001
0010
0100
2000
0000
3010
0000
,  // measure 74
0102
1003
0012
1003
,  // measure 75
0100
0010
0100
0010
0200
0000
1300
0000
,  // measure 76
2010
3001
2100
3001
,  // measure 77
0010
0001
0010
0100
2000
0000
3010
0000
,  // measure 78
0100
0001
0100
0010
2000
0000
3100
0000
,  // measure 79
0010
0001
0010
0100
1000
0000
1001
0000
;

//---------------dance-single - ----------------
#NOTEDATA:;
#CHARTNAME:;
#STEPSTYPE:dance-single;
#DESCRIPTION:;
#CHARTSTYLE:;
#DIFFICULTY:Medium;
#METER:11;
#RADARVALUES:0.551252,0.566654,0.098382,0.240490,0.000000,353.000000,344.000000,9.000000,22.000000,0.000000,0.000000,0.000000,0.000000,0.000000,0.551252,0.566654,0.098382,0.240490,0.000000,353.000000,344.000000,9.000000,22.000000,0.000000,0.000000,0.000000,0.000000,0.000000;
#CREDIT:nobarben;
#NOTES:
// measure 0
0000
0000
0000
0000
,  // measure 1
0000
0000
0000
0000
,  // measure 2
0000
0000
0000
0000
,  // measure 3
0000
0000
0000
0000
,  // measure 4
0001
1000
0010
0100
,  // measure 5
0001
1000
0001
0000
0010
0000
0010
0000
,  // measure 6
0001
0100
0010
1000
,  // measure 7
0001
1000
0001
1000
0001
0000
0000
0000
,  // measure 8
1000
0010
0100
0001
,  // measure 9
0010
0100
0010
0000
0001
0000
0001
0000
,  // measure 10
1000
0001
0100
0010
,  // measure 11
1000
0001
1000
0001
1000
0000
0000
0000
,  // measure 12
0001
0100
0001
0010
,  // measure 13
0100
0000
0100
0000
0100
0000
0000
1000
,  // measure 14
0000
0001
1000
0000
0001
0000
0100
0000
,  // measure 15
0010
0100
0010
0000
1000
0000
0000
0000
,  // measure 16
1000
0001
1000
0100
,  // measure 17
0010
0000
0100
0010
0001
0000
0000
1000
,  // measure 18
0000
0001
1000
0000
0001
0100
0000
0100
,  // measure 19
0010
1000
1001
0000
,  // measure 20
1000
0100
0010
0001
,  // measure 21
1000
0010
0100
0000
0020
0000
1030
0000
,  // measure 22
0001
0010
0100
0010
,  // measure 23
0001
1000
0001
1000
0001
0000
0000
0000
,  // measure 24
1000
0001
0100
0001
,  // measure 25
0010
0000
0100
0010
0100
0000
0000
1000
,  // measure 26
0000
0001
1000
0000
0010
0000
0100
0000
,  // measure 27
0010
1000
0010
1000
0001
0000
0000
0000
,  // measure 28
1000
0001
0100
0001
,  // measure 29
0010
0100
0010
0100
0010
0000
0000
0001
,  // measure 30
0000
1000
0000
0100
1000
0100
1000
0000
,  // measure 31
0001
0100
0010
1000
0001
0000
0000
0000
,  // measure 32
2000
0000
3001
0100
0002
0000
0023
0000
,  // measure 33
0230
1000
1300
0100
,  // measure 34
2000
0001
3001
0100
,  // measure 35
0002
0010
0013
0000
,  // measure 36
0001
0000
0010
0100
0020
0000
2030
0000
,  // measure 37
3020
0001
0031
1000
,  // measure 38
0020
0100
0130
0001
,  // measure 39
1001
0110
1001
0000
,  // measure 40
1000
0000
0001
0010
0000
0100
0000
1000
,  // measure 41
0000
0001
1000
0001
1000
0000
0000
0000
,  // measure 42
0001
0100
0000
0010
1000
0100
0000
0010
,  // measure 43
0001
0000
1000
0100
1000
0000
0010
0000
,  // measure 44
1000
0000
0001
0100
0000
0001
0000
0010
,  // measure 45
0000
0100
0010
0000
0001
0000
0000
0000
,  // measure 46
1000
0000
0000
0100
0000
1000
0001
0010
,  // measure 47
0001
1000
0100
1000
0001
0000
0000
0000
,  // measure 48
0001
0000
1000
0010
0000
0100
0000
0001
,  // measure 49
0000
1000
0001
1000
0001
0000
0000
0000
,  // measure 50
1000
0100
0000
0010
0001
0100
0000
0010
,  // measure 51
1000
0000
0001
0100
0001
0000
0010
0000
,  // measure 52
0001
0000
1000
0100
0000
1000
0000
0010
,  // measure 53
0000
0100
0010
0000
1000
0000
0000
0000
,  // measure 54
0001
0000
0001
0100
0000
0010
0000
1000
,  // measure 55
0100
0010
0001
1000
0002
0000
0003
0000
,  // measure 56
2000
0000
3000
0001
0200
0000
0310
2000
,  // measure 57
0000
3001
1000
0000
0100
0010
0100
0010
,  // measure 58
0200
0000
0300
1000
0002
0000
0003
0100
,  // measure 59
0010
1010
1001
0000
,  // measure 60
0002
0000
0000
0013
0200
0000
1300
0002
,  // measure 61
0000
0103
0010
0000
0100
0001
0100
0001
,  // measure 62
2000
0000
0000
3100
0020
0000
0000
0031
,  // measure 63
1000
1010
1001
0000
,  // measure 64
1000
0001
0100
0001
,  // measure 65
0010
0001
0010
0000
0100
0000
1000
0000
,  // measure 66
0001
1000
0100
1000
,  // measure 67
0010
1000
0010
0000
0100
0000
0001
0000
,  // measure 68
1000
0100
0010
0100
,  // measure 69
1000
0001
1000
0000
0010
0000
0100
0000
,  // measure 70
0001
1000
0001
0000
0010
0000
0100
0000
,  // measure 71
1000
0001
1000
0001
1000
0000
0000
0000
,  // measure 72
1000
0001
0100
0001
,  // measure 73
0010
0001
0010
0000
0100
0000
1000
0000
,  // measure 74
0001
1000
0100
1000
,  // measure 75
0010
1000
0010
0000
0100
0000
0001
0000
,  // measure 76
1000
0100
0010
0100
,  // measure 77
1000
0001
1000
0000
0010
0000
0100
0000
,  // measure 78
0001
1000
0001
0000
0010
0000
0100
0000
,  // measure 79
1000
0001
1000
0001
1000
0000
1001
0000
;
