#VERSION:0.83;
#TITLE:Masters of the Universe;
#SUBTITLE:;
#ARTIST:Juno Reactor;
#TITLETRANSLIT:;
#SUBTITLETRANSLIT:;
#ARTISTTRANSLIT:;
#GENRE:;
#ORIGIN:;
#CREDIT:;
#BANNER:Masters of the Universe-banner.png;
#BACKGROUND:Masters of the Universe-bg.png;
#PREVIEWVID:;
#JACKET:Masters of the Universe-jacket.png;
#CDIMAGE:;
#DISCIMAGE:;
#LYRICSPATH:;
#CDTITLE:;
#MUSIC:Masters of the Universe.ogg;
#OFFSET:-0.030000;
#SAMPLESTART:11.154001;
#SAMPLELENGTH:14.260000;
#SELECTABLE:YES;
#DISPLAYBPM:170.000000;
#BPMS:0.000=170.000,
16.000=170.030,
207.000=170.150,
208.000=170.000;
#STOPS:;
#DELAYS:;
#WARPS:;
#TIMESIGNATURES:0.000=4=4;
#TICKCOUNTS:0.000=4;
#COMBOS:0.000=1;
#SPEEDS:0.000=1.000=0.000=0;
#SCROLLS:0.000=1.000;
#FAKES:;
#LABELS:0.000=Song Start;
#BGCHANGES:;
#KEYSOUNDS:;
#ATTACKS:
;

//---------------dance-single - ----------------
#NOTEDATA:;
#CHARTNAME:;
#STEPSTYPE:dance-single;
#DESCRIPTION:;
#CHARTSTYLE:;
#DIFFICULTY:Hard;
#METER:14;
#RADARVALUES:0.630905,0.860644,0.029508,1.072117,0.265570,449.000000,446.000000,3.000000,109.000000,0.000000,0.000000,0.000000,0.000000,0.000000,0.630905,0.860644,0.029508,1.072117,0.265570,449.000000,446.000000,3.000000,109.000000,0.000000,0.000000,0.000000,0.000000,0.000000;
#CREDIT:;
#DISPLAYBPM:170.000000;
#NOTES:
// measure 0
0000
0000
0000
0000
,  // measure 1
0000
0000
0000
0000
,  // measure 2
0000
0000
0000
0000
,  // measure 3
0000
0000
0000
0000
,  // measure 4
2000
3010
0100
0002
0013
0001
2000
3100
,  // measure 5
0010
0000
0200
0000
1300
0000
0001
0000
0020
0000
0130
0000
0020
0000
0031
1000
,  // measure 6
0200
0310
0001
2000
3001
0010
0200
1300
,  // measure 7
0001
0020
0031
1000
0200
0310
0200
1300
,  // measure 8
0002
0100
0000
1000
1000
0000
0100
0100
,  // measure 9
0000
1000
1000
0000
2003
0000
3002
0000
,  // measure 10
0023
0001
0000
0100
0100
0000
1000
1000
,  // measure 11
0000
0100
0100
0000
0032
0000
2003
0000
,  // measure 12
3200
0010
0000
0001
0001
0000
1000
1000
,  // measure 13
0000
0010
0010
0000
0302
0000
0203
0000
,  // measure 14
2300
0010
0000
0001
0001
0000
0010
0010
,  // measure 15
0000
0100
0100
0000
3002
0003
2000
3000
,  // measure 16
0010
0000
1000
0000
0100
0000
0010
0100
0010
0000
0001
0000
0100
0000
0010
0000
,  // measure 17
1000
1000
0100
0100
0010
0001
0011
0000
,  // measure 18
0010
0000
0001
0000
0100
0000
0010
0100
0010
0000
1000
0000
0100
0000
0010
0000
,  // measure 19
0100
0100
1000
1000
0001
0010
0110
0000
,  // measure 20
2000
0000
3100
0000
0010
0000
0002
0000
0003
0000
1000
0010
0200
0000
0010
0000
,  // measure 21
0000
0000
0001
0000
0001
0000
0301
0000
0000
0100
0001
0100
0010
0000
1000
0000
,  // measure 22
0200
0000
0300
0000
0010
0000
0002
0000
0003
0000
0000
1000
0200
0000
0000
0000
,  // measure 23
0000
0000
0002
0000
0003
0000
0000
0000
1300
0010
1000
0010
1000
0000
0001
0000
,  // measure 24
0200
0000
0310
0000
1000
0000
0200
0000
0300
0000
0010
0001
2000
0000
0000
0000
,  // measure 25
0000
0000
0010
0000
0000
0000
3100
0000
0000
1000
0100
1000
0100
0000
0010
0000
,  // measure 26
0002
0000
0103
0000
0010
0000
2000
0000
3000
0000
0010
1000
0200
0000
0000
0000
,  // measure 27
0000
0020
0030
0000
0002
0003
2300
3000
,  // measure 28
0002
0000
0013
0000
0100
0000
2000
0000
3000
0000
0001
0100
0020
0000
0100
0000
,  // measure 29
0000
0000
1000
0000
1000
0000
1030
0000
0001
0100
0010
1000
0010
0000
0100
0000
,  // measure 30
0010
0000
0010
0000
0100
0000
0102
0000
0003
0000
0000
1000
0020
0000
0000
0000
,  // measure 31
0000
0000
0002
0000
0003
0000
0000
0000
1030
0100
1000
0100
1000
0000
0001
0000
,  // measure 32
0200
0000
0310
0000
1000
0000
0002
0000
0003
0000
0010
0001
0200
0000
0001
0000
,  // measure 33
0000
0000
0010
0000
0000
0000
1000
0000
0000
0000
0310
1000
0010
0000
1000
0000
,  // measure 34
0200
0000
0310
0000
0001
0000
0200
0000
0300
0000
0001
1000
0020
0000
0000
0000
,  // measure 35
0000
0000
0130
0000
0001
0000
0001
1000
0001
0000
0100
0000
0001
1000
0001
0000
,  // measure 36
0020
0000
0000
0230
0300
0010
0002
1000
,  // measure 37
0000
0020
0030
0000
2000
3000
0200
0303
,  // measure 38
0200
0300
0000
0002
0023
0100
0000
0031
,  // measure 39
0020
0200
0300
0000
0002
0033
0002
0003
,  // measure 40
0020
0000
0000
0230
0300
1000
0020
0100
,  // measure 41
0000
0002
0003
0000
0200
0300
2030
3000
,  // measure 42
2000
3000
0000
0002
0203
0010
0000
0301
,  // measure 43
0200
0020
0030
0000
0002
0303
0002
0003
,  // measure 44
1000
0000
0001
0100
1000
0000
0100
0001
,  // measure 45
0010
0100
0000
1000
0100
1000
0000
0000
,  // measure 46
0001
0000
1000
0100
0001
0000
0100
1000
,  // measure 47
0010
0100
0000
0001
0100
0010
0000
0000
,  // measure 48
0100
0000
0001
0001
0010
0000
0100
1000
,  // measure 49
0100
0001
0000
0100
1000
0010
0000
0000
,  // measure 50
0100
0000
1000
1000
0100
0000
0001
0010
,  // measure 51
0100
0000
1000
0000
0001
0000
1000
0000
0001
0000
1000
0001
0010
0000
0000
0000
,  // measure 52
0200
0000
1300
0010
1000
0000
0100
0000
0010
0000
0001
0100
0001
0000
1000
0000
,  // measure 53
0001
0000
0010
0001
0010
0000
0100
0000
2000
0000
3100
0000
0002
0000
0103
0000
,  // measure 54
2000
0000
3001
0010
0001
0000
0100
0000
0010
0000
1000
0010
1000
0000
0100
0000
,  // measure 55
0010
0000
0100
1000
0100
0000
0010
0000
0002
0000
0013
0000
2000
0000
3010
0000
,  // measure 56
0002
0000
0103
0001
1000
0000
0010
0000
1000
0000
0001
1000
0010
0000
0100
0000
,  // measure 57
0010
0000
1000
0001
0100
0000
0010
0000
0100
0000
0002
0000
0103
0000
1000
0000
,  // measure 58
0200
0310
1000
0200
0310
0001
2000
3001
,  // measure 59
0010
2000
3010
0001
0200
0310
0002
0013
,  // measure 60
2000
0000
0000
0200
0300
0000
0002
0003
,  // measure 61
0000
0020
0030
0000
0002
0003
3002
0003
,  // measure 62
2000
0000
3001
0100
0001
0000
1000
0100
1000
0000
0001
0010
0001
0000
1000
0010
,  // measure 63
1000
0000
0001
0100
0001
0000
1000
0100
2000
0000
3010
0000
0002
0000
0013
0000
,  // measure 64
2000
0000
3010
1000
0010
0000
0100
0001
0100
0000
0001
0010
0001
0000
1000
0100
,  // measure 65
1000
0000
0010
0100
0010
0000
0100
0001
0200
0000
0301
0000
0020
0000
0031
0000
,  // measure 66
0200
0000
0301
1000
0010
0000
1000
0001
0100
0000
0001
0010
0100
0000
1000
0001
,  // measure 67
0100
0000
0001
0100
0010
0000
1000
0100
0020
0000
0031
0100
0020
0000
1030
0200
,  // measure 68
0020
0000
0000
0000
,  // measure 69
0000
0000
0000
0000
,  // measure 70
0330
0000
0000
0000
;

//---------------dance-single - ----------------
#NOTEDATA:;
#CHARTNAME:;
#STEPSTYPE:dance-single;
#DESCRIPTION:;
#CHARTSTYLE:;
#DIFFICULTY:Medium;
#METER:11;
#RADARVALUES:0.459479,0.585238,0.088523,0.511469,0.000000,327.000000,318.000000,9.000000,52.000000,0.000000,0.000000,0.000000,0.000000,0.000000,0.459479,0.585238,0.088523,0.511469,0.000000,327.000000,318.000000,9.000000,52.000000,0.000000,0.000000,0.000000,0.000000,0.000000;
#CREDIT:;
#DISPLAYBPM:170.000000;
#NOTES:
// measure 0
0000
0000
0000
0000
,  // measure 1
0000
0000
0000
0000
,  // measure 2
0000
0000
0000
0000
,  // measure 3
0000
0000
0000
0000
,  // measure 4
2000
3000
0001
2000
3100
0000
2000
3000
,  // measure 5
0001
2000
3010
0000
1000
0000
0110
0000
,  // measure 6
0002
0003
1000
0002
0103
0000
0002
0003
,  // measure 7
1000
0002
0013
0000
0001
0000
0110
0000
,  // measure 8
2000
0010
0001
0010
,  // measure 9
0100
0010
3002
2003
,  // measure 10
3200
0001
0010
1000
,  // measure 11
0010
0001
0320
0032
,  // measure 12
0203
0001
0010
1000
,  // measure 13
0010
0001
0320
2030
,  // measure 14
3002
0100
2000
0003
,  // measure 15
0001
0001
0001
3001
,  // measure 16
1000
0000
0001
0100
0001
0010
0001
0000
,  // measure 17
1000
0010
0100
0101
,  // measure 18
0001
0000
1000
0100
1000
0010
1000
0000
,  // measure 19
0010
0100
0001
1000
,  // measure 20
0100
0010
0100
2000
3000
0010
0200
0010
,  // measure 21
0000
0010
0000
0310
0000
0010
0100
0001
,  // measure 22
0020
0030
0001
0200
0300
0000
2000
3000
,  // measure 23
0000
0100
0000
0000
0001
0010
0100
1000
,  // measure 24
0100
1000
0010
0200
0300
0001
0200
0300
,  // measure 25
0000
0010
0000
0010
0000
1000
0001
0010
,  // measure 26
0001
0001
0100
0002
0003
0010
0200
0300
,  // measure 27
0000
1000
0000
0000
0001
0000
1001
0000
,  // measure 28
1000
0100
0010
0002
0003
0010
0200
1000
,  // measure 29
0000
1000
0000
1300
0000
1000
0010
0100
,  // measure 30
0001
0100
1000
0200
0300
0000
0220
0000
,  // measure 31
0000
0000
0330
0000
0000
0010
0010
0100
,  // measure 32
0001
1000
0100
0020
0030
0100
2000
3000
,  // measure 33
0000
0002
0003
0000
1000
0001
0001
0100
,  // measure 34
0010
0100
0001
0020
0030
0100
2000
3000
,  // measure 35
0000
0000
0010
0010
0000
0100
0010
0000
,  // measure 36
0200
0000
0000
0001
0000
0010
0000
0320
,  // measure 37
0000
1000
0000
0000
1000
0000
1030
0000
,  // measure 38
0001
0000
0000
0100
0020
0100
0000
0130
,  // measure 39
0002
1000
0000
0000
0100
0000
0103
0000
,  // measure 40
2000
0000
0000
0100
0000
0100
0000
3002
,  // measure 41
0000
0010
0000
0000
1000
0000
1000
0000
,  // measure 42
0103
0000
0000
0010
2000
0000
0001
3000
,  // measure 43
0200
0010
0000
0000
0001
0000
0301
0000
,  // measure 44
1000
0100
1001
0000
,  // measure 45
1000
0001
0000
0100
0001
0000
0000
0000
,  // measure 46
0001
0000
0100
0000
1001
0000
0000
0001
,  // measure 47
0010
0100
0000
0010
0100
1000
0000
0000
,  // measure 48
0010
0100
0110
0000
,  // measure 49
0000
0100
0000
0001
0100
0010
0000
0010
,  // measure 50
1000
0000
0100
0000
0110
0000
0000
0100
,  // measure 51
0010
0100
1000
0000
0001
0000
0100
0000
,  // measure 52
0001
0010
0001
1000
0100
0000
0010
0000
,  // measure 53
0100
1000
0010
0100
0001
0000
1000
0000
,  // measure 54
0010
0100
0010
1000
0100
0000
0010
0000
,  // measure 55
0001
0100
0010
0100
0001
1000
0100
0000
,  // measure 56
1000
0100
0010
0100
0010
0000
0001
0000
,  // measure 57
0100
0010
0100
0001
1000
0100
0000
0100
,  // measure 58
1000
0010
0100
0001
0010
0000
0001
0000
,  // measure 59
0010
0001
0100
0010
1000
0000
0001
0000
,  // measure 60
0200
0000
0000
0010
0000
0000
0010
0000
,  // measure 61
0000
0010
0000
0000
0010
0000
0310
0000
,  // measure 62
0010
1000
0100
0010
0001
1000
0001
0100
,  // measure 63
0010
0100
0001
0010
0200
0300
2000
3000
,  // measure 64
0001
0100
0001
1000
0100
0010
0001
1000
,  // measure 65
0010
0100
0010
1000
0200
0300
2000
3000
,  // measure 66
0010
0100
0001
1000
0100
1000
0010
0100
,  // measure 67
0001
1000
0001
0010
0100
1000
0001
0100
,  // measure 68
0020
0000
0000
0000
,  // measure 69
0000
0000
0000
0000
,  // measure 70
0030
0000
0000
0000
;

//---------------dance-single - ----------------
#NOTEDATA:;
#CHARTNAME:;
#STEPSTYPE:dance-single;
#DESCRIPTION:;
#CHARTSTYLE:;
#DIFFICULTY:Easy;
#METER:6;
#RADARVALUES:0.220606,0.309832,0.029508,0.295078,0.000000,157.000000,154.000000,3.000000,30.000000,0.000000,0.000000,0.000000,0.000000,0.000000,0.220606,0.309832,0.029508,0.295078,0.000000,157.000000,154.000000,3.000000,30.000000,0.000000,0.000000,0.000000,0.000000,0.000000;
#CREDIT:;
#DISPLAYBPM:170.000000;
#NOTES:
// measure 0
0000
0000
0000
0000
,  // measure 1
0000
0000
0000
0000
,  // measure 2
0000
0000
0000
0000
,  // measure 3
0000
0000
0000
0000
,  // measure 4
1000
0000
0000
0100
0000
0000
0010
0000
,  // measure 5
0000
0001
0000
0000
1000
0000
1000
0000
,  // measure 6
0001
0000
0000
0100
0000
0000
0010
0000
,  // measure 7
0000
1000
0000
0000
0001
0000
0001
0000
,  // measure 8
2000
0000
0010
0000
,  // measure 9
0001
0000
3020
0230
,  // measure 10
0302
0000
0010
0000
,  // measure 11
1000
0000
0023
0230
,  // measure 12
2300
0000
0100
0000
,  // measure 13
0001
0000
3200
0320
,  // measure 14
0230
0000
0320
0000
,  // measure 15
0100
0000
0130
0000
,  // measure 16
0010
0001
0100
0000
,  // measure 17
0001
0000
1001
0000
,  // measure 18
0010
1000
0100
0000
,  // measure 19
1000
0000
1001
0000
,  // measure 20
1000
0000
0000
1000
0000
0000
2000
0000
,  // measure 21
0000
3000
0000
0000
0000
0000
0001
0000
,  // measure 22
0010
0000
0000
0010
0000
0000
0200
0000
,  // measure 23
0000
0300
0000
0000
0000
0000
0010
0000
,  // measure 24
0001
0000
0000
0001
0000
0000
0002
0000
,  // measure 25
0000
0003
0000
0000
0000
0000
1000
0000
,  // measure 26
0100
0000
0000
0100
0000
0000
0020
0000
,  // measure 27
0000
0030
0000
0000
0000
0000
0100
0000
,  // measure 28
1000
0000
0000
0010
0000
0000
0200
0000
,  // measure 29
0000
0300
0000
0000
0001
0000
0001
0000
,  // measure 30
0001
0000
0000
0010
0000
0000
0200
0000
,  // measure 31
0000
0300
0000
0000
0000
0000
1000
0000
,  // measure 32
0001
0000
0000
0100
0000
0000
0020
0000
,  // measure 33
0000
0030
0000
0000
0000
0000
1000
0000
,  // measure 34
1000
0000
0000
0100
0000
0000
0020
0000
,  // measure 35
0000
0030
0000
0000
0000
0000
0000
0000
,  // measure 36
0002
1000
0000
2003
,  // measure 37
0100
0000
3100
0000
,  // measure 38
1000
0000
0002
0000
,  // measure 39
2000
0000
3003
0000
,  // measure 40
2000
0001
0000
3002
,  // measure 41
0010
0000
0013
0000
,  // measure 42
0001
0000
2000
0000
,  // measure 43
0002
0000
3003
0000
,  // measure 44
1000
0000
0100
0000
,  // measure 45
1000
0000
1000
0000
,  // measure 46
0001
0000
0100
0000
,  // measure 47
0001
0000
0001
0000
,  // measure 48
1000
0000
0010
0000
,  // measure 49
1000
0000
1000
0000
,  // measure 50
0001
0000
0010
0000
,  // measure 51
0100
0100
0100
0000
,  // measure 52
0010
0100
1000
0000
,  // measure 53
0010
0100
0001
0000
,  // measure 54
1000
0001
0010
0000
,  // measure 55
0001
1000
0010
0000
,  // measure 56
0100
0001
0010
0000
,  // measure 57
0100
1000
0010
0000
,  // measure 58
1000
0001
0100
0000
,  // measure 59
0001
1000
0100
0000
,  // measure 60
0220
0000
0000
0000
,  // measure 61
0330
0000
0000
0000
,  // measure 62
0010
0001
0010
0001
,  // measure 63
0100
0010
1000
0000
,  // measure 64
0010
1000
0010
1000
,  // measure 65
0100
0010
0001
0000
,  // measure 66
1000
0100
0010
0001
,  // measure 67
0100
0010
1000
0100
,  // measure 68
0020
0000
0000
0000
,  // measure 69
0000
0000
0000
0000
,  // measure 70
0030
0000
0000
0000
;

//---------------dance-single - ----------------
#NOTEDATA:;
#CHARTNAME:;
#STEPSTYPE:dance-single;
#DESCRIPTION:;
#CHARTSTYLE:;
#DIFFICULTY:Beginner;
#METER:2;
#RADARVALUES:0.088523,0.167211,0.029508,0.059016,0.000000,63.000000,60.000000,3.000000,6.000000,0.000000,0.000000,0.000000,0.000000,0.000000,0.088523,0.167211,0.029508,0.059016,0.000000,63.000000,60.000000,3.000000,6.000000,0.000000,0.000000,0.000000,0.000000,0.000000;
#CREDIT:;
#DISPLAYBPM:170.000000;
#NOTES:
// measure 0
0000
0000
0000
0000
,  // measure 1
0000
0000
0000
0000
,  // measure 2
0000
0000
0000
0000
,  // measure 3
0000
0000
0000
0000
,  // measure 4
1000
0000
0000
0000
,  // measure 5
0000
0000
0000
0000
,  // measure 6
0001
0000
0000
0000
,  // measure 7
0000
0000
0000
0000
,  // measure 8
2000
0000
0000
0000
,  // measure 9
3000
0000
0000
0000
,  // measure 10
0002
0000
0000
0000
,  // measure 11
0003
0000
0000
0000
,  // measure 12
0020
0000
0000
0000
,  // measure 13
0030
0000
0000
0000
,  // measure 14
0200
0000
0000
0000
,  // measure 15
0300
0000
0000
0000
,  // measure 16
1000
0000
1000
0000
,  // measure 17
1000
0000
0000
0000
,  // measure 18
0001
0000
0001
0000
,  // measure 19
0001
0000
0000
0000
,  // measure 20
1001
0000
0000
0000
,  // measure 21
0000
0000
0000
0000
,  // measure 22
1000
0000
0000
0000
,  // measure 23
0000
0000
0000
0000
,  // measure 24
0100
0000
0000
0000
,  // measure 25
0010
0000
0000
0000
,  // measure 26
0001
0000
0000
0000
,  // measure 27
1000
0000
0000
0000
,  // measure 28
1001
0000
0000
0000
,  // measure 29
0000
0000
0000
0000
,  // measure 30
0001
0000
0000
0000
,  // measure 31
0000
0000
0000
0000
,  // measure 32
0100
0000
0000
0000
,  // measure 33
0010
0000
0000
0000
,  // measure 34
1000
0000
0000
0000
,  // measure 35
1000
0000
0000
0000
,  // measure 36
0002
0000
0000
0000
,  // measure 37
0003
0000
0000
0000
,  // measure 38
0001
0000
0000
0000
,  // measure 39
0000
0000
0000
0000
,  // measure 40
2000
0000
0000
0000
,  // measure 41
3000
0000
0000
0000
,  // measure 42
1000
0000
0000
0000
,  // measure 43
0000
0000
0000
0000
,  // measure 44
0010
0000
0000
0000
,  // measure 45
0010
0000
0000
0000
,  // measure 46
0100
0000
0000
0000
,  // measure 47
0100
0000
0000
0000
,  // measure 48
0010
0000
0000
0000
,  // measure 49
0001
0000
0000
0000
,  // measure 50
1000
0000
0000
0000
,  // measure 51
0100
0000
0000
0000
,  // measure 52
1000
0000
1000
0000
,  // measure 53
1000
0000
0000
0000
,  // measure 54
0001
0000
0001
0000
,  // measure 55
0001
0000
0000
0000
,  // measure 56
0100
0000
0100
0000
,  // measure 57
0100
0000
0000
0000
,  // measure 58
0010
0000
0010
0000
,  // measure 59
0010
0000
0000
0000
,  // measure 60
1001
0000
0000
0000
,  // measure 61
0000
0000
0000
0000
,  // measure 62
0001
0000
0100
0000
,  // measure 63
0010
0000
0000
0000
,  // measure 64
1000
0000
0100
0000
,  // measure 65
0010
0000
0000
0000
,  // measure 66
0001
0000
0010
0000
,  // measure 67
0100
0000
1000
0000
,  // measure 68
0001
0000
0000
0000
;
