#VERSION:0.83;
#TITLE:Mambo No. Sex;
#SUBTITLE:;
#ARTIST:E-Rotic;
#TITLETRANSLIT:;
#SUBTITLETRANSLIT:;
#ARTISTTRANSLIT:;
#GENRE:;
#CREDIT:;
#MUSIC:Mambo No Sex.ogg;
#BANNER:Mambo No Sex-bn.png;
#BACKGROUND:Mambo No Sex-bg.png;
#CDTITLE:cdtitle.png;
#SAMPLESTART:38.621;
#SAMPLELENGTH:11.034;
#SELECTABLE:YES;
#OFFSET:0.000;
#BPMS:0.000=174.000;
#STOPS:;
#SPEEDS:0.000=1.000=0.000=0;
#SCROLLS:0.000=1.000;
#TICKCOUNTS:0.000=4;
#TIMESIGNATURES:0.000=4=4;
#LABELS:0.000=Song Start;
#COMBOS:0.000=1;
#ORIGIN:;
#PREVIEWVID:;
#JACKET:Mambo No Sex-jacket.png;
#CDIMAGE:Mambo No Sex-cdimage.png;
#DISCIMAGE:Mambo No Sex-cdimage.png;
#BGCHANGES:15.796=Mambo No Sex.avi=1.000=0=0=1===CrossFade_Fastest==,
319.170=Mambo No Sex-bg.png=1.000=0=0=1,
99999.000=-nosongbg-=1.000=0=0=0=StretchNoLoop====
;
#FGCHANGES:;

//--------------- dance-single - TEAM DANCEMANIA AFICIONADOS ----------------
#NOTEDATA:;
#STEPSTYPE:dance-single;
#DESCRIPTION:TEAM DANCEMANIA AFICIONADOS;
#DIFFICULTY:Beginner;
#METER:3;
#RADARVALUES:0.114976,0.2116,0.159198,0,0,91,73,18,0,0,0,0,0,0,0.114976,0.2116,0.159198,0,0,91,73,18,0,0,0,0,0,0;
#CHARTNAME:;
#CHARTSTYLE:;
#CREDIT:djfipu;
#NOTES:
0000
0000
0000
0000
,
0000
0000
0000
0000
,
0000
0000
0000
0000
,
0000
0000
0000
0000
,
1000
0000
0000
0000
,
0001
0000
0000
0000
,
0100
0000
0000
0000
,
0110
0000
0000
0000
,
0010
0000
0000
0000
,
1000
0000
0000
0000
,
0001
0000
0000
0000
,
1001
0000
0000
0000
,
1000
0000
0000
0000
,
0100
0000
0000
0000
,
0010
0000
0000
0000
,
0001
0000
0000
0000
,
0100
0000
0000
0000
,
0001
0000
0000
0000
,
0010
0000
0000
0000
,
0100
0000
0000
0000
,
0110
0000
0000
0000
,
0100
0000
0000
0000
,
1000
0000
0000
0000
,
0010
0000
0000
0000
,
1000
0000
0000
0000
,
0001
0000
0000
0000
,
1001
0000
0000
0000
,
0110
0000
0000
0000
,
1001
0000
0000
0000
,
1000
0000
0000
0000
,
0100
0000
0000
0000
,
1000
0000
0000
0000
,
1001
0000
0000
0000
,
0001
0000
0000
0000
,
0100
0000
0000
0000
,
0001
0000
0000
0000
,
1001
0000
0000
0000
,
0001
0000
0000
0000
,
0010
0000
0000
0000
,
0001
0000
0000
0000
,
1001
0000
0000
0000
,
1000
0000
0000
0000
,
0010
0000
0000
0000
,
1000
0000
0000
0000
,
0110
0000
0000
0000
,
0100
0000
0000
0000
,
0010
0000
0000
0000
,
0100
0000
0000
0000
,
0010
0000
0000
0000
,
0010
0000
0000
0000
,
0100
0000
0000
0000
,
0100
0000
0000
0000
,
1001
0000
0000
0000
,
1000
0000
0000
0000
,
0001
0000
0000
0000
,
0001
0000
0000
0000
,
1000
0000
0000
0000
,
0001
0000
0000
0000
,
1001
0000
0000
0000
,
0110
0000
0000
0000
,
1001
0000
0000
0000
,
1000
0000
0000
0000
,
0010
0000
0000
0000
,
0100
0000
0000
0000
,
0110
0000
0000
0000
,
0010
0000
0000
0000
,
1000
0000
0000
0000
,
0001
0000
0000
0000
,
1001
0000
0000
0000
,
0001
0000
0000
0000
,
0010
0000
0000
0000
,
0100
0000
0000
0000
,
0110
0000
0000
0000
,
0100
0000
0000
0000
,
1000
0000
0000
0000
,
0001
0000
0000
0000
,
0000
0000
0000
0000
,
0000
0000
0000
0000
,
0000
0000
0000
0000
,
0000
0000
0000
1001
;

//--------------- dance-single - TEAM DANCEMANIA AFICIONADOS ----------------
#NOTEDATA:;
#STEPSTYPE:dance-single;
#DESCRIPTION:TEAM DANCEMANIA AFICIONADOS;
#DIFFICULTY:Easy;
#METER:7;
#RADARVALUES:0.355036,0.493992,0.203419,0,0.004422,281,258,23,0,0,0,0,0,0,0.355036,0.493992,0.203419,0,0.004422,281,258,23,0,0,0,0,0,0;
#CHARTNAME:;
#CHARTSTYLE:;
#CREDIT:djfipu;
#NOTES:
0000
0000
0000
0000
,
0000
0000
0000
0000
,
0000
0000
0000
0000
,
0000
0000
0000
0000
,
1001
0001
0100
0010
,
0100
0001
1000
0100
,
1100
0000
0011
0000
,
1001
1000
0010
0100
,
0101
0001
1000
0100
,
1000
0010
0100
0001
,
1000
0001
0010
0001
,
1001
0000
0000
0000
,
1000
1000
0010
0010
,
0100
0010
1000
0001
,
0010
0010
0100
0100
,
0010
0001
1000
0001
,
1000
1000
0001
0001
,
0100
0010
0100
0001
,
1000
1000
0001
0001
,
0010
0100
1000
1000
,
0001
0100
0100
0100
,
0100
0001
1000
0100
,
1000
0010
0100
0001
,
1000
0000
0001
0000
,
1000
1000
0001
0001
,
1000
0100
0010
0001
,
1001
0000
0000
0000
,
0110
0000
0000
0000
,
1001
1000
1000
1000
,
0001
0001
0001
0001
,
0100
0100
0100
0100
,
0010
0010
0010
0010
,
0110
0010
0010
0010
,
1000
1000
1000
1000
,
0001
0001
0001
0001
,
1001
1000
0100
0010
,
0001
0001
0001
0001
,
1000
1000
1000
1000
,
0010
1000
0100
1000
,
0010
0100
0001
1000
,
0001
0010
0001
0100
,
0001
0010
0001
1000
,
1000
0010
0100
0001
,
1001
0000
0000
0000
,
1000
1000
0001
0001
,
0100
0000
0100
0000
,
0001
0001
1000
1000
,
0100
0000
0100
0000
,
0010
0010
0100
0100
,
1000
0000
1000
0000
,
0001
0100
0010
0100
,
0001
0000
1000
0000
,
0001
0001
1000
1000
,
0010
0000
0010
0000
,
1000
1000
0001
0001
,
0100
0000
0100
0000
,
0001
0010
0100
1000
,
0001
0010
0100
1000
,
1001
0000
0000
0000
,
0110
0000
0000
0000
,
1001
1000
0001
1000
,
1000
0001
0100
0100
,
0001
0010
0001
0100
,
0010
0000
0010
0000
,
1000
0100
1000
0100
,
0010
0001
0010
0001
,
0100
0001
0100
0001
,
1000
0010
1000
0010
,
0100
0001
0010
0001
,
0100
0001
0010
0001
,
1000
0100
1000
0010
,
1000
0100
1000
0001
,
1000
0101
0001
1001
,
1000
1100
0100
0110
,
0010
1001
0100
1001
,
0110
0000
0000
0000
,
0000
0000
0000
0000
,
0000
0000
0000
0000
,
0000
0000
0001
1000
0001
1000
0001
1000
,
0001
0000
0000
1000
0000
0000
0000
0000
0000
0000
0000
0000
0000
0000
0000
0000
0000
0000
0000
0110
0000
0000
0000
0000
;

//--------------- dance-single - TEAM DANCEMANIA AFICIONADOS ----------------
#NOTEDATA:;
#STEPSTYPE:dance-single;
#DESCRIPTION:TEAM DANCEMANIA AFICIONADOS;
#DIFFICULTY:Medium;
#METER:11;
#RADARVALUES:0.448533,0.529277,0.274174,0,0.367039,355,324,31,0,0,0,0,0,0,0.448533,0.529277,0.274174,0,0.367039,355,324,31,0,0,0,0,0,0;
#CHARTNAME:;
#CHARTSTYLE:;
#CREDIT:KAYSTAR x djfipu;
#NOTES:
0000
0000
0000
0000
,
0000
0000
0000
0000
,
0000
0000
0000
0000
,
0000
0000
0000
0000
,
1001
0000
0000
1000
0000
0010
0100
0000
0000
0001
0000
0000
,
0011
1000
1100
0001
,
0100
0000
0000
0010
0000
1000
0001
0000
0000
0010
0000
0000
,
0110
0000
0000
0000
,
1001
0000
0000
1000
0000
0100
0010
0000
0000
0001
0000
0000
,
0101
1000
1010
0001
,
0010
0000
0000
0100
0000
1000
0001
0000
0000
0100
0000
0000
,
0110
0000
0000
0010
,
1001
0000
0000
1000
0000
0000
0001
0000
0000
0100
0000
0001
,
0100
0000
0000
0001
0000
0000
1000
0000
0000
0100
0000
1000
,
0100
0000
0000
1000
0000
0000
0001
0000
0000
0100
0000
0010
,
0100
0000
0001
0010
,
0011
0001
1000
0010
,
1010
0000
0000
1000
0000
0000
0100
0000
0000
0010
0000
0001
,
1000
0010
1010
0110
,
0101
0000
0000
0000
0000
0000
1001
0000
0000
1000
0000
0100
,
1000
0000
0000
0010
0000
0010
0100
0000
0100
0010
0000
0010
,
0100
0000
0000
0001
0000
0010
0001
0000
0000
1000
0000
0000
,
0010
0000
0010
0100
0000
0100
0001
0000
0001
1000
0000
0000
,
0100
0000
0110
0000
,
0001
0000
0000
0010
0000
0001
0010
0000
0000
0001
0000
0000
,
1000
0000
0000
0010
0000
1000
0010
0000
0000
0100
0000
0000
,
1001
0000
0000
1000
,
0001
0000
0000
1000
0000
0001
0000
0000
0000
0000
0000
0000
,
1000
0100
0010
0001
,
0100
0000
0001
0100
0000
0000
0010
0000
1000
0010
0000
0000
,
1000
0001
1000
0100
,
0001
0000
0000
0000
0000
0000
0000
0000
0100
0010
0000
0010
,
0001
0100
0010
1000
,
0100
0000
1000
0100
0000
0000
0010
0000
0001
0010
0000
0000
,
0001
1000
0001
0100
,
1000
0000
0000
0000
0000
0000
0000
0000
0100
0010
0000
0010
,
1000
1001
0000
0001
,
1000
0100
0010
0001
,
0100
0000
0001
0010
0000
0000
0100
0000
1000
0010
0000
0000
,
0001
0000
0000
0000
0000
0000
0000
0000
0010
0100
0000
0100
,
0001
0010
0100
1000
,
0010
0000
1000
0010
0000
0000
0100
0000
0001
0100
0000
0000
,
0001
1000
0001
0010
,
0110
0000
0000
0000
0000
0000
0000
0000
1000
0001
0000
0001
,
1000
0000
0000
0010
0000
0000
0100
0000
0000
0001
0000
1000
,
0000
0000
1000
0000
0000
0000
0100
0000
0000
0010
0000
0000
,
0001
0100
1000
0010
,
0001
0000
0000
0000
0000
0000
1000
0000
1000
0001
0000
0001
,
1000
0000
0000
0100
0000
0000
0010
0000
0000
0001
0000
1000
,
0000
0000
1000
0000
0000
0000
0010
0000
0000
0100
0000
0000
,
0001
0000
0000
0010
0000
0000
0100
0000
0100
0000
0000
1001
,
0000
0000
0000
0000
0000
0000
1000
0000
1000
0001
0000
0001
,
0100
0000
0000
0010
0000
0000
1000
0000
0100
0000
0000
0010
,
0000
0000
0001
0000
0000
0000
1000
0000
0000
1001
0000
0000
,
0001
0000
1000
0000
0000
0010
0000
0000
0100
0000
0000
0110
,
0000
0000
0000
0000
0000
0000
0010
0000
0010
0100
0000
0100
,
0001
0000
0000
1000
0000
0000
0100
0000
0010
0000
0000
0001
,
0000
0000
0100
0000
0000
0000
0010
0000
0000
1000
0000
0000
,
1001
0000
0000
1000
,
0001
0000
0000
1000
0000
0001
0000
0000
0000
0000
0000
0000
,
1000
0010
0100
0010
,
1000
0000
0001
0010
0000
0000
0001
0000
1000
0010
0000
0000
,
0100
0001
1000
0100
,
0001
0000
0000
0101
0000
0000
0110
0000
0100
0010
0000
0010
,
0001
0100
0010
1000
,
0001
0000
0010
0100
0000
0000
1000
0000
0010
0100
0000
0000
,
0001
1000
0100
0010
,
0110
0000
0000
0000
0000
0001
0010
0000
0010
0100
0000
0100
,
1000
1001
0000
0000
,
0001
0000
1000
0010
0000
0000
1000
0000
0001
0010
0000
0000
,
0100
1000
0001
0100
,
1000
0000
0000
1100
0000
0000
0110
0000
0100
0010
0000
0010
,
1000
0001
0010
0100
,
1000
0000
0010
0100
0000
0000
0001
0000
0010
0100
0000
0000
,
1000
0000
0001
0100
0000
0000
0010
0000
1000
0100
0000
0000
,
0110
0000
0000
0000
,
0000
0000
0000
0000
,
0000
0000
0000
0000
,
0000
0000
0000
1000
0001
1000
0001
1000
0001
1000
0001
1000
,
0001
0000
1000
0000
0000
0000
0000
0000
0000
0000
0000
0000
0000
0000
0000
0000
0000
0000
0000
1001
0000
0000
0000
0000
;

//--------------- dance-single - TEAM DANCEMANIA AFICIONADOS ----------------
#NOTEDATA:;
#STEPSTYPE:dance-single;
#DESCRIPTION:TEAM DANCEMANIA AFICIONADOS;
#DIFFICULTY:Hard;
#METER:13;
#RADARVALUES:0.583725,0.670417,0.238796,0,0.831365,462,435,27,0,0,0,0,0,0,0.583725,0.670417,0.238796,0,0.831365,462,435,27,0,0,0,0,0,0;
#CHARTNAME:XO+;
#CHARTSTYLE:;
#CREDIT:KAYSTAR x djfipu;
#NOTES:
0000
0000
0000
0000
,
0000
0000
0000
0000
,
0000
0000
0000
0000
,
0000
0000
0000
0000
,
0001
0000
0000
0010
0000
0100
1000
0000
0000
0100
0000
0010
,
0001
0000
1000
0000
0000
1000
0010
0000
0000
1010
0000
0000
,
0101
0000
0000
0100
0000
0001
1000
0000
0000
0100
0010
0100
,
0010
0001
1000
0001
,
1000
0000
0000
0010
0000
0100
0001
0000
0000
0100
0000
0010
,
1000
0000
0001
0000
0000
0001
0010
0000
0000
0011
0000
0000
,
1100
0000
0000
0100
0000
1000
0001
0000
0000
0100
0010
0100
,
0010
0000
0000
0000
0000
0000
0000
0000
1000
0001
1000
0001
,
0010
0000
0000
0100
0000
1000
0100
0000
0000
0010
0000
0001
,
0010
0000
0000
0001
0000
0001
1000
0000
1000
0010
0000
0010
,
0100
0000
0100
0001
0000
0010
0001
0000
0000
1000
0000
0100
,
1000
0000
0001
0100
0000
0010
1000
0000
0000
0100
0000
0000
,
1100
0000
0000
0001
0000
0100
0000
0000
1000
0000
0000
1000
,
0000
0000
0100
0010
0000
0010
1000
0000
1000
0001
0000
0001
,
0010
0000
0010
0100
0000
1000
0010
0000
0000
0001
0000
0000
,
0001
0000
0010
0100
0000
0000
0101
0000
0000
0001
0000
1000
,
0100
0000
0000
0010
0000
0010
0100
0000
0100
0010
0000
0010
,
0100
0000
0100
0010
0000
1001
0000
0000
0001
0100
0000
0000
,
0010
0000
0000
1000
0000
0100
0000
0000
0001
0000
0000
0001
,
0100
0000
0000
0010
0000
0001
1000
0001
1000
0000
0000
0010
,
0100
0000
0000
0100
0000
0001
1000
0000
0000
0100
0000
0000
,
0110
0010
0001
0100
,
0110
0000
0000
0000
0000
0000
0000
0000
1000
0001
0000
1000
,
0001
0000
0000
1000
0000
0001
0000
0000
1000
0100
1000
0100
,
0010
0000
0001
1000
0000
0000
0010
0000
1000
0001
0000
0000
,
1000
0000
1000
0100
0000
0000
0001
0000
0001
0100
0000
0000
,
0010
0000
0001
1000
0000
0000
0010
0000
1000
0100
0000
0010
,
0000
0000
0100
1000
0000
0010
0000
0000
0100
0001
1000
0001
,
1000
0000
0100
0010
0000
0000
0001
0000
0010
0100
0000
0000
,
1000
0000
1000
0010
0000
0000
0001
0000
0001
0010
0000
0000
,
0100
0000
0010
1000
0000
0000
0001
0000
0010
0100
0000
0000
,
1100
0000
0000
0000
0000
1000
0010
0000
0000
0100
0000
0000
,
0001
0000
0000
0011
0000
0000
0010
0000
0100
1000
0000
0000
,
0001
0000
0001
0100
0000
0000
1000
0000
1000
0100
0000
0000
,
0010
0000
1000
0001
0000
0000
0010
0000
0000
0001
0100
0010
,
1000
0000
0000
0001
0000
0000
0010
0000
0100
1000
0001
1000
,
0001
0000
0100
0010
0000
0000
1000
0000
0010
0100
0000
0000
,
0001
0000
0001
0010
0000
0000
1000
0000
1000
0010
0000
0000
,
0100
0000
1000
0001
0000
0000
0100
0000
0001
1000
0000
0000
,
1001
0000
0000
0000
,
0001
0000
0000
0100
0000
0000
0010
0000
0000
1000
0000
0001
,
0000
0000
0001
0000
0000
0001
0010
0000
0100
0010
0000
0100
,
1000
0010
0001
0100
,
1000
0000
0000
0000
0000
0001
0100
0000
0010
0100
0000
0010
,
1000
0000
0000
0100
0000
0000
0010
0000
0000
0001
0000
1000
,
0000
0000
1000
0000
0000
1000
0001
0000
0100
0010
0000
1000
,
0001
0010
1000
0100
,
0001
0000
0000
0000
0000
1000
0001
0000
0010
0100
0000
1000
,
0001
0000
0000
0100
0000
0000
0010
0000
1000
0000
0000
0100
,
0000
0000
0001
0000
0000
0100
0010
0000
0010
0001
0000
1000
,
0010
0000
0100
0000
0000
0001
0000
0000
0010
0000
0000
1000
,
0000
0000
0010
0000
0000
0100
1000
0000
0001
0100
0000
0100
,
0010
0000
0000
1000
0000
0000
0001
0000
0010
0000
0000
0100
,
0000
0000
1000
0000
0000
0010
0000
0000
0001
0010
0000
0010
,
0100
0000
0000
1001
0000
0000
0000
0000
0100
0010
0000
0100
,
0010
0000
0000
0100
0000
1001
0000
0000
0001
0010
0100
1000
,
0001
0000
0000
0101
0000
0100
0010
0000
0000
1010
0000
1000
,
0100
0000
0100
0001
0000
0001
0100
0000
0100
1000
0000
1000
,
0010
0000
0000
0110
0000
0000
0100
0000
0001
0010
0000
0100
,
0000
0000
0010
0001
0000
0100
0000
0000
0010
1000
0001
1000
,
0001
0000
0000
1100
0000
0100
0010
0000
0000
0011
0000
0001
,
0100
0000
0100
1000
0000
1000
0100
0000
0100
0001
0000
0001
,
0010
0000
0000
0110
0000
0000
0100
0000
1000
0001
0000
0000
,
0100
0000
0001
0100
0000
0010
0100
0000
0010
1000
0000
0000
,
0100
0000
0000
1100
0000
1000
0001
0000
0000
0101
0000
0001
,
0010
0000
0010
1000
0000
1000
0001
0000
0001
0100
0000
0100
,
0010
0000
0000
0110
0000
0100
1000
0000
0000
0001
0100
0001
,
0100
0000
0010
0100
0000
0010
1000
0000
0100
1000
0100
1000
,
0001
0000
0000
0101
0000
0001
1000
0000
0000
1100
0000
1000
,
0010
0000
0010
0001
0000
0001
1000
0000
1000
0100
0000
0100
,
0010
0000
0000
0110
0000
0100
0001
0000
0000
1000
0100
0010
,
0001
0000
0000
0000
,
0000
0000
0000
0000
,
0000
0000
0000
0000
,
0000
0000
0000
1000
0001
1000
0001
1000
0001
1000
0001
1000
,
0001
0000
1000
0000
0000
0000
0000
0000
0000
0000
0000
0000
0000
0000
0000
0000
0000
0000
0000
0110
0000
0000
0000
0000
;

//--------------- dance-single - TEAM DANCEMANIA AFICIONADOS ----------------
#NOTEDATA:;
#STEPSTYPE:dance-single;
#DESCRIPTION:TEAM DANCEMANIA AFICIONADOS;
#DIFFICULTY:Challenge;
#METER:13;
#RADARVALUES:0.583725,0.671118,0.238796,0,0.751767,462,435,27,0,0,0,0,0,0,0.583725,0.671118,0.238796,0,0.751767,462,435,27,0,0,0,0,0,0;
#CHARTNAME:true DDR 3rd MIX experience;
#CHARTSTYLE:;
#CREDIT:KAYSTAR x djfipu;
#NOTES:
0000
0000
0000
0000
,
0000
0000
0000
0000
,
0000
0000
0000
0000
,
0000
0000
0000
0000
,
0001
0000
0000
0000
0010
0000
0000
0100
1000
0000
0000
0000
0100
0000
0000
0010
,
0001
0000
0000
1000
0000
0000
0000
1000
0010
0000
0000
0000
1010
0000
0000
0000
,
0101
0000
0000
0000
0100
0000
0000
0001
1000
0000
0000
0000
0100
0000
0010
0100
,
0010
0001
1000
0001
,
1000
0000
0000
0000
0010
0000
0000
0100
0001
0000
0000
0000
0100
0000
0000
0010
,
1000
0000
0000
0001
0000
0000
0000
0001
0010
0000
0000
0000
0011
0000
0000
0000
,
1100
0000
0000
0000
0100
0000
0000
1000
0001
0000
0000
0000
0100
0000
0010
0100
,
0010
0000
0000
0000
0000
0000
0000
0000
0000
0000
0000
1000
0001
0000
1000
0001
,
0010
0000
0000
0000
0100
0000
0000
1000
0100
0000
0000
0000
0010
0000
0000
0001
,
0010
0000
0000
0000
0001
0000
0000
0001
1000
0000
0000
1000
0010
0000
0000
0010
,
0100
0000
0000
0100
0001
0000
0000
0010
0001
0000
0000
0000
1000
0000
0000
0100
,
1000
0000
0000
0001
0100
0000
0000
0010
1000
0000
0000
0000
0100
0000
0000
0000
,
1100
0000
0000
0000
0001
0000
0000
0100
0000
0000
0000
1000
0000
0000
0000
1000
,
0000
0000
0000
0100
0010
0000
0000
0010
1000
0000
0000
1000
0001
0000
0000
0001
,
0010
0000
0000
0010
0100
0000
0000
1000
0010
0000
0000
0000
0001
0000
0000
0000
,
0001
0000
0000
0010
0100
0000
0000
0000
0101
0000
0000
0000
0001
0000
0000
1000
,
0100
0000
0000
0000
0010
0000
0000
0010
0100
0000
0000
0100
0010
0000
0000
0010
,
0100
0000
0000
0100
0010
0000
0000
1001
0000
0000
0000
0001
0100
0000
0000
0000
,
0010
0000
0000
0000
1000
0000
0000
0100
0000
0000
0000
0001
0000
0000
0000
0001
,
0100
0000
0000
0000
0010
0000
0000
0001
1000
0000
0001
1000
0000
0000
0000
0010
,
0100
0000
0000
0000
0100
0000
0000
0001
1000
0000
0000
0000
0100
0000
0000
0000
,
0110
0010
0001
0100
,
0110
0000
0000
0000
0000
0000
0000
0000
0000
0000
0000
1000
0001
0000
0000
1000
,
0001
0000
0000
0000
1000
0000
0000
0001
0000
0000
0000
1000
0100
0000
1000
0100
,
0010
0000
0000
0001
1000
0000
0000
0000
0010
0000
0000
1000
0001
0000
0000
0000
,
1000
0000
0000
1000
0100
0000
0000
0000
0001
0000
0000
0001
0100
0000
0000
0000
,
0010
0000
0000
0001
1000
0000
0000
0000
0010
0000
0000
1000
0100
0000
0000
0010
,
0000
0000
0000
0100
1000
0000
0000
0010
0000
0000
0000
0100
0001
0000
1000
0001
,
1000
0000
0000
0100
0010
0000
0000
0000
0001
0000
0000
0010
0100
0000
0000
0000
,
1000
0000
0000
1000
0010
0000
0000
0000
0001
0000
0000
0001
0010
0000
0000
0000
,
0100
0000
0000
0010
1000
0000
0000
0000
0001
0000
0000
0010
0100
0000
0000
0000
,
1100
0000
0000
0000
0000
0000
0000
1000
0010
0000
0000
0000
0100
0000
0000
0000
,
0001
0000
0000
0000
0011
0000
0000
0000
0010
0000
0000
0100
1000
0000
0000
0000
,
0001
0000
0000
0001
0100
0000
0000
0000
1000
0000
0000
1000
0100
0000
0000
0000
,
0010
0000
0000
1000
0001
0000
0000
0000
0010
0000
0000
0000
0001
0000
0100
0010
,
1000
0000
0000
0000
0001
0000
0000
0000
0010
0000
0000
0100
1000
0000
0001
1000
,
0001
0000
0000
0100
0010
0000
0000
0000
1000
0000
0000
0010
0100
0000
0000
0000
,
0001
0000
0000
0001
0010
0000
0000
0000
1000
0000
0000
1000
0010
0000
0000
0000
,
0100
0000
0000
1000
0001
0000
0000
0000
0100
0000
0000
0001
1000
0000
0000
0000
,
1001
0000
0000
0000
,
0001
0000
0000
0000
0100
0000
0000
0000
0010
0000
0000
0000
1000
0000
0000
0001
,
0000
0000
0000
0001
0000
0000
0000
0001
0010
0000
0000
0100
0010
0000
0000
0100
,
1000
0010
0001
0100
,
1000
0000
0000
0000
0000
0000
0000
0001
0100
0000
0000
0010
0100
0000
0000
0010
,
1000
0000
0000
0000
0100
0000
0000
0000
0010
0000
0000
0000
0001
0000
0000
1000
,
0000
0000
0000
1000
0000
0000
0000
1000
0001
0000
0000
0100
0010
0000
0000
1000
,
0001
0010
1000
0100
,
0001
0000
0000
0000
0000
0000
0000
1000
0001
0000
0000
0010
0100
0000
0000
1000
,
0001
0000
0000
0000
0100
0000
0000
0000
0010
0000
0000
1000
0000
0000
0000
0100
,
0000
0000
0000
0001
0000
0000
0000
0100
0010
0000
0000
0010
0001
0000
0000
1000
,
0010
0000
0000
0100
0000
0000
0000
0001
0000
0000
0000
0010
0000
0000
0000
1000
,
0000
0000
0000
0010
0000
0000
0000
0100
1000
0000
0000
0001
0100
0000
0000
0100
,
0010
0000
0000
0000
1000
0000
0000
0000
0001
0000
0000
0010
0000
0000
0000
0100
,
0000
0000
0000
1000
0000
0000
0000
0010
0000
0000
0000
0001
0010
0000
0000
0010
,
0100
0000
0000
0000
1001
0000
0000
0000
0000
0000
0000
0100
0010
0000
0000
0100
,
0010
0000
0000
0000
0100
0000
0000
1001
0000
0000
0000
0001
0010
0000
0100
1000
,
0001
0000
0000
0000
0101
0000
0000
0100
0010
0000
0000
0000
1010
0000
0000
1000
,
0100
0000
0000
0100
0001
0000
0000
0001
0100
0000
0000
0100
1000
0000
0000
1000
,
0010
0000
0000
0000
0110
0000
0000
0000
0100
0000
0000
0001
0010
0000
0000
0100
,
0000
0000
0000
0010
0001
0000
0000
0100
0000
0000
0000
0010
1000
0000
0001
1000
,
0001
0000
0000
0000
1100
0000
0000
0100
0010
0000
0000
0000
0011
0000
0000
0001
,
0100
0000
0000
0100
1000
0000
0000
1000
0100
0000
0000
0100
0001
0000
0000
0001
,
0010
0000
0000
0000
0110
0000
0000
0000
0100
0000
0000
1000
0001
0000
0000
0000
,
0100
0000
0000
0001
0100
0000
0000
0010
0100
0000
0000
0010
1000
0000
0000
0000
,
0100
0000
0000
0000
1100
0000
0000
1000
0001
0000
0000
0000
0101
0000
0000
0001
,
0010
0000
0000
0010
1000
0000
0000
1000
0001
0000
0000
0001
0100
0000
0000
0100
,
0010
0000
0000
0000
0110
0000
0000
0100
1000
0000
0000
0000
0001
0000
0100
0001
,
0100
0000
0000
0010
0100
0000
0000
0010
1000
0000
0000
0100
1000
0000
0100
1000
,
0001
0000
0000
0000
0101
0000
0000
0001
1000
0000
0000
0000
1100
0000
0000
1000
,
0010
0000
0000
0010
0001
0000
0000
0001
1000
0000
0000
1000
0100
0000
0000
0100
,
0010
0000
0000
0000
0110
0000
0000
0100
0001
0000
0000
0000
1000
0000
0100
0010
,
0001
0000
0000
0000
,
0000
0000
0000
0000
,
0000
0000
0000
0000
,
0000
0000
0000
0000
1000
0000
0001
1000
0001
0000
1000
0001
1000
0000
0001
1000
,
0001
1000
0000
0000
0000
0000
0000
0110
;

//--------------- dance-double - TEAM DANCEMANIA AFICIONADOS ----------------
#NOTEDATA:;
#STEPSTYPE:dance-double;
#DESCRIPTION:TEAM DANCEMANIA AFICIONADOS;
#DIFFICULTY:Easy;
#METER:7;
#RADARVALUES:0.259012,0.352851,0.070755,0,0.004422,205,197,8,0,0,0,0,0,0,0.259012,0.352851,0.070755,0,0.004422,205,197,8,0,0,0,0,0,0;
#CHARTNAME:;
#CHARTSTYLE:;
#CREDIT:KAYSTAR;
#NOTES:
00000000
00000000
00000000
00000000
,
00000000
00000000
00000000
00000000
,
00000000
00000000
00000000
00000000
,
00000000
00000000
00000000
00000000
,
10000000
10000000
10000000
00000000
,
00010000
00100000
01000000
00010000
,
00001000
00000000
00010000
00000010
,
00001000
00000000
00000000
00000000
,
00000001
00000001
00000001
00000000
,
00001000
00000010
00000100
00001000
,
00010000
00000000
00001000
00100000
,
00010000
00000000
00000000
00000000
,
10000000
00000000
00100000
01000000
,
00010000
00000000
00100000
01000000
,
10000000
00000000
00100000
00000000
,
00010000
00000000
00001000
00010000
,
00001000
00000000
00010000
01000000
,
00010000
00000000
00001000
00010000
,
00001000
00000000
00000010
00000000
,
00000001
00000000
00001000
00000010
,
00000100
00000000
00000001
00000010
,
00000100
00000000
00001000
00000001
,
00000100
00000000
00001000
00000000
,
00011000
00000000
00010000
00001000
,
00010000
00000000
01000000
00100000
,
00010000
00000000
10000000
00000000
,
00100000
00000000
00000000
00000000
,
10010000
00000000
00000000
00000000
,
10000000
10000000
10000000
00000000
,
01000000
00010000
00001000
00000000
,
01000000
00001000
00010000
00000010
,
00001000
00000000
00000000
00000000
,
00000001
00000001
00000001
00000000
,
00000100
00001000
00010000
00000000
,
00000100
00010000
00001000
00100000
,
00010000
00000000
00000000
00000000
,
10000000
10000000
10000000
00000000
,
00100000
00010000
00001000
00000000
,
00100000
00001000
00010000
00000100
,
00001000
00000000
00000000
00000000
,
00000001
00000001
00000001
00000000
,
00000010
00001000
00010000
00000000
,
00000010
00010000
00001000
00000000
,
00011000
00000000
00000000
00000000
,
00010000
00000000
00100000
00000000
,
10000000
00000000
00000000
00000000
,
00010000
00000000
00100000
00000000
,
01000000
00000000
00010000
00000000
,
00001000
00000000
00000010
00000000
,
00000001
00000000
00000000
00000000
,
00001000
00000000
00000010
00000000
,
00000100
00000000
00001000
00000000
,
00010000
00001000
00010000
00000000
,
00100000
00010000
00100000
00000000
,
10000000
00000000
01000000
00000000
,
00010000
00000000
00000000
00000000
,
00001000
00010000
00001000
00000000
,
00000010
00001000
00000010
00000000
,
00000100
00000000
00000000
00000000
,
00001001
00000000
00000110
00000000
,
00000001
00000001
00000001
00000000
,
00000100
00001000
00010000
00000100
,
00001000
00010000
00100000
00001000
,
00010000
00000000
00100000
00000000
,
10000000
10000000
10000000
00000000
,
01000000
00010000
00001000
01000000
,
00010000
00001000
00000010
00010000
,
00001000
00000000
00000010
00000000
,
00000001
00000001
00000001
00000000
,
00000100
00001000
00010000
01000000
,
00100000
00010000
10000000
00100000
,
01100000
00000000
00010000
00000000
,
10000000
10000000
10000000
00000000
,
01000000
00010000
00001000
00000100
,
00000010
00001000
00000001
00000010
,
00000110
00000000
00000000
00000000
,
00000000
00000000
00000000
00000000
,
00000000
00000000
00000000
00000000
,
00000000
00000000
00001000
00000001
00001000
00000001
00001000
00000001
,
00001000
00000000
00000000
00000001
00000000
00000000
00000000
00000000
00000000
00000000
00000000
00000000
00000000
00000000
00000000
00000000
00000000
00000000
00000000
00000110
00000000
00000000
00000000
00000000
;

//--------------- dance-double - TEAM DANCEMANIA AFICIONADOS ----------------
#NOTEDATA:;
#STEPSTYPE:dance-double;
#DESCRIPTION:TEAM DANCEMANIA AFICIONADOS;
#DIFFICULTY:Medium;
#METER:10;
#RADARVALUES:0.386623,0.458707,0.185731,0,0.176886,306,285,21,0,0,0,0,0,0,0.386623,0.458707,0.185731,0,0.176886,306,285,21,0,0,0,0,0,0;
#CHARTNAME:;
#CHARTSTYLE:;
#CREDIT:KAYSTAR;
#NOTES:
00000000
00000000
00000000
00000000
,
00000000
00000000
00000000
00000000
,
00000000
00000000
00000000
00000000
,
00000000
00000000
00000000
00000000
,
10000000
00000000
00000000
00100000
00000000
01000000
00100000
00000000
00000000
10000000
00000000
00000000
,
01000000
00010000
00001000
00010000
,
00100000
00010000
00001000
00000100
,
00000010
00000000
00000000
00001000
,
00000001
00000000
00000000
00000010
00000000
00000100
00000010
00000000
00000000
00000001
00000000
00000000
,
00000100
00001000
00010000
00001000
,
00000010
00001000
00010000
01000000
,
00100000
00000000
00000000
00000000
,
00010000
10000000
00100000
01000000
,
00010000
00100000
01000000
00010000
,
00001000
00001000
00010000
00010000
,
00011000
00000000
00001000
00010000
,
00000010
00000100
00000001
00001000
,
00000100
00000010
00000001
00001000
,
00000010
00000100
00001000
00010000
,
00011000
00000000
00000000
00000000
00000000
00000000
00010000
00000000
00000000
00100000
00000000
01000000
,
00100000
10000000
00010000
00010000
,
00010000
00100000
01000000
00010000
,
00001000
00000000
00000000
00000010
00000000
00000000
00000100
00000000
00000000
00001000
00000000
00000001
,
00001000
00000000
00001001
00000000
,
00000001
00000001
00000100
00001000
,
00010000
01000000
00100000
00001000
,
00011000
00000000
00000000
00010000
,
00001000
00000000
00000000
00010000
00000000
00001000
00000000
00000000
00000000
00000000
00000000
00000000
,
00010000
00100000
10000000
01000000
,
00100000
00000000
01000000
00100000
00000000
00000000
00010000
00000000
10000000
00010000
00000000
00000000
,
10000000
00100000
01000000
00001000
,
00011000
00000000
00000000
00000000
,
00001000
00000010
00000001
00000100
,
00000010
00000000
00000100
00000010
00000000
00000000
00001000
00000000
00000001
00001000
00000000
00000000
,
00000001
00000010
00000100
00010000
,
00001000
00100000
01000000
10000000
,
00100000
01100000
00000000
00000000
,
01000000
00000000
00100000
01000000
00000000
00000000
00010000
00000000
10000000
00010000
00000000
00000000
,
00100000
01000000
00010000
00001000
,
00011000
00000000
00000000
00000000
,
00001000
00000100
00000001
00000010
,
00000100
00000000
00000010
00000100
00000000
00000000
00001000
00000000
00000001
00001000
00000000
00000000
,
00000010
00000100
00001000
00010000
,
00011000
00000000
00000000
00000000
,
00001000
00100000
00010000
00000000
,
01000000
00001000
00010000
00000000
,
00100000
00000000
10000000
00000000
,
01000000
00000000
00010000
00001000
,
00010000
00000010
00001000
00000000
,
00000100
00010000
00001000
00000000
,
00000010
00000000
00000001
00000000
,
00000100
00000000
00001000
00010000
,
00001000
00000000
00000000
00100000
00000000
00000000
00110000
00000000
00000000
00010000
00000000
10000000
,
00000000
00000000
00100000
00000000
00000000
00100000
01000000
00000000
00000000
01100000
00000000
00000000
,
00010000
10000000
00010000
00100000
,
01000000
00010000
00011000
00011000
,
00010000
00000000
00000000
00000010
00000000
00000000
00001010
00000000
00000000
00001000
00000000
00000001
,
00000000
00000000
00000010
00000000
00000000
00000010
00000100
00000000
00000000
00000110
00000000
00000000
,
00001001
00000000
00000000
00001000
,
00010000
00000000
00000000
00001000
00000000
00010000
00000000
00000000
00000000
00000000
00000000
00000000
,
00001000
00010000
00100000
01000000
,
00010000
00000000
10000000
01000000
00000000
00000000
10000000
00000000
00010000
01000000
00000000
00000000
,
00100000
10000000
01000000
00010000
,
00011000
00000000
00000000
00001000
00000000
00010000
00001000
00000000
00010000
00001000
00000000
00000000
,
00010000
00001000
00000010
00000100
,
00001000
00000000
00000001
00000100
00000000
00000000
00000001
00000000
00001000
00000100
00000000
00000000
,
00000010
00000001
00000100
00001000
,
00011000
00010000
00100000
10000000
,
00010000
10010000
00000000
00000000
,
00010000
00000000
10000000
00100000
00000000
00000000
10000000
00000000
00010000
00100000
00000000
00000000
,
01000000
10000000
00100000
00010000
,
00011000
00000000
00000000
00001000
00000000
00010000
00001000
00000000
00010000
00001000
00000000
00000000
,
00010000
00001000
00000100
00000010
,
00001000
00000000
00000001
00000010
00000000
00000000
00000001
00000000
00001000
00000010
00000000
00000000
,
00000100
00000001
00000010
00001000
,
00011000
00000000
00000000
00000000
,
00000000
00000000
00000000
00000000
,
00000000
00000000
00000000
00000000
,
00000000
00000000
00000000
00010000
00001000
00010000
00001000
00010000
00001000
00010000
00001000
00010000
,
00001000
00000000
00010000
00000000
00000000
00000000
00000000
00000000
00000000
00000000
00000000
00000000
00000000
00000000
00000000
00000000
00000000
00000000
00000000
00011000
00000000
00000000
00000000
00000000
;

//--------------- dance-double - TEAM DANCEMANIA AFICIONADOS ----------------
#NOTEDATA:;
#STEPSTYPE:dance-double;
#DESCRIPTION:TEAM DANCEMANIA AFICIONADOS;
#DIFFICULTY:Hard;
#METER:12;
#RADARVALUES:0.494018,0.564562,0.212264,0,0.495282,391,367,24,0,0,0,0,0,0,0.494018,0.564562,0.212264,0,0.495282,391,367,24,0,0,0,0,0,0;
#CHARTNAME:;
#CHARTSTYLE:;
#CREDIT:KAYSTAR;
#NOTES:
00000000
00000000
00000000
00000000
,
00000000
00000000
00000000
00000000
,
00000000
00000000
00000000
00000000
,
00000000
00000000
00000000
00000000
,
10010000
00000000
00000000
00010000
00000000
00100000
00010000
00000000
00000000
01000000
00000000
00001000
,
00000000
00000000
00001000
00000000
00000000
00010000
00100000
00000000
00000000
01000000
00000000
00000000
,
00001000
00000000
00000000
00010000
00000000
00001000
00000010
00000000
00000000
00000100
00001000
00000100
,
00001000
00000010
00000100
00000001
,
00001001
00000000
00000000
00001000
00000000
00000100
00001000
00000000
00000000
00000010
00000000
00010000
,
00000000
00000000
00010000
00000000
00000000
00001000
00000100
00000000
00000000
00000010
00000000
00000000
,
00010000
00000000
00000000
00001000
00000000
00010000
01000000
00000000
00000000
00100000
00010000
00100000
,
00010000
00000000
00000000
00000000
,
01000000
00100000
10000000
01000000
,
00010000
01000000
00100000
00001000
,
00010000
00010000
00001000
00001000
,
00010000
00000100
00000010
00000001
,
00000100
00000010
00001000
00000100
,
00000001
00000100
00001000
00000010
,
00010000
00010000
00001000
00001000
,
00100000
00000000
00000000
01000000
00000000
00000000
10000000
00000000
00000000
00010000
00000000
01000000
,
00100000
00000000
00000000
01000000
00000000
00000000
00010000
00000000
10000000
01000000
00000000
10000000
,
01000000
00100000
00001000
00010000
,
00000100
00000000
00000010
00000001
00000000
00000010
00000001
00000000
00000000
00000100
00000000
00000000
,
00001000
00000000
00000000
00011000
00000000
00000000
00010000
00001000
00010000
00001000
00000000
00000000
,
00100000
00000000
00000000
01000000
00000000
10000000
00010000
00000000
00000000
01000000
00000000
00001000
,
00010000
00000000
00000000
00000100
00000000
00001000
00000001
00000000
00000000
00000100
00000000
00000000
,
00001000
00000000
00000000
00000000
00000000
00000000
00000000
00000000
00010000
00001000
00000000
00010000
,
00001000
00000000
00000000
00010000
00000000
00001000
00000000
00000000
00010000
00001000
00010000
00001000
,
00010000
00100000
10000000
01000000
,
00010000
00000000
00010000
01000000
00000000
00000000
00100000
00000000
00100000
00010000
00000000
00000000
,
10000000
00000000
00000000
00100000
00000000
00000000
01000000
00000000
00000000
00001000
00010000
00001000
,
00010000
00010100
00011000
00101000
,
00001000
00000010
00000001
00000100
,
00001000
00000000
00001000
00000100
00000000
00000000
00000010
00000000
00000010
00001000
00000000
00000000
,
00000001
00000000
00000000
00000010
00000000
00000000
00000100
00000000
00000000
00010000
00001000
00010000
,
00001000
00000000
00000000
01000000
00000000
00010000
00000000
00000000
00110000
00000000
00000000
00010000
,
00100000
01000000
10000000
00100000
,
00010000
00000000
00010000
00100000
00000000
00000000
01000000
00000000
01000000
00010000
00000000
00000000
,
10000000
00000000
00000000
01000000
00000000
00000000
00100000
00000000
00000000
00001000
00010000
00001000
,
00010000
00010010
00011000
01001000
,
00001000
00000100
00000001
00000010
,
00001000
00000000
00001000
00000010
00000000
00000000
00000100
00000000
00000100
00001000
00000000
00000000
,
00000001
00000000
00000100
00000010
00000000
00000000
00001000
00000000
00000100
00010000
00000000
00000000
,
00011000
00000000
00000000
00000000
,
00001000
00000000
00000000
00010000
00000000
00000000
00001000
00000000
00000000
00010000
00000000
00100000
,
00000000
00000000
00100000
00000000
00000000
01000000
00010000
00000000
00000000
10000000
00000000
00000000
,
01000000
00100000
00001000
00010000
,
00100000
01000000
00001000
00011000
,
00010000
00000000
00000000
00001000
00000000
00000000
00010000
00000000
00000000
00001000
00000000
00000010
,
00000000
00000000
00000010
00000000
00000000
00000100
00001000
00000000
00000000
00000001
00000000
00000000
,
00001000
00000000
00000000
00000010
00000000
00000000
00000100
00000000
00001000
00000000
00000000
00010000
,
00000000
00000000
00000000
00000000
00000000
00001000
00010000
00000000
00001000
00010000
00000000
00000000
,
00100000
00000000
00000000
10000000
00000000
00000000
00010000
00000000
00000000
00100000
00000000
01000000
,
00000000
00000000
10000000
00000000
00000000
00100000
01000000
00000000
00000000
00010000
00000000
00000000
,
00100000
00000000
00001000
00000000
00000000
00001000
00000000
00000000
00010000
00000000
00000000
01000000
,
00100000
00000000
00000000
00001000
00000000
00010000
00001000
00000000
00010000
00001000
00000000
00000000
,
00000100
00000000
00000000
00000001
00000000
00000000
00001000
00000000
00000000
00000100
00000000
00000010
,
00000000
00000000
00000001
00000000
00000000
00001000
00000010
00000000
00000000
00000100
00000000
00000001
,
00000010
00000000
00000000
00000000
00000000
00000000
00000000
00000000
00001000
00010000
00000000
00001000
,
00010000
00000000
00000000
00001000
00000000
00010000
00000000
00000000
00001000
00010000
00001000
00010000
,
00001000
00000000
00000000
00000010
00000000
00000100
00001000
00000000
00000000
00000001
00000000
00000000
,
00000100
00000000
00000100
00001000
00000000
00000000
00010000
00000000
00010000
00100000
00000000
00000000
,
01100000
00000000
00000000
00010000
00000000
10000000
01000000
00000000
00000000
00010000
00001000
00010000
,
00001000
01001000
00011000
00010010
,
00010000
00000000
00000000
00100000
00000000
01000000
00010000
00000000
00000000
10000000
00000000
00000000
,
01000000
00000000
01000000
00010000
00000000
00000000
00001000
00000000
00001000
00000010
00000000
00000000
,
00000110
00000000
00000000
00001000
00000000
00000001
00000100
00000000
00000000
00001000
00010000
00001000
,
00010000
00000000
00000000
00000010
00000000
00001000
00000000
00000000
00001100
00000000
00000000
00000100
,
00010000
00000000
00000000
00001000
00000000
00100000
00010000
00000000
00000000
10000000
00000000
00000000
,
00100000
00000000
00100000
00010000
00000000
00000000
00001000
00000000
00001000
00000100
00000000
00000000
,
00000110
00000000
00000000
00001000
00000000
00000001
00000010
00000000
00000000
00001000
00010000
00001000
,
00010000
00010010
00011000
01001000
,
00001000
00000000
00000000
00000100
00000000
00000010
00001000
00000000
00000000
00000001
00000000
00000000
,
00000010
00000000
00000010
00001000
00000000
00000000
00010000
00000000
00010000
01000000
00000000
00000000
,
10000000
00000000
00100000
01000000
00000000
00000000
00010000
00000000
00100000
00001000
00000000
00000000
,
00011000
00000000
00000000
00000000
,
00000000
00000000
00000000
00000000
,
00000000
00000000
00000000
00000000
,
00000000
00000000
00000000
00010000
00001000
00010000
00001000
00010000
00001000
00010000
00001000
00010000
,
00001000
00000000
00010000
00000000
00000000
00000000
00000000
00000000
00000000
00000000
00000000
00000000
00000000
00000000
00000000
00000000
00000000
00000000
00000000
00011000
00000000
00000000
00000000
00000000
;

//--------------- dance-double - TEAM DANCEMANIA AFICIONADOS ----------------
#NOTEDATA:;
#STEPSTYPE:dance-double;
#DESCRIPTION:TEAM DANCEMANIA AFICIONADOS;
#DIFFICULTY:Challenge;
#METER:12;
#RADARVALUES:0.494018,0.565152,0.212264,0,0.424527,391,367,24,0,0,0,0,0,0,0.494018,0.565152,0.212264,0,0.424527,391,367,24,0,0,0,0,0,0;
#CHARTNAME:true DDR 3rd MIX experience;
#CHARTSTYLE:;
#CREDIT:KAYSTAR;
#NOTES:
00000000
00000000
00000000
00000000
,
00000000
00000000
00000000
00000000
,
00000000
00000000
00000000
00000000
,
00000000
00000000
00000000
00000000
,
10010000
00000000
00000000
00000000
00010000
00000000
00000000
00100000
00010000
00000000
00000000
00000000
01000000
00000000
00000000
00001000
,
00000000
00000000
00000000
00001000
00000000
00000000
00000000
00010000
00100000
00000000
00000000
00000000
01000000
00000000
00000000
00000000
,
00001000
00000000
00000000
00000000
00010000
00000000
00000000
00001000
00000010
00000000
00000000
00000000
00000100
00000000
00001000
00000100
,
00001000
00000010
00000100
00000001
,
00001001
00000000
00000000
00000000
00001000
00000000
00000000
00000100
00001000
00000000
00000000
00000000
00000010
00000000
00000000
00010000
,
00000000
00000000
00000000
00010000
00000000
00000000
00000000
00001000
00000100
00000000
00000000
00000000
00000010
00000000
00000000
00000000
,
00010000
00000000
00000000
00000000
00001000
00000000
00000000
00010000
01000000
00000000
00000000
00000000
00100000
00000000
00010000
00100000
,
00010000
00000000
00000000
00000000
,
01000000
00100000
10000000
01000000
,
00010000
01000000
00100000
00001000
,
00010000
00010000
00001000
00001000
,
00010000
00000100
00000010
00000001
,
00000100
00000010
00001000
00000100
,
00000001
00000100
00001000
00000010
,
00010000
00010000
00001000
00001000
,
00100000
00000000
00000000
00000000
01000000
00000000
00000000
00000000
10000000
00000000
00000000
00000000
00010000
00000000
00000000
01000000
,
00100000
00000000
00000000
00000000
01000000
00000000
00000000
00000000
00010000
00000000
00000000
10000000
01000000
00000000
00000000
10000000
,
01000000
00100000
00001000
00010000
,
00000100
00000000
00000000
00000010
00000001
00000000
00000000
00000010
00000001
00000000
00000000
00000000
00000100
00000000
00000000
00000000
,
00001000
00000000
00000000
00000000
00011000
00000000
00000000
00000000
00010000
00000000
00001000
00010000
00001000
00000000
00000000
00000000
,
00100000
00000000
00000000
00000000
01000000
00000000
00000000
10000000
00010000
00000000
00000000
00000000
01000000
00000000
00000000
00001000
,
00010000
00000000
00000000
00000000
00000100
00000000
00000000
00001000
00000001
00000000
00000000
00000000
00000100
00000000
00000000
00000000
,
00001000
00000000
00000000
00000000
00000000
00000000
00000000
00000000
00000000
00000000
00000000
00010000
00001000
00000000
00000000
00010000
,
00001000
00000000
00000000
00000000
00010000
00000000
00000000
00001000
00000000
00000000
00000000
00010000
00001000
00000000
00010000
00001000
,
00010000
00100000
10000000
01000000
,
00010000
00000000
00000000
00010000
01000000
00000000
00000000
00000000
00100000
00000000
00000000
00100000
00010000
00000000
00000000
00000000
,
10000000
00000000
00000000
00000000
00100000
00000000
00000000
00000000
01000000
00000000
00000000
00000000
00001000
00000000
00010000
00001000
,
00010000
00010100
00011000
00101000
,
00001000
00000010
00000001
00000100
,
00001000
00000000
00000000
00001000
00000100
00000000
00000000
00000000
00000010
00000000
00000000
00000010
00001000
00000000
00000000
00000000
,
00000001
00000000
00000000
00000000
00000010
00000000
00000000
00000000
00000100
00000000
00000000
00000000
00010000
00000000
00001000
00010000
,
00001000
00000000
00000000
00000000
01000000
00000000
00000000
00010000
00000000
00000000
00000000
00110000
00000000
00000000
00000000
00010000
,
00100000
01000000
10000000
00100000
,
00010000
00000000
00000000
00010000
00100000
00000000
00000000
00000000
01000000
00000000
00000000
01000000
00010000
00000000
00000000
00000000
,
10000000
00000000
00000000
00000000
01000000
00000000
00000000
00000000
00100000
00000000
00000000
00000000
00001000
00000000
00010000
00001000
,
00010000
00010010
00011000
01001000
,
00001000
00000100
00000001
00000010
,
00001000
00000000
00000000
00001000
00000010
00000000
00000000
00000000
00000100
00000000
00000000
00000100
00001000
00000000
00000000
00000000
,
00000001
00000000
00000000
00000100
00000010
00000000
00000000
00000000
00001000
00000000
00000000
00000100
00010000
00000000
00000000
00000000
,
00011000
00000000
00000000
00000000
,
00001000
00000000
00000000
00000000
00010000
00000000
00000000
00000000
00001000
00000000
00000000
00000000
00010000
00000000
00000000
00100000
,
00000000
00000000
00000000
00100000
00000000
00000000
00000000
01000000
00010000
00000000
00000000
00000000
10000000
00000000
00000000
00000000
,
01000000
00100000
00001000
00010000
,
00100000
01000000
00001000
00011000
,
00010000
00000000
00000000
00000000
00001000
00000000
00000000
00000000
00010000
00000000
00000000
00000000
00001000
00000000
00000000
00000010
,
00000000
00000000
00000000
00000010
00000000
00000000
00000000
00000100
00001000
00000000
00000000
00000000
00000001
00000000
00000000
00000000
,
00001000
00000000
00000000
00000000
00000010
00000000
00000000
00000000
00000100
00000000
00000000
00001000
00000000
00000000
00000000
00010000
,
00000000
00000000
00000000
00000000
00000000
00000000
00000000
00001000
00010000
00000000
00000000
00001000
00010000
00000000
00000000
00000000
,
00100000
00000000
00000000
00000000
10000000
00000000
00000000
00000000
00010000
00000000
00000000
00000000
00100000
00000000
00000000
01000000
,
00000000
00000000
00000000
10000000
00000000
00000000
00000000
00100000
01000000
00000000
00000000
00000000
00010000
00000000
00000000
00000000
,
00100000
00000000
00000000
00001000
00000000
00000000
00000000
00001000
00000000
00000000
00000000
00010000
00000000
00000000
00000000
01000000
,
00100000
00000000
00000000
00000000
00001000
00000000
00000000
00010000
00001000
00000000
00000000
00010000
00001000
00000000
00000000
00000000
,
00000100
00000000
00000000
00000000
00000001
00000000
00000000
00000000
00001000
00000000
00000000
00000000
00000100
00000000
00000000
00000010
,
00000000
00000000
00000000
00000001
00000000
00000000
00000000
00001000
00000010
00000000
00000000
00000000
00000100
00000000
00000000
00000001
,
00000010
00000000
00000000
00000000
00000000
00000000
00000000
00000000
00000000
00000000
00000000
00001000
00010000
00000000
00000000
00001000
,
00010000
00000000
00000000
00000000
00001000
00000000
00000000
00010000
00000000
00000000
00000000
00001000
00010000
00000000
00001000
00010000
,
00001000
00000000
00000000
00000000
00000010
00000000
00000000
00000100
00001000
00000000
00000000
00000000
00000001
00000000
00000000
00000000
,
00000100
00000000
00000000
00000100
00001000
00000000
00000000
00000000
00010000
00000000
00000000
00010000
00100000
00000000
00000000
00000000
,
01100000
00000000
00000000
00000000
00010000
00000000
00000000
10000000
01000000
00000000
00000000
00000000
00010000
00000000
00001000
00010000
,
00001000
01001000
00011000
00010010
,
00010000
00000000
00000000
00000000
00100000
00000000
00000000
01000000
00010000
00000000
00000000
00000000
10000000
00000000
00000000
00000000
,
01000000
00000000
00000000
01000000
00010000
00000000
00000000
00000000
00001000
00000000
00000000
00001000
00000010
00000000
00000000
00000000
,
00000110
00000000
00000000
00000000
00001000
00000000
00000000
00000001
00000100
00000000
00000000
00000000
00001000
00000000
00010000
00001000
,
00010000
00000000
00000000
00000000
00000010
00000000
00000000
00001000
00000000
00000000
00000000
00001100
00000000
00000000
00000000
00000100
,
00010000
00000000
00000000
00000000
00001000
00000000
00000000
00100000
00010000
00000000
00000000
00000000
10000000
00000000
00000000
00000000
,
00100000
00000000
00000000
00100000
00010000
00000000
00000000
00000000
00001000
00000000
00000000
00001000
00000100
00000000
00000000
00000000
,
00000110
00000000
00000000
00000000
00001000
00000000
00000000
00000001
00000010
00000000
00000000
00000000
00001000
00000000
00010000
00001000
,
00010000
00010010
00011000
01001000
,
00001000
00000000
00000000
00000000
00000100
00000000
00000000
00000010
00001000
00000000
00000000
00000000
00000001
00000000
00000000
00000000
,
00000010
00000000
00000000
00000010
00001000
00000000
00000000
00000000
00010000
00000000
00000000
00010000
01000000
00000000
00000000
00000000
,
10000000
00000000
00000000
00100000
01000000
00000000
00000000
00000000
00010000
00000000
00000000
00100000
00001000
00000000
00000000
00000000
,
00011000
00000000
00000000
00000000
,
00000000
00000000
00000000
00000000
,
00000000
00000000
00000000
00000000
,
00000000
00000000
00000000
00000000
00010000
00000000
00001000
00010000
00001000
00000000
00010000
00001000
00010000
00000000
00001000
00010000
,
00001000
00010000
00000000
00000000
00000000
00000000
00000000
00011000
;
