#TITLE:Make Your Move;
#SUBTITLE:;
#ARTIST:good-cool feat. JP miles;
#TITLETRANSLIT:;
#SUBTITLETRANSLIT:;
#ARTISTTRANSLIT:;
#GENRE:Funk;
#CREDIT:;
#BANNER:Make Your Move.png;
#BACKGROUND:Make Your Move-bg.png;
#LYRICSPATH:;
#CDTITLE:cdtitle.png;
#MUSIC:Make Your Move.ogg;
#OFFSET:-0.152765;
#SAMPLESTART:58.027763;
#SAMPLELENGTH:15.999996;
#SELECTABLE:YES;
#BPMS:0.000000=120.000000
;
#STOPS:
;
#BGCHANGES:;
#KEYSOUNDS:;
#ATTACKS:;

//---------------dance-single - ----------------
#NOTES:
     dance-single:
     :
     Challenge:
     14:
     0.634341,0.619424,0.344688,0.669100,0.841444,438.000000,404.000000,34.000000,66.000000,6.000000,0.000000,0.634341,0.619424,0.344688,0.669100,0.841444,438.000000,404.000000,34.000000,66.000000,6.000000,0.000000:
// measure 0
0000
0000
0000
0000
,  // measure 1
0000
0000
0000
0000
,  // measure 2
0000
0000
0000
0000
,  // measure 3
0000
0000
0000
0000
0000
0000
0000
0000
0000
0000
0000
0000
0100
0010
0000
1002
,  // measure 4
0000
0013
0100
0000
1000
0000
0001
0001
0100
0010
0000
0100
0010
0000
1000
0001
,  // measure 5
0010
0000
0010
0000
0100
0000
1000
0000
0001
0100
0010
0000
2010
0000
3001
1000
,  // measure 6
0100
0000
0100
0000
0010
0000
0001
1000
0000
0010
0000
0001
0000
0010
0000
1000
,  // measure 7
0001
0000
0011
0000
1100
0000
0000
1000
0100
0010
0001
0000
1000
0000
0001
2001
,  // measure 8
0000
3010
0100
0000
0001
0000
1000
1000
0100
0010
0000
0100
0010
0000
0001
1000
,  // measure 9
0010
0000
0010
0000
0100
0000
0001
0000
1000
0100
0010
0000
0012
0000
1003
0010
,  // measure 10
0100
0000
0100
0000
0010
0000
1000
0100
0000
0001
0000
0100
0000
1000
0000
0010
,  // measure 11
0000
0001
0000
0010
0000
1000
1000
0000
0001
1000
0100
0000
0010
0000
0001
1000
,  // measure 12
0002
0000
0000
0203
0000
0000
2300
0000
0000
3100
0010
0000
0100
0000
0010
0100
,  // measure 13
0001
0000
0001
0000
1000
0000
0001
0010
0002
0000
0100
0000
2003
0000
0010
0000
,  // measure 14
3002
0000
0000
0023
0000
0000
2030
0000
0000
3010
0100
0000
0010
0000
0100
0010
,  // measure 15
0001
0000
0001
0000
1000
0000
0001
0100
0010
1000
0000
0010
1000
0000
0001
0000
,  // measure 16
2000
0000
0000
3200
0000
0000
0302
0000
0000
0103
0010
0000
0100
0000
0010
0100
,  // measure 17
1000
0000
1000
0000
0001
0000
1000
0010
2000
0000
0100
0000
3002
0000
0010
0000
,  // measure 18
2003
0000
0000
3020
0000
0000
0032
0000
0000
0013
0100
0000
0010
0000
0100
0010
,  // measure 19
1000
0000
1000
0000
0001
0000
1000
0100
0010
0001
1000
0000
0001
0100
0010
0000
,  // measure 20
1020
0000
0230
0000
0320
0000
0032
0000
0000
0013
0100
0000
0010
0000
0100
0010
,  // measure 21
2000
0000
0000
0001
0000
0000
3100
0000
0010
0000
0100
0000
2100
0000
3001
0200
,  // measure 22
0000
0010
0000
0302
0000
1000
0000
0023
0000
0100
0000
0032
0000
1003
0001
0000
,  // measure 23
1000
0010
0100
0001
1000
0000
0000
0000
1000
0010
0100
0001
1000
0100
0010
0000
,  // measure 24
0021
0000
0230
0000
0320
0000
2030
0000
0000
3010
0100
0000
0010
0000
0100
0010
,  // measure 25
0002
0000
0000
1000
0000
0000
0103
0000
0010
0000
0100
0000
0102
0000
1003
0200
,  // measure 26
0000
0010
0000
2300
0000
0001
0000
3020
0000
0100
0000
1030
0001
0000
1000
0000
,  // measure 27
1001
0000
1001
0000
1001
0000
0000
0000
0001
0010
0000
0001
0010
0000
0001
0010
,  // measure 28
0001
0200
0300
0000
2002
3003
0000
0000
0000
0000
0000
0000
0000
0000
0000
2001
,  // measure 29
0000
3010
0100
0000
1000
0000
0100
0000
1000
0100
0010
0000
0102
0000
1000
1000
,  // measure 30
0000
0013
0100
0000
0001
0000
0100
0000
0001
0100
0010
0000
2100
0000
0001
0001
,  // measure 31
0000
3010
0100
0000
1000
0000
0100
0000
1000
0100
0010
0000
0102
0000
1000
1000
,  // measure 32
0000
0013
0100
0000
1000
0020
0000
1000
0000
0230
0000
0001
0000
0310
0000
2001
,  // measure 33
0000
3100
0010
0000
1000
0000
0010
0000
1000
0010
0100
0000
0012
0000
1000
1000
,  // measure 34
0000
0103
0010
0000
0001
0000
0010
0000
0001
0010
0100
0000
2010
0000
0001
0001
,  // measure 35
0000
3100
0010
0000
1000
0000
0010
0000
1000
0010
0100
0000
0012
0000
1000
1000
,  // measure 36
0000
0103
0010
0000
1000
0100
0000
0011
0000
1100
0000
1010
0000
0101
0000
2002
,  // measure 37
0000
0000
3003
0000
0001
0000
0010
0M00
0020
0000
0000
0000
1030
0000
0001
0100
,  // measure 38
0010
1000
0000
0010
0M00
0010
0000
0001
0010
0000
0000
0000
1001
0000
0001
0001
,  // measure 39
1000
0010
0100
0010
M000
0010
0200
0000
0000
0000
1300
0000
1001
0000
1000
1000
,  // measure 40
0001
0010
0000
0100
0010
000M
0010
0000
0100
0001
0000
1000
0000
0001
0000
0012
,  // measure 41
0000
0000
1003
0010
0100
M000
0100
0000
1000
0010
0100
0000
0010
0000
1000
0001
,  // measure 42
0000
1000
0001
0010
0100
000M
0100
0000
0001
0010
0100
0000
0010
0000
2002
0000
,  // measure 43
0000
0000
0000
0000
3003
0000
0000
1001
0000
0001
0100
0000
0010
1000
0000
0001
,  // measure 44
0020
0000
0130
2000
0000
3001
0100
0010
1000
0001
0000
0001
0010
0100
1000
1002
,  // measure 45
0000
0103
0010
0000
1000
0010
2000
0000
0010
0010
0000
3001
0000
1000
0100
0010
,  // measure 46
0002
0000
0010
0010
0000
1003
0000
1000
0002
0100
0000
2003
0100
0000
3001
0100
,  // measure 47
0110
0000
0000
0000
;

//---------------dance-single - 4thMIX is a fantastic and creative mix with no boring charts at all.----------------
#NOTES:
     dance-single:
     4thMIX is a fantastic and creative mix with no boring charts at all.:
     Edit:
     17:
     0.986270,0.810016,0.070965,0.000000,1.693025,681.000000,674.000000,7.000000,0.000000,0.000000,0.000000,0.986270,0.810016,0.070965,0.000000,1.693025,681.000000,674.000000,7.000000,0.000000,0.000000,0.000000:
0000
0000
0000
0000
,
0000
0000
0000
0000
,
0000
0000
0000
0000
,
0000
0000
0000
0000
0000
0000
0000
0000
0000
0000
0000
0000
0001
1000
0000
0001
,
1000
0100
1000
0100
0010
0100
1000
0001
1000
0010
1000
0010
0100
0001
0100
0001
,
1000
0001
1000
0001
0010
0001
0010
0001
1000
0010
0100
0001
1000
0001
0010
0100
,
1000
0001
1000
0001
0100
0010
1000
0001
0010
0100
0010
0100
1000
0001
0100
0010
,
1000
0001
0010
0001
0100
0010
1000
0001
1000
0100
1000
0100
0010
0000
0001
0010
,
0001
0100
0001
0100
0010
0100
0001
1000
0001
0010
0001
0010
0100
1000
0100
1000
,
0001
1000
0001
1000
0010
1000
0010
1000
0001
0010
0100
1000
0001
1000
0010
0100
,
0001
1000
0001
1000
0100
0010
0001
1000
0010
0100
0010
0100
0001
1000
0100
0010
,
0001
1000
0010
1000
0100
0010
0001
1000
0001
0100
0001
0100
0010
0000
1000
0010
,
0100
0001
1000
0100
1000
0001
0100
0010
1000
0001
1000
0001
0010
0001
1000
0001
,
0100
0001
0100
0001
0010
0001
0100
0001
1000
0100
0010
0001
0010
0100
1000
0001
,
0010
0001
1000
0010
1000
0001
0010
0001
1000
0001
1000
0001
0100
0001
1000
0001
,
0010
0001
0010
0001
1000
0001
0100
0010
1000
0010
0000
0010
1000
0000
0001
1000
,
0100
1000
0001
0100
0001
1000
0100
0010
0001
1000
0001
1000
0010
1000
0001
1000
,
0100
1000
0100
1000
0010
1000
0100
1000
0001
0100
0010
1000
0010
0100
0001
1000
,
0010
1000
0001
0010
0001
1000
0010
1000
0001
1000
0001
1000
0100
1000
0001
1000
,
0010
1000
0010
1000
0001
1000
0100
0010
0001
1000
0001
0000
1000
0010
0100
0001
,
1000
0100
0010
0100
1000
0100
0010
0100
1000
0001
1000
0001
0010
0001
1000
0001
,
0100
0010
1000
0100
0010
0001
0100
0010
1000
0001
1000
0001
1000
0100
0010
0001
,
1000
0010
1000
0010
0100
0010
0100
0010
0100
0001
0100
0001
1000
0001
1000
0001
,
1000
0100
0010
0100
1000
0000
0001
1000
0001
0100
0010
0100
0001
1000
0100
0010
,
0001
0100
0010
0100
0001
0100
0010
0100
0001
1000
0001
1000
0010
1000
0001
1000
,
0100
0010
0001
0100
0010
1000
0100
0010
0001
1000
0001
1000
0001
0100
0010
1000
,
0001
0010
0001
0010
0100
0010
0100
0010
0100
1000
0100
1000
0001
0100
0010
1000
,
1001
0000
1001
0000
1001
0000
0000
0000
0001
0010
0001
1000
0010
1000
0001
0010
,
0001
1001
0000
0000
1001
0000
0000
0000
1000
0010
0100
0001
0100
0010
1000
1001
,
0000
0001
0010
0001
1000
0001
0010
0001
0100
0001
0100
0001
0010
0100
0010
0001
,
1000
0001
0100
0001
1000
0001
0100
0001
0010
0001
0010
0001
0100
0010
0100
0001
,
1000
0001
0010
0001
1000
0001
0010
0001
0100
0001
0100
0001
0010
0100
0010
0001
,
1000
0010
0100
0001
1000
0100
0010
0001
0010
0100
1000
0001
0100
0010
1000
1001
,
0000
1000
0010
1000
0001
1000
0010
1000
0100
1000
0100
1000
0010
0100
0010
1000
,
0001
1000
0100
1000
0001
1000
0100
1000
0010
1000
0010
1000
0100
0010
0100
1000
,
0001
1000
0010
1000
0001
1000
0010
1000
0100
1000
0100
1000
0010
0100
0010
1000
,
0001
0010
0100
1000
0010
1000
0100
1000
0010
1000
0100
0010
0001
0100
0010
1000
,
0010
0100
0001
0010
0100
1000
0001
1000
0010
0100
0001
1000
0001
0010
0100
1000
,
0001
0100
0010
0100
0001
1000
0100
0010
0100
1000
0001
1000
0001
0100
0010
1000
,
0001
0010
0100
0010
0001
1000
0010
0100
0010
1000
0001
0010
0100
1000
0001
1000
,
0010
0100
0001
1000
0001
0010
0100
1000
0001
0100
0001
0100
0010
1000
0001
0010
,
0100
1000
0010
1000
0001
1000
0100
1000
0010
1000
0001
1000
0001
0100
0010
1000
,
0001
0100
0001
0010
0001
1000
0001
0100
0001
0010
0001
1000
0010
0100
0001
0010
,
0100
1000
0010
0100
0001
0010
0100
1000
0001
1000
0010
1000
0001
0010
0001
1000
,
0010
0100
0001
1000
0100
0010
0001
1000
0010
0100
0001
1000
0100
0010
0100
0010
,
0001
1000
0001
1000
0010
0100
0010
0100
0001
1000
0100
1000
0001
0100
0001
1000
,
0100
1000
0100
0010
0001
0100
0001
0100
0001
1000
0100
1000
0100
0010
0001
0100
,
0010
0000
0000
0000
;

//---------------dance-single - ----------------
#NOTES:
     dance-single:
     :
     Hard:
     12:
     0.490963,0.524128,0.243309,0.547445,0.537307,339.000000,315.000000,24.000000,54.000000,0.000000,0.000000,0.490963,0.524128,0.243309,0.547445,0.537307,339.000000,315.000000,24.000000,54.000000,0.000000,0.000000:
// measure 0
0000
0000
0000
0000
,  // measure 1
0000
0000
0000
0000
,  // measure 2
0000
0000
0000
0000
,  // measure 3
0000
0000
0000
0000
0000
0000
0000
0000
0000
0000
0000
0000
1000
0100
0000
0020
,  // measure 4
0000
0030
0000
0000
0001
0000
1000
0010
1000
0000
0001
0000
0001
0000
0000
0000
,  // measure 5
1000
0100
0001
0100
1000
0001
1002
0003
,  // measure 6
0100
0000
0100
0000
0010
0000
0000
1000
0000
0001
0000
1000
0000
0001
0000
1000
,  // measure 7
0100
0000
0010
0000
0120
0000
0030
0001
1000
0000
0001
0000
0001
0000
0100
0020
,  // measure 8
0000
0030
0000
0000
1000
0000
0001
0010
0001
0000
1000
0000
1000
0000
0000
0000
,  // measure 9
0001
0100
1000
0100
0001
1000
2001
3000
,  // measure 10
0100
0000
0100
0000
0010
0000
0000
0001
0000
1000
0000
0010
0000
0000
0000
1000
,  // measure 11
0000
0001
0000
1000
0000
0001
0010
0000
0100
0000
1000
0000
1000
0000
0001
1000
,  // measure 12
0002
0000
0000
0203
0000
0000
0320
0000
0000
0000
0001
0000
0001
0000
0000
0000
,  // measure 13
1030
0000
0010
0000
1000
0000
0000
1000
0010
0000
0100
0000
0001
0000
1000
0000
,  // measure 14
0002
0000
0000
0023
0000
0000
0230
0000
0000
0000
0001
0000
0001
0000
0000
0000
,  // measure 15
1300
0000
0100
0000
1000
0000
0000
0000
0001
0100
0000
0001
0100
0000
0010
0000
,  // measure 16
2000
0000
0000
3200
0000
0000
0320
0000
0000
0000
1000
0000
1000
0000
0000
0000
,  // measure 17
0031
0000
0010
0000
0001
0000
0000
0001
0010
0000
0100
0000
1000
0000
0001
0000
,  // measure 18
2000
0000
0000
3020
0000
0000
0230
0000
0000
0000
1000
0000
1000
0000
0000
0000
,  // measure 19
0301
0000
0100
0000
0001
0000
1000
0000
0100
0000
0020
0000
0000
0032
0000
0000
,  // measure 20
2003
0010
0010
3002
0000
0100
0103
0000
,  // measure 21
0002
0000
0000
0023
0000
0000
0230
0000
0310
0000
0001
0000
1000
0010
0000
0100
,  // measure 22
0000
0010
0000
0001
0000
0010
0000
0100
0000
0010
0000
2000
0000
0000
3001
0000
,  // measure 23
1000
0100
1000
0100
1000
0000
0000
0000
0001
0100
0001
0100
0001
0000
1000
0000
,  // measure 24
0002
0010
0010
2003
0000
0100
3100
0000
,  // measure 25
2000
0000
0000
3020
0000
0000
0230
0000
0310
0000
1000
0000
0001
0010
0000
0100
,  // measure 26
0000
0010
0000
1000
0000
0010
0000
0100
0000
0010
0000
0001
1000
0000
0001
0000
,  // measure 27
1001
0000
1001
0000
1001
0000
0000
0000
1000
0000
0000
1000
0000
0000
1000
0000
,  // measure 28
0000
0011
0000
0000
1010
0000
0000
0000
0000
0000
0000
0000
0000
0000
0000
1002
,  // measure 29
0000
0003
1000
0000
0100
0000
0010
0000
0100
0000
0001
0000
0201
0000
0000
1300
,  // measure 30
0000
1000
0001
0000
0100
0000
0010
0000
0100
0000
1000
0000
1200
0000
0000
0301
,  // measure 31
0000
0001
1000
0000
0100
0000
0010
0000
0100
0000
0001
0000
0201
0000
0000
1300
,  // measure 32
0000
1000
0001
0000
1000
0010
0000
0100
0000
0001
0000
0010
0000
0100
0000
1002
,  // measure 33
0000
0000
1003
0000
0010
0000
0100
0000
0010
0000
0001
0000
0021
0000
0000
1030
,  // measure 34
0000
1000
0001
0000
0010
0000
0100
0000
0010
0000
1000
0000
1020
0000
0000
0031
,  // measure 35
0000
0001
1000
0000
0010
0000
0100
0000
0010
0000
0001
0000
0021
0000
0000
1030
,  // measure 36
0000
1000
0001
0000
1000
0100
0000
0011
0000
1000
0000
1010
0000
0001
0000
2002
,  // measure 37
0000
3003
0001
0010
0002
0000
0013
0001
,  // measure 38
1000
0010
0000
1000
0000
0010
0000
1000
0001
0000
0000
0000
1001
0000
0000
0000
,  // measure 39
1000
0000
0100
0010
0000
0100
2000
0000
0000
0000
3001
0000
1001
0000
0000
0000
,  // measure 40
1000
0000
0000
0001
0100
0000
0010
0000
0100
0001
0000
0100
0000
0010
0000
2001
,  // measure 41
0000
0000
3001
0010
0001
0000
0010
0000
0001
0010
0001
0000
0100
0000
0000
0010
,  // measure 42
0000
0000
1000
0010
1000
0000
0010
0000
1000
0010
1000
0000
0100
0000
0220
0000
,  // measure 43
0000
0000
0000
0000
0330
0000
0000
1001
0000
0000
1000
0000
0000
0010
0000
0100
,  // measure 44
0002
0000
0000
0023
0000
0000
0230
0000
0000
2300
0000
0000
3001
0000
0100
0020
,  // measure 45
0000
0030
1000
0000
0010
0000
1000
0000
0002
0010
0000
0010
0000
0000
1003
0000
,  // measure 46
0001
0000
2000
0010
0000
0010
0000
0000
3002
0100
0000
2003
0100
0000
3001
1000
,  // measure 47
0001
0000
0000
0000
;

//---------------dance-single - ----------------
#NOTES:
     dance-single:
     :
     Medium:
     8:
     0.338895,0.357360,0.233171,0.344688,0.121655,234.000000,211.000000,23.000000,34.000000,0.000000,0.000000,0.338895,0.357360,0.233171,0.344688,0.121655,234.000000,211.000000,23.000000,34.000000,0.000000,0.000000:
// measure 0
0000
0000
0000
0000
,  // measure 1
0000
0000
0000
0000
,  // measure 2
0000
0000
0000
0000
,  // measure 3
0000
0000
0000
0000
0000
0000
0000
0000
0000
0000
0000
0000
0010
0000
0000
1002
,  // measure 4
0000
0003
0010
0001
0010
0000
0001
0000
,  // measure 5
0100
0100
0100
0000
0001
0000
1002
0000
,  // measure 6
0013
0000
0001
0000
1000
0001
1000
0000
,  // measure 7
0010
0000
0010
0000
2001
0000
0000
0000
3100
0000
0000
0000
0010
0000
0000
2001
,  // measure 8
0000
3000
0010
1000
0010
0000
1000
0000
,  // measure 9
0100
0100
0100
0000
1000
0000
2001
0000
,  // measure 10
3010
0000
1000
0000
0001
1000
0001
0000
,  // measure 11
1000
0001
1000
0000
1100
0000
0011
0000
,  // measure 12
0002
0000
0000
0203
0000
0000
0320
0000
0000
0000
0000
0000
0130
0000
0000
0000
,  // measure 13
0000
0000
0100
0000
0010
1000
0010
1000
,  // measure 14
0002
0000
0000
0023
0000
0000
0230
0000
0000
0000
0000
0000
1300
0000
0000
0000
,  // measure 15
0000
0000
1000
0000
0010
0100
0001
0000
,  // measure 16
2000
0000
0000
3200
0000
0000
0320
0000
0000
0000
0000
0000
0130
0000
0000
0000
,  // measure 17
0000
0000
0100
0000
0010
0001
0010
0001
,  // measure 18
2000
0000
0000
3020
0000
0000
0230
0000
0000
0000
0000
0000
0301
0000
0000
0000
,  // measure 19
0000
0000
0000
0000
0001
0000
0000
0000
1000
0000
0100
0000
0000
0010
0000
0000
,  // measure 20
0002
1000
1000
1000
0000
0000
0103
0000
,  // measure 21
0010
0000
0000
1000
0000
0000
0010
0000
1000
0000
0000
0000
1001
0000
0000
0000
,  // measure 22
0001
0010
0100
0000
0010
0100
1000
0000
,  // measure 23
0001
0000
0001
0000
1000
0000
0000
0000
0001
0000
0100
0000
0000
0010
0000
0000
,  // measure 24
2000
0001
0001
0001
0000
0000
3100
0000
,  // measure 25
0010
0000
0000
0001
0000
0000
0010
0000
0001
0000
0000
0000
1001
0000
0000
0000
,  // measure 26
1000
0010
0100
0000
0010
0100
0001
0000
,  // measure 27
1000
0001
1000
0000
0000
0000
0000
0000
,  // measure 28
0000
1001
0000
0000
1001
0000
0000
0000
0000
0000
0000
0000
0000
0000
0000
1002
,  // measure 29
0000
0003
0010
0000
0100
0000
0000
0000
0100
0000
0000
0000
0012
0000
0000
1003
,  // measure 30
0000
0000
0010
0000
0100
0000
0000
0000
0100
0000
0000
0000
2010
0000
0000
3001
,  // measure 31
0000
0000
0010
0000
0100
0000
0000
0000
0100
0000
0000
0000
0012
0000
0000
1003
,  // measure 32
0000
0000
0010
0000
0010
0000
0000
0000
0100
0000
0010
0000
1000
0000
0000
2001
,  // measure 33
0000
3000
0100
0000
0010
0000
0000
0000
0010
0000
0000
0000
2100
0000
0000
3001
,  // measure 34
0000
0000
0100
0000
0010
0000
0000
0000
0010
0000
0000
0000
0102
0000
0000
1003
,  // measure 35
0000
0000
0100
0000
0010
0000
0000
0000
0010
0000
0000
0000
2100
0000
0000
3001
,  // measure 36
0000
0100
0100
0000
0010
1000
0100
0010
,  // measure 37
0001
0000
1000
0010
0200
0000
0301
0000
,  // measure 38
0010
0100
1000
0000
1001
0000
0000
0000
,  // measure 39
0001
0000
0000
0100
0000
0000
0020
0000
0000
0000
0000
0000
1030
0000
0000
0000
,  // measure 40
0001
0000
0000
0000
1000
0000
0100
0000
0010
0000
0000
0000
0001
0000
0000
1002
,  // measure 41
0000
0003
0100
0000
0010
0000
0000
0000
0100
0000
0010
0000
1000
0000
0000
0000
,  // measure 42
1000
0100
0010
0000
0100
0010
0001
2002
,  // measure 43
0000
0000
0000
0000
0000
0000
0000
3003
0000
0000
0001
0000
0000
0100
0000
0000
,  // measure 44
0010
0000
0000
1000
0000
0000
0200
0000
0000
0000
0000
0000
0300
0000
0000
2001
,  // measure 45
0000
3000
0010
0000
0010
0000
0000
0000
1000
0000
0010
0000
0001
0000
0000
0000
,  // measure 46
0001
0010
1000
0000
0001
0010
1000
0010
,  // measure 47
0001
0000
0000
0000
;

//---------------dance-single - ----------------
#NOTES:
     dance-single:
     :
     Easy:
     5:
     0.225930,0.285888,0.223033,0.223033,0.000000,156.000000,134.000000,22.000000,22.000000,0.000000,0.000000,0.225930,0.285888,0.223033,0.223033,0.000000,156.000000,134.000000,22.000000,22.000000,0.000000,0.000000:
// measure 0
0000
0000
0000
0000
,  // measure 1
0000
0000
0000
0000
,  // measure 2
0000
0000
0000
0000
,  // measure 3
0000
0000
0000
0000
,  // measure 4
1001
0000
0001
0000
,  // measure 5
0001
0010
0001
0011
,  // measure 6
1000
0000
0010
0000
,  // measure 7
0010
1001
0100
0010
,  // measure 8
1001
0000
1000
0000
,  // measure 9
1000
0010
1000
1010
,  // measure 10
0001
0000
0010
0000
,  // measure 11
0010
0010
0100
1000
,  // measure 12
0002
0203
0320
0030
,  // measure 13
0010
0000
0010
0100
,  // measure 14
0002
0023
0230
0300
,  // measure 15
1000
0001
0100
0010
,  // measure 16
2000
3200
0320
0030
,  // measure 17
0010
0000
0010
0100
,  // measure 18
2000
3020
0230
0300
,  // measure 19
0001
1000
0100
0010
,  // measure 20
0022
0000
0033
0000
,  // measure 21
1000
0001
0100
0000
,  // measure 22
0001
0010
1000
0010
,  // measure 23
0001
0000
0001
1000
,  // measure 24
2020
0000
3030
0000
,  // measure 25
0001
1000
0100
0000
,  // measure 26
1000
0010
0001
0010
,  // measure 27
1001
1001
0000
0000
,  // measure 28
0010
1001
0000
0000
,  // measure 29
1001
0001
0010
0100
,  // measure 30
1100
0001
0100
0010
,  // measure 31
1010
0001
0010
0100
,  // measure 32
1100
0000
0001
0001
,  // measure 33
1001
1000
0010
0100
,  // measure 34
0101
1000
0100
0010
,  // measure 35
0011
1000
0010
0100
,  // measure 36
0101
0000
1000
0001
,  // measure 37
2002
0000
3003
0000
,  // measure 38
0001
1000
0001
0000
,  // measure 39
1000
0100
0010
0000
,  // measure 40
0001
0100
0010
1000
,  // measure 41
1002
0010
0013
0000
,  // measure 42
2001
0010
3010
0000
,  // measure 43
0220
0000
0330
0000
,  // measure 44
1000
0010
0100
0001
,  // measure 45
1000
1000
0001
0001
,  // measure 46
1000
0100
0001
0100
,  // measure 47
1000
0000
0000
0000
;

//---------------dance-single - ----------------
#NOTES:
     dance-single:
     :
     Beginner:
     2:
     0.102827,0.142944,0.030414,0.172344,0.000000,71.000000,68.000000,3.000000,17.000000,0.000000,0.000000,0.102827,0.142944,0.030414,0.172344,0.000000,71.000000,68.000000,3.000000,17.000000,0.000000,0.000000:
// measure 0
0000
0000
0000
0000
,  // measure 1
0000
0000
0000
0000
,  // measure 2
0000
0000
0000
0000
,  // measure 3
0000
0000
0000
0000
,  // measure 4
0001
0000
0000
0000
,  // measure 5
1000
0000
0000
0000
,  // measure 6
0100
0000
0100
0000
,  // measure 7
0100
0000
0000
0000
,  // measure 8
1000
0000
0000
0000
,  // measure 9
0001
0000
0000
0000
,  // measure 10
0100
0000
0100
0000
,  // measure 11
0100
0000
0000
0000
,  // measure 12
0001
0000
0020
0000
,  // measure 13
0030
0000
0001
0000
,  // measure 14
0100
0000
0002
0000
,  // measure 15
0003
0000
1000
0000
,  // measure 16
1000
0000
0020
0000
,  // measure 17
0030
0000
1000
0000
,  // measure 18
0100
0000
2000
0000
,  // measure 19
3000
0000
0010
0000
,  // measure 20
2002
0000
3003
0000
,  // measure 21
0200
0000
0300
0000
,  // measure 22
1000
0000
0100
0000
,  // measure 23
0010
0000
0010
0000
,  // measure 24
2002
0000
3003
0000
,  // measure 25
0200
0000
0300
0000
,  // measure 26
0001
0000
0100
0000
,  // measure 27
0010
0000
0000
0000
,  // measure 28
0010
0010
0000
0000
,  // measure 29
1000
0000
0010
0000
,  // measure 30
0100
0000
0010
0000
,  // measure 31
1000
0000
0100
0000
,  // measure 32
1000
1000
1000
0000
,  // measure 33
0001
0000
0010
0000
,  // measure 34
0100
0000
0010
0000
,  // measure 35
0001
0000
0100
0000
,  // measure 36
0001
0001
0001
0000
,  // measure 37
2000
0000
3000
0000
,  // measure 38
0020
0000
0030
0000
,  // measure 39
0200
0000
0300
0000
,  // measure 40
0002
0000
0003
0000
,  // measure 41
0010
0000
0010
0000
,  // measure 42
0100
0000
0100
0000
,  // measure 43
2002
0000
3003
0000
,  // measure 44
0020
0000
0030
0000
,  // measure 45
1000
0000
0100
0000
,  // measure 46
0001
0000
0010
0000
,  // measure 47
1000
0000
0000
0000
;
