#TITLE:Make A Difference;
#SUBTITLE:;
#ARTIST:Lala Moore with CoCoRo*Co;
#TITLETRANSLIT:;
#SUBTITLETRANSLIT:;
#ARTISTTRANSLIT:;
#GENRE:;
#CREDIT:;
#MUSIC:Make A Difference.ogg;
#BANNER:Make A Difference.png;
#BACKGROUND:Make A Difference-bg.png;
#CDTITLE:;
#SAMPLESTART:83.891;
#SAMPLELENGTH:15.000;
#SELECTABLE:YES;
#OFFSET:1.022;
#BPMS:0.000=130.000;
#STOPS:;
#BGCHANGES:4.000=Make A Difference.mp4=1.000=0=0=0=StretchNoLoop====,
99999.000=-nosongbg-=1.000=0=0=0=StretchNoLoop====
;
#FGCHANGES:;

//--------------- dance-single - Princess Pamela ----------------
#NOTES:
     dance-single:
     Princess Pamela:
     Beginner:
     3:
     0,0,0,0,0:
0000
0000
0000
0000
,
0000
0000
0000
0000
,
0000
0000
0000
0000
,
0000
0000
0000
0000
,
0000
0000
0000
0000
,
0000
0000
0000
0000
,
1001
0000
0000
0000
,
0001
0000
0000
0000
,
0100
0000
0000
0000
,
0001
0000
0000
0000
,
1001
0000
0000
0000
,
1000
0000
0000
0000
,
0100
0000
0000
0000
,
1000
0000
0000
0000
,
1001
0000
0000
0000
,
0000
0000
0000
0000
,
0001
0000
0000
0000
,
0010
0000
0010
0000
,
0001
0000
0000
0000
,
0100
0000
0000
0000
,
0001
0000
0000
0000
,
1000
0000
1000
0000
,
0010
0000
0000
0000
,
0100
0100
0100
0000
,
0001
0000
0000
0000
,
0100
0100
0100
0000
,
1001
0000
0000
0000
,
1000
0000
0100
0000
,
1000
0000
0001
0000
,
0100
0000
0001
0000
,
0020
0000
0000
0000
,
0000
0000
0000
0000
,
0000
0000
0000
0000
,
0000
0000
0030
0000
,
0001
0000
0000
0000
,
1000
0000
0000
0000
,
0010
0000
0010
0000
,
0100
0000
0000
0000
,
1001
0000
0000
0000
,
1000
0000
1000
0000
,
0100
0000
0000
0000
,
1000
0000
0010
0000
,
1000
0000
0000
0000
,
0001
0000
0001
0000
,
0100
0000
0000
0000
,
0001
0000
0010
0000
,
1001
0000
1000
0100
,
1000
0000
0000
0000
,
0001
0000
1000
0010
,
1000
0000
0000
0000
,
1000
0000
0001
0100
,
0001
0000
0000
0000
,
1000
0000
0001
0010
,
0001
0000
0100
0000
,
1001
0000
0000
1000
,
1001
0000
0000
0001
,
1001
0000
0000
1000
,
1001
0000
0000
0010
,
0110
0000
0000
0100
,
0110
0000
0000
0010
,
0110
0000
0000
0100
,
0110
0000
0000
0000
,
1001
0000
0000
0100
,
1001
0000
0000
0000
;

//--------------- dance-single - Princess Pamela ----------------
#NOTES:
     dance-single:
     Princess Pamela:
     Easy:
     5:
     0,0,0,0,0:
0000
0000
0000
0000
,
0000
0000
0000
0000
,
0000
0000
0000
0000
,
0000
0000
0000
0000
,
0000
0000
0000
0000
,
0000
0000
0110
0000
,
1001
0000
0000
1000
,
0100
0000
0000
1000
,
0001
0000
0000
1000
,
0100
0000
0010
0000
,
0001
1000
0000
1000
,
0001
0100
0000
0100
,
0001
1000
0000
1000
,
0001
0010
0000
0010
,
0100
0000
1000
0000
,
0010
0000
1000
0000
,
0001
0001
0100
0000
,
0001
0001
0010
0000
,
0001
0000
1000
0000
,
0100
0000
1000
0000
,
0010
0010
1000
0000
,
0010
0100
0010
0000
,
2002
0000
0000
3003
,
1000
0100
0010
0001
,
2002
0000
0000
3003
,
0001
0100
0010
1000
,
0100
0000
0100
0100
,
1000
1000
0010
1000
,
0000
0010
0010
0200
,
0000
0301
1000
0000
,
2002
0000
0000
0000
,
0000
0000
0000
0000
,
0000
0000
0000
0000
,
0000
0000
3003
0000
,
0001
0000
0010
0000
,
0100
0000
1000
0000
,
0001
0001
0100
0100
,
0020
0000
1030
0001
,
1001
0000
1000
0100
,
0001
0100
1000
0100
,
0010
0000
0010
0100
,
1000
0100
0001
0100
,
1000
0000
1000
0100
,
0001
0100
1000
0100
,
0010
0000
0010
0100
,
1000
0100
0001
0100
,
1000
1000
0001
0100
,
0001
0001
1000
0100
,
1000
1000
0001
0100
,
0001
0010
0100
1000
,
0001
0001
1000
0100
,
1000
1000
0001
0100
,
0001
0001
1000
0100
,
0010
0001
1000
0010
,
1001
0000
1000
0001
1000
0000
0010
0000
,
0100
0000
0001
1000
0001
0000
0010
0000
,
0100
0000
1000
0001
1000
0000
0010
0000
,
0100
0000
0001
1000
0001
0000
0100
0000
,
0010
0000
1000
0001
1000
0000
0100
0000
,
0010
0000
0001
1000
0001
0000
0100
0000
,
0010
0000
1000
0001
1000
0000
0100
0000
,
0010
0000
0001
1000
0001
0000
0100
0000
,
0220
0000
0000
0000
0330
0000
0001
1000
,
0002
0003
0000
0000
;

//--------------- dance-single - Princess Pamela ----------------
#NOTES:
     dance-single:
     Princess Pamela:
     Medium:
     8:
     0,0,0,0,0:
0000
0000
0000
0000
,
0000
0000
0000
0000
,
0000
0000
0000
0000
,
0000
0000
0000
0000
,
0000
0000
0000
0000
,
0000
0000
0000
0000
1000
0001
0000
0000
,
1001
1000
0000
0100
,
1000
0001
0000
0001
,
0100
0010
0000
0100
,
0001
0000
1000
0000
0001
1000
0001
0000
,
0010
0001
0010
0000
0000
0001
0100
0000
,
0010
0100
0010
0000
0000
1000
0010
0000
,
1000
0100
1000
0000
0000
0001
1000
0000
,
0001
0100
0001
0000
0010
0000
0100
0000
,
0110
0000
1000
0001
,
1000
0000
0010
1000
0010
0000
0000
0000
,
0100
0001
0010
0100
,
0110
1000
1001
0000
,
0001
0000
0100
0001
0100
0000
0010
0000
,
1000
0100
0001
0000
,
0100
1000
0100
0000
1000
0000
0001
0000
,
1001
0010
0110
0000
,
0001
1000
0020
0000
0230
0000
0300
0000
,
2002
0000
0000
3003
,
1000
0001
0020
0000
0230
0000
0300
0000
,
2002
3003
1000
0001
,
1002
0000
1000
1000
,
0010
0010
1000
0013
,
0001
0001
0010
0200
,
0000
1300
0100
0000
,
2002
0000
0000
0000
,
0000
0000
0000
0000
,
0000
0000
0000
0000
,
0000
0000
0000
3003
,
1000
0000
0010
1000
0010
0000
0100
0000
,
0010
0000
0100
0001
0100
0000
0001
0000
,
0010
0100
1000
0001
,
0020
0000
0000
0000
0130
0100
0010
0000
,
1001
0000
1000
0000
0100
0010
0100
0000
,
1000
0000
0001
0000
0010
0100
0010
0000
,
0001
0000
1000
0000
0010
0100
0010
0000
,
1000
0001
1000
0000
0100
0010
0100
0000
,
1000
0000
0001
0000
0100
0001
0100
0000
,
0001
0000
1000
0000
0100
1000
0100
0000
,
0010
0000
0001
0000
0100
0001
0100
0000
,
0110
0010
1001
0110
,
1000
0000
0001
0100
0001
0100
0010
0000
,
1000
0000
0001
0010
0100
0010
0001
0000
,
1000
0000
0001
0100
0001
0100
0010
0000
,
1000
0000
0001
0010
0100
0000
0110
0000
,
0001
0000
1000
0100
1000
0100
0010
0000
,
0001
0000
1000
0010
0100
0010
1000
0000
,
0001
0000
1000
0100
1000
0100
0010
0000
,
0001
0000
1000
0010
0100
0000
0110
0000
,
1002
0000
1003
0100
0001
0000
0100
1000
,
0002
0000
1003
0010
0001
0000
0010
1000
,
0002
0000
1003
0100
0001
0000
0100
1000
,
0002
0000
0013
0010
0010
0000
0001
1000
,
2001
0000
3001
0100
1000
0000
0100
0001
,
2000
0000
3001
0010
1000
0000
0010
0001
,
2000
0000
3001
0100
1000
0000
0100
0001
,
2000
0000
3001
0010
1000
0000
0010
0000
,
0220
0000
0000
0000
0330
0000
0001
1000
,
2002
3003
0000
0000
;

//--------------- dance-single - Princess Pamela ----------------
#NOTES:
     dance-single:
     Princess Pamela:
     Hard:
     13:
     0,0,0,0,0:
0000
0000
0000
0000
,
0000
0000
0000
0000
,
0000
0000
0000
0000
,
0000
0000
0000
0000
,
0000
0000
0000
0000
,
0000
0000
0000
0000
0010
0010
0000
0000
,
1000
0000
0001
0000
1000
0100
0000
1000
0100
0000
1000
0001
0000
1000
0001
0000
,
0000
0000
1000
0000
0001
0100
0000
0001
0100
0000
0001
1000
0000
0001
1000
0000
,
0000
0000
0010
0000
1000
0001
0000
1000
0001
0000
0010
0001
0000
0010
0001
0000
,
0000
0000
1000
0000
0100
1000
0000
0100
1000
0000
0001
0100
0000
0001
0100
0000
,
0010
0000
1000
0000
1000
0010
0000
0000
0100
0000
0001
0000
0001
0100
0000
0000
,
0001
0000
0010
0000
0010
0001
0000
0000
1000
0000
0100
0000
0100
1000
0000
0000
,
0001
0000
0100
0000
0100
0010
0000
0000
1000
0000
0010
0000
0010
0100
0000
0000
,
0001
0000
1000
0000
1000
0010
0000
0000
1000
0001
0000
0001
1000
0000
0001
0000
,
0010
0110
0000
0100
2000
0000
3010
0000
,
1000
0000
0001
0000
0000
0100
0000
0002
0000
0000
0000
0000
1003
0000
0000
0000
,
0001
0000
0010
0000
0000
0100
0000
0020
0000
0000
0000
0000
0130
0000
0000
0000
,
1100
0000
0000
0000
0001
1000
0001
0000
1000
0000
0000
0000
0010
1000
0010
0000
,
1000
0000
0000
0000
0010
0100
0000
0100
0010
0000
0000
0000
0100
0000
0000
0000
,
0001
0000
0000
0000
1000
0001
0000
0001
1000
0000
0000
0000
0100
0000
0010
0000
,
0100
1000
0100
0001
0100
0000
1100
0000
,
0011
0000
0000
0000
0001
1000
0000
1000
0001
0000
0000
0000
0100
0000
0010
0000
,
0110
0000
0000
0000
0001
1000
0000
0020
0000
0000
1000
0000
1030
0000
0000
0000
,
0010
0000
0100
0000
0001
0100
0000
0100
0001
0000
1000
0000
0010
0000
0000
0000
,
0110
0000
0000
0000
1000
0001
0000
0020
0000
0000
0001
0000
0031
0000
0000
0000
,
0010
0000
0100
0000
1000
0100
0000
0100
1000
0000
0001
0000
0100
0000
0010
0000
,
1000
1000
0010
1000
0001
1000
0010
0200
,
0000
0000
0000
0300
0001
1000
0000
1000
0001
0000
0010
0000
0100
0000
1000
0000
,
0001
0001
0010
0001
1000
0001
0100
0020
,
0000
0000
0000
0030
1000
0001
1000
0001
0100
0000
0000
0000
0110
0000
0000
0000
,
2002
0000
0000
0000
,
0000
0000
0000
0000
,
0000
0000
0000
0000
,
0000
0000
0000
3003
,
0001
0000
0000
0100
0010
0000
1000
0000
,
1100
0000
0100
1000
0010
0100
0001
0010
,
0100
1000
0010
0001
0010
1000
0100
0001
,
0200
0000
0000
0000
0000
0000
0000
0300
0010
0100
0000
0100
0010
0000
0100
0000
,
1000
0001
0000
0001
0100
0000
0001
0000
0010
0000
0001
0000
0011
0000
0000
0000
,
0001
1000
0000
1000
0100
0000
1000
0000
0010
0000
1000
0000
1010
0000
0000
0000
,
1000
0001
0000
0001
0010
0000
0001
0000
0100
0000
0001
0000
0101
0000
0000
0000
,
0100
0010
0100
0000
0010
0000
1000
0000
0100
1000
0100
0000
1000
0000
0000
0000
,
0001
0010
0000
0010
0001
0000
1000
0000
0100
0000
0010
0000
0110
0000
0000
0000
,
1000
0010
0000
0010
1000
0000
0001
0000
0100
0000
0010
0000
0110
0000
0000
0000
,
0001
0100
0000
0100
0001
0000
1000
0000
0100
0000
0010
0000
0110
0000
0000
0000
,
1001
0000
0000
1000
0100
0000
0000
0000
1001
0000
0000
0001
0100
0000
0000
0000
,
1001
0000
0001
0000
0100
0000
1000
0000
0100
0000
0001
0000
0010
0100
0000
1000
,
0100
1000
0000
0100
0000
0000
0001
0000
0100
0000
1000
0000
0010
1000
0000
0010
,
0100
0010
0000
0001
0000
0000
0010
0000
1000
0000
0001
0000
0010
0100
0000
0001
,
0100
0001
0000
0100
0000
0000
1000
0000
0100
0000
0010
0000
0001
1000
0000
0010
,
1000
0010
0000
0100
0000
0000
1000
0000
0100
0000
0001
0000
0100
0010
0000
0100
,
0010
1000
0000
0100
0000
0000
0001
0000
0100
0000
1000
0000
0100
0010
0000
0001
,
0010
0001
0000
0010
0000
0000
1000
0000
0010
0000
0001
0000
0100
0001
0000
0100
,
0010
1000
0000
0100
0000
0000
1000
0000
0001
0000
0100
0000
0110
0000
0000
0000
,
1001
0000
0000
0000
0001
1000
0100
1000
0001
0000
0000
0000
0010
0100
0010
0000
,
0110
0000
0000
0000
1000
0001
0100
0001
1000
0000
0000
0000
0010
0100
0010
0000
,
0110
0000
0000
0000
0001
1000
0010
1000
0001
0000
0000
0000
0100
0010
0100
0000
,
0110
0000
0000
0000
0001
1000
0001
1000
0001
0000
0000
0000
0010
0100
1000
0000
,
1001
0000
0000
0000
0001
0010
0100
0010
0001
0000
0000
0000
0100
0010
0100
0000
,
1001
0000
0000
0000
1000
0010
0100
0010
1000
0000
0000
0000
0100
0010
0100
0000
,
1001
0000
0000
0000
0001
0100
0010
0100
0001
0000
0000
0000
0010
0100
0010
0000
,
1001
0000
0000
0000
1000
0001
1000
0001
1000
0000
0000
0000
1001
0000
0000
0000
,
0110
0000
0000
0000
0001
0010
0100
1000
0100
0000
0000
0000
1000
0001
1000
0000
,
2002
3003
0000
0000
;

//--------------- dance-single - Princess Pamela ----------------
#NOTES:
     dance-single:
     Princess Pamela:
     Challenge:
     15:
     0,0,0,0,0:
0000
0000
0000
0000
,
0000
0000
0000
0000
,
0000
0000
0000
0000
,
0000
0000
0000
0000
,
0000
0000
0000
0000
,
0000
0000
0000
0000
1001
1001
0000
0000
,
0001
0000
1000
0000
0001
0100
0000
0100
0001
0000
1000
0010
0000
1000
0010
0000
,
1000
0000
0100
0000
1000
0001
0000
0001
0010
0000
0100
1000
0000
0100
1000
0000
,
0001
0000
1000
0000
0001
0100
0000
0100
0001
0000
1000
0010
0000
1000
0010
0000
,
1000
0000
0100
0000
1000
0001
0000
0001
0010
0100
0000
0100
1000
0001
1000
0000
,
0001
0000
0100
0000
0001
0020
0000
0031
1000
0000
0100
0000
1000
0020
0000
1030
,
0001
0000
0010
0000
0001
0200
0000
0301
1000
0000
0010
0000
1000
0200
0000
1300
,
0001
0000
0100
0000
0001
0020
0000
0130
1000
0000
0001
0000
1000
0020
0000
0130
,
0001
0000
1000
0000
0001
0200
0000
0310
1000
0010
0000
0010
0100
0000
0010
0000
,
1001
0000
1001
0000
0000
0000
1000
0001
2000
0000
0000
0000
3010
0000
0100
0010
,
0100
0000
0000
0000
0100
0001
0000
0002
0000
0000
0000
0000
0013
0000
0001
0000
,
1000
0000
0100
0000
1000
0001
0000
0002
0000
0000
0000
0000
0013
0000
0000
0000
,
1001
0000
0000
0000
1000
0010
0100
0000
0101
0000
0000
0000
0001
0010
0100
0000
,
1100
0000
1100
0000
1000
0001
0000
1000
0002
0000
0000
0000
0103
0000
0010
0100
,
0010
0000
0000
0000
1000
0010
0000
1010
0000
0000
0000
0000
1000
0000
0100
0000
,
0001
0100
0000
0010
0100
0000
1000
0000
1100
0000
0000
0000
1001
0000
0000
0000
,
0011
0000
0000
0000
0001
0100
0000
0010
0100
0010
0000
1000
0010
1000
0001
0000
,
0011
0000
0011
0000
0010
0100
0000
2100
0000
0000
0010
0000
3010
0000
0000
0000
,
1000
0001
1000
0000
0001
0000
0100
0010
1000
0000
0100
0000
1100
0000
0000
0000
,
1010
0000
1010
0000
0010
0100
0000
0102
0000
0000
0010
0000
0013
0000
0000
0000
,
0001
0000
1000
0001
1000
0001
0000
0001
0100
0000
0010
0000
1000
0000
0100
0000
,
1100
0000
1000
0000
1001
0000
0001
0000
0101
0000
0100
0010
1000
0000
1020
0000
,
0000
0000
0130
0000
0001
1000
0000
0100
1000
0000
0001
1000
0001
0000
0100
0000
,
0101
0000
0001
0000
1000
0001
1000
0000
0001
0000
0011
0000
0110
0000
2100
0000
,
0000
0000
0000
0000
0000
0000
0001
0000
3000
0000
0000
0000
1000
0000
0000
0010
0000
0000
0100
0000
0000
0001
0000
0000
0010
0000
0000
0000
0000
0000
0000
0000
0000
0000
0000
0000
0110
0000
0000
0000
0000
0000
0000
0000
0000
0000
0000
0000
,
2002
0000
0000
0000
,
0000
0000
0000
0000
,
0000
0000
0000
0000
,
0000
0000
0000
3003
,
1100
0000
0000
0000
1000
0000
0100
1000
0001
0000
0000
0000
0100
0000
0000
0000
,
0101
0000
0000
0000
0001
0000
1000
0000
0100
0000
1000
0000
0001
0100
0001
1000
,
0010
0100
0001
1000
0100
0010
0001
1000
0100
1000
0001
0100
0001
0010
0100
1000
,
0020
0000
0000
0000
0000
0000
0030
0000
1000
0001
0000
2000
3200
0320
0032
0000
,
1003
0100
0000
0001
0000
0100
0000
0010
0000
0100
1000
0000
1100
0000
0000
0000
,
0001
0010
0000
1000
0000
0010
0001
0010
0100
0000
1100
0000
1010
0000
0000
0000
,
1000
0001
0000
0100
0000
1000
0000
0100
0000
0001
0100
0000
0101
0000
0000
0000
,
1000
0010
0000
0001
0000
0010
1000
0001
0010
0100
1000
0001
0100
0010
1000
0000
,
0001
0100
0000
1000
0000
0100
0000
0001
0000
1000
0010
0000
1010
0000
0000
0000
,
1000
0100
0000
0001
0000
0100
1000
0100
0010
0000
0011
0000
0101
0000
0000
0000
,
0001
0010
0000
1000
0000
0010
0000
0001
0000
1000
0100
0000
1100
0000
0000
0000
,
2001
0000
0000
3001
0010
0000
0001
1000
0001
0000
1000
0001
1001
0000
1000
0000
,
0200
0001
0000
0010
0000
1300
0100
0000
1100
0000
1001
0000
0001
0010
0000
0001
,
0100
1000
0000
1100
0000
0100
0001
0000
0101
0000
1001
0000
1000
0010
0000
1000
,
0200
0001
0000
0010
0000
1300
0100
0000
1100
0000
1001
0000
0001
0010
0000
0001
,
0100
1000
0000
1100
0000
0100
0001
0000
1000
0010
0100
0001
0010
0100
1000
0000
,
0020
0001
0000
0100
0000
1030
0010
0000
1010
0000
1001
0000
0001
0100
0000
0001
,
0010
1000
0000
1010
0000
0010
0001
0000
0011
0000
1001
0000
1000
0100
0000
1000
,
0020
0001
0000
0100
0000
1030
0010
0000
1010
0000
1001
0000
0001
0100
0000
0001
,
0010
1000
0000
1010
0000
0010
0001
1000
0010
0100
0001
1000
0010
0000
0000
0000
,
2002
0000
0000
0000
0000
0000
3003
0000
0000
0000
0000
0000
1000
0000
0100
0000
0010
0000
0001
0000
0010
0000
0100
0000
2000
0000
0000
0000
0000
0000
0000
0000
0000
3000
0000
0000
0001
0000
0000
1000
0000
0000
0001
0000
0000
0000
0000
0000
,
2002
0000
0000
0000
0000
0000
3003
0000
0000
0000
0000
0000
0001
0000
0100
0000
0010
0000
1000
0000
0010
0000
0100
0000
0002
0000
0000
0000
0000
0000
0000
0000
0000
0003
0000
0000
1000
0000
0000
0001
0000
0000
1000
0000
0000
0000
0000
0000
,
2002
0000
0000
0000
0000
0000
3003
0000
0000
0000
0000
0000
1000
0000
0001
0000
0010
0000
0100
0000
1000
0000
0001
0000
0020
0000
0000
0000
0000
0000
0000
0000
0000
0030
0000
0000
0001
0000
0000
1000
0000
0000
0001
0000
0000
0000
0000
0000
,
2002
0000
0000
0000
0000
0000
3003
0000
0000
0000
0000
0000
1000
0000
0001
0000
0100
0000
0001
0000
1000
0000
0001
0000
0200
0000
0000
0000
0000
0000
0000
0000
0000
0300
0000
0000
0001
0000
0000
1000
0000
0000
0010
0000
0000
0000
0000
0000
,
0220
0000
0000
0000
0000
0000
0330
0000
0000
0000
0000
0000
0100
0000
0001
0000
1000
0000
0010
0000
0100
0000
0001
0000
2000
0000
0000
0000
0000
0000
0000
0000
0000
3000
0000
0000
0100
0000
0000
1000
0000
0000
0001
0000
0000
0000
0000
0000
,
2002
0000
0000
0000
0000
0000
3003
0000
0000
0000
0000
0000
0001
0000
1000
0000
0100
0000
0010
0000
0001
0000
1000
0000
0200
0000
0000
0000
0000
0000
0000
0000
0000
0300
0000
0000
0010
0000
0000
0001
0000
0000
0100
0000
0000
0000
0000
0000
,
2002
0000
0000
0000
0000
0000
3003
0000
0000
0000
0000
0000
1000
0000
0001
0000
0100
0000
0010
0000
1000
0000
0001
0000
0200
0000
0000
0000
0000
0000
0000
0000
0000
0300
0000
0000
0010
0000
0000
1000
0000
0000
0100
0000
0000
0000
0000
0000
,
2002
0000
0000
0000
0000
0000
3003
0000
0000
0000
0000
0000
0001
0000
1000
0000
0100
0000
1000
0000
0001
0000
1000
0000
0200
0000
0000
0000
0000
0000
1300
0000
0000
0001
0000
0000
1001
0000
0000
0000
0000
0000
0010
0000
0000
0000
0000
0000
,
0110
0000
0000
0001
1000
0100
0010
0001
0100
0010
1000
0001
0010
0100
0010
0000
,
2002
3003
0000
0000
;

//--------------- dance-double - Princess Pamela ----------------
#NOTES:
     dance-double:
     Princess Pamela:
     Easy:
     6:
     0,0,0,0,0:
00000000
00000000
00000000
00000000
,
00000000
00000000
00000000
00000000
,
00000000
00000000
00000000
00000000
,
00000000
00000000
00000000
00000000
,
00000000
00000000
00000000
00000000
,
00000000
00000000
00000000
00000000
,
00011000
00000000
00001000
00000000
,
00010000
00000000
00000000
00000000
,
00000100
00000000
00001000
00000000
,
00000100
00000000
00000000
00000000
,
00010000
00001000
00000000
00001000
,
00000000
00100000
00000000
00010000
,
00000000
01000000
00000000
01000000
,
00000000
00100000
10000000
00100000
,
10000000
00000000
01000000
00000000
,
10000000
00010000
10000000
00000000
,
00010000
00100000
00010000
00000000
,
00100000
00001000
00010000
00000000
,
00011000
00000000
00001000
00000000
,
00010000
00000100
00010000
00000000
,
00000100
00001000
00000100
00000000
,
00001000
00000001
00000010
00000000
,
00000110
00000000
00000100
00001000
,
00000100
00000000
00010000
00000000
,
00011000
00000000
00001000
00100000
,
00001000
00000000
00100000
00000000
,
00110000
00000000
00010000
00010000
,
00000000
00010000
01000000
00000000
,
00100000
00000000
10000000
10000000
,
00000000
01000000
00100000
00000000
,
00020000
00000000
00000000
00000000
,
00000000
00000000
00000000
00000000
,
00000000
00000000
00000000
00000000
,
00000000
00000000
00000000
00030000
,
01000000
00000000
00001000
00000000
,
00010000
00000000
00000100
00000000
,
00001000
00001000
00000001
00000100
,
00000020
00000000
00000030
00000000
,
00001000
00001000
00000100
00001000
,
00000100
00010000
00001000
00000000
,
00010000
00010000
00001000
00100000
,
00010000
00100000
00001000
00000000
,
00010000
00010000
00001000
01000000
,
00010000
01000000
00100000
00000000
,
10000000
10000000
00010000
00100000
,
01100000
00000000
10010000
00010000
,
01000000
01000000
00001000
00010000
,
00000100
00000100
00001000
00000100
,
00000010
00000010
00000001
00001000
,
00000010
00000010
00000100
00000001
,
00001000
00001000
00000100
00010000
,
00001000
00001000
00100000
00010000
,
01000000
01000000
00010000
00100000
,
00001000
00001000
00010000
00001000
,
00011000
00000000
00010000
00001000
00010000
00000000
00000100
00000000
,
00001000
00000000
00000100
00001000
00000100
00000000
00000010
00000000
,
00000001
00000000
00000100
00000001
00000100
00000000
00000010
00000000
,
00001000
00000000
00000100
00001000
00000100
00000000
00010000
00000000
,
00001000
00000000
00010000
00001000
00010000
00000000
00001000
00000000
,
00100000
00000000
00010000
00100000
00010000
00000000
01000000
00000000
,
00010000
00000000
01000000
00100000
01000000
00000000
00100000
00000000
,
10000000
00000000
01000000
10000000
01000000
00000000
00100000
00000000
,
02200000
00000000
03300000
00010000
,
00022000
00033000
00000000
00000000
;

//--------------- dance-double - Princess Pamela ----------------
#NOTES:
     dance-double:
     Princess Pamela:
     Medium:
     8:
     0,0,0,0,0:
00000000
00000000
00000000
00000000
,
00000000
00000000
00000000
00000000
,
00000000
00000000
00000000
00000000
,
00000000
00000000
00000000
00000000
,
00000000
00000000
00000000
00000000
,
00000000
00000000
00000000
00000000
00001000
00010000
00000000
00000000
,
00011000
00000000
00000010
00001000
,
00000001
00000100
00000001
00001000
,
00000100
00000000
00010000
00001000
,
00100000
00010000
01000000
00100000
,
00000000
10000000
00010000
00000000
00000000
00010000
10000000
00000000
,
00000000
00010000
00100000
00000000
00000000
00100000
00010000
00000000
,
00000000
01000000
00010000
00000000
00000000
00010000
01000000
00000000
,
00000000
00001000
00010000
00000000
00001000
00000000
00011000
00000000
,
00010000
00001000
00000000
00000000
00010000
00000000
00000100
00000000
,
00001000
00000010
00000100
00000000
,
00000001
00000010
00001000
00000010
,
00000001
00000000
00000010
00000001
00000010
00000000
00000000
00000000
,
00000100
00010000
00001000
00100000
,
00010000
01000000
10000000
00000000
,
01000000
00010000
01000000
00000000
00010000
00000000
00100000
00000000
,
00001000
00010000
00011000
00000000
,
00000100
00000000
00001000
00000010
00001000
00000000
00000000
00000000
,
00000001
00000010
00001000
00010000
,
00011000
00000000
00001000
00010000
00001000
00000000
00000000
00000000
,
01000000
00100000
00010000
00001000
,
00011000
00010000
00010000
00000100
,
00001000
00000001
00001000
00000010
,
00010000
00001000
00001000
00200000
,
00000000
00310000
02000000
03000000
,
20020000
00000000
00000000
00000000
,
00000000
00000000
00000000
00000000
,
00000000
00000000
00000000
00000000
,
00000000
00000000
00000000
30030000
,
10000000
00000000
00000000
01000000
00100000
00000000
01000000
00000000
,
10000000
01000000
00010000
00001000
,
00000100
00000001
00000100
00000000
,
00000220
00000000
00000330
00000000
,
00000001
00001000
00000001
00000000
00000100
00000000
00000010
00000000
,
00001000
00000100
00001000
00000000
00000100
00000000
00010000
00000000
,
00001000
00010000
00001000
00000000
00100000
00000000
00010000
00000000
,
00110000
10000000
10100000
00010000
,
01000000
00010000
01000000
00000000
00001000
00000000
00010000
00000000
,
00001000
00010000
00000100
00000000
00001000
00000000
00000100
00000000
,
00001000
00000010
00001000
00000000
00000010
00000000
00000100
00000000
,
00000101
00001000
00001100
00000001
,
00000010
00000100
00001000
00000000
00000100
00000000
00010000
00000000
,
00001000
00100000
00010000
00000000
10000000
00000000
00100000
00000000
,
10000000
00010000
01000000
00000000
00001000
00000000
00010000
00000000
,
00000100
00001000
00000010
00000000
00000100
00000001
00000010
00000000
,
00000100
00001000
00000001
00000000
00000100
00000000
00001000
00000000
,
00010000
00001000
00010000
00000000
00100000
00000000
10000000
00000000
,
00100000
01000000
00010000
00000000
10000000
00000000
01000000
00000000
,
00010000
01000000
10000000
00000000
01000000
00000000
01100000
00000000
,
10010000
00000000
00010000
01000000
00010000
00000000
00100000
00000000
,
00110000
00000000
00001000
00010000
00001000
00000000
00010000
00000000
,
00011000
00000000
00000100
00001000
00000100
00000000
00001000
00000000
,
00001010
00000000
00000001
00000001
00000001
00000000
00000100
00000010
,
00000100
00000000
00000010
00001000
00000010
00000000
00001010
00000000
,
00001100
00000000
00010000
00001000
00010000
00000000
00011000
00000000
,
00101000
00000000
00100000
00010000
00100000
00000000
00110000
00000000
,
01010000
00000000
01000000
00100000
01000000
00000000
01100000
00000000
,
20020000
00000000
00000000
00000000
30030000
00000000
10000000
01000000
,
00020000
00030000
00000000
00000000
;

//--------------- dance-double - Princess Pamela ----------------
#NOTES:
     dance-double:
     Princess Pamela:
     Hard:
     13:
     0,0,0,0,0:
00000000
00000000
00000000
00000000
,
00000000
00000000
00000000
00000000
,
00000000
00000000
00000000
00000000
,
00000000
00000000
00000000
00000000
,
00000000
00000000
00000000
00000000
,
00000000
00000000
00000000
00000000
00011000
00011000
00000000
00000000
,
00010000
00000000
01000000
00000000
10000000
00000000
01000000
00000000
00100000
00000000
00010000
00100000
00000000
00010000
00100000
00000000
,
00001000
00000000
00010000
00000000
00000010
00000000
00001000
00000000
00000001
00000000
00000100
00000001
00000000
00000100
00000001
00000000
,
00000010
00000000
00000100
00000000
00010000
00000000
00001000
00000000
00100000
00000000
00010000
00100000
00000000
00010000
00100000
00000000
,
01000000
10000000
00010000
10000000
00100000
01000000
00100000
00010000
,
00000000
00000000
00001000
00010000
00001000
00000000
00010000
00000000
00000000
00000000
00000100
00001000
00000100
00000000
00010000
00000000
,
00000000
00000000
00001000
00010000
00001000
00000000
00010000
00000000
00000000
00000000
00000010
00001000
00000010
00000000
00010000
00000000
,
00000000
00000000
00001000
01000000
00001000
00000000
00010000
00000000
00000000
00000000
00001000
00010000
00001000
00000000
00010000
00000000
,
00000000
00000000
00001000
00100000
00001000
00000000
00010000
00000000
00000100
00001000
00000000
00001000
00000100
00000000
00000010
00000000
,
00000110
00000000
00000000
00000000
00000001
00001000
00000000
00001000
00000001
00000000
00000000
00000000
00000100
00000000
00001000
00000000
,
00010000
00000000
00000000
00000000
00001000
00010000
00000000
00010000
00001000
00000000
00000000
00000000
00010000
00000000
00100000
00000000
,
10000000
00000000
00000000
00000000
00010000
10000000
00000000
10000000
00010000
00000000
00000000
00000000
00100000
00000000
01000000
00000000
,
10000000
00000000
00000000
00000000
00100000
01000000
00010000
00000000
00100000
00000000
00000000
00000000
01000000
00100000
00001000
00000000
,
00010000
00000000
00000000
00000000
00000100
00001000
00000000
00001000
00000100
00000000
00000000
00000000
00000010
00000000
00000001
00000000
,
00001000
00000000
00000000
00000000
00000010
00000100
00000000
00000100
00000010
00000000
00000000
00000000
00010000
00000000
00000100
00000000
,
00001000
00000000
00000000
00000000
00000001
00000010
00000000
00000010
00000001
00000000
00000000
00000000
00000100
00000000
00001000
00000000
,
00010000
00000000
01000000
00000000
10000000
01000000
00000000
01000000
00100000
00000000
00010000
00000000
10000000
00010000
10000000
00000000
,
00100000
00000000
00010000
00000000
00001000
00000000
00000000
00000200
00000000
00000000
00000000
00000000
00000300
00000000
00000000
00000000
,
00001001
00000000
00000001
00000010
00000100
00010000
00001000
00000000
,
00000010
00000000
00001000
00000000
00010000
00000000
00000000
02000000
00000000
00000000
00000000
00000000
03000000
00000000
00000000
00000000
,
10000000
00000000
00100000
00000000
01000000
00100000
01000000
00000000
00010000
00000000
00100000
00000000
01000000
00000000
00010000
00000000
,
00000000
00001000
00000010
00001000
00000010
00000001
00000010
00002000
,
00000000
00000000
00013000
00000000
00001000
00010000
00000000
00010000
00001000
00000000
00010000
00000000
01000000
00000000
10000000
00000000
,
00000000
00010000
00100000
00010000
00100000
10000000
00100000
00020000
,
00000000
01030000
00100000
00010000
00001000
00000100
00000010
00000000
,
00000220
00000000
00000000
00000000
,
00000000
00000000
00000000
00000000
,
00000000
00000000
00000000
00000000
,
00000000
00000000
00000000
00000330
,
00001001
00000000
00000001
00000010
00001000
00000000
00010000
00000000
,
00001000
00000000
00010000
01000000
10000000
01000000
00100000
01000000
,
10000000
00100000
01000000
00100000
00010000
00001000
00000010
00000100
,
00000010
00000000
00000000
00000000
00000000
00000000
00000000
00000000
00000001
00001000
00000000
00001000
00000001
00001000
00000001
00000000
,
00000100
00000000
00001000
00000000
00010000
00001000
00010000
00000000
00001000
00000000
00100000
00000000
00010000
00000000
00000000
00000000
,
01000000
00000000
00010000
00000000
01000000
00100000
01000000
00000000
00100000
00000000
10000000
00000000
01000000
00000000
00000000
00000000
,
00100000
00000000
00010000
00000000
00100000
00001000
00100000
00000000
00001000
00000000
00010000
00000000
00000100
00000000
00000000
00000000
,
00001000
00000100
00001000
00000000
00000001
00000100
00000001
00000000
00001000
00000000
00000010
00000000
00000001
00000000
00000000
00000000
,
00000010
00000000
00001000
00000000
00000100
00001000
00000100
00000000
00010000
00000000
00001000
00000000
01000000
00000000
00000000
00000000
,
00010000
00000000
00100000
00000000
01000000
00100000
01000000
00000000
10000000
00000000
00010000
00000000
01000000
00000000
00000000
00000000
,
10000000
00000000
01000000
00000000
00010000
01000000
00010000
00000000
00100000
00000000
00001000
00000000
00010000
00000000
00000000
00000000
,
00011000
00000000
00000000
00000010
00001000
00000000
00000000
00000000
00011000
00000000
00000000
00100000
00010000
00000000
00000000
00000000
,
01000000
00100000
01000000
00000000
00100000
00000000
10000000
00000000
01000000
00000000
00010000
00000000
00001000
00010000
00000000
00010000
,
00001000
00000000
00000010
00000000
00000001
00000000
00000100
00000000
00000010
00000000
00001000
00000000
00000100
00000010
00000000
00000010
,
00000100
00000000
00010000
00000000
00001000
00000000
00100000
00000000
01000000
00000000
00010000
00000000
01000000
10000000
00000000
10000000
,
00010000
01000000
00100000
00010000
00001000
00000010
00001000
00010000
,
00001000
00000000
00100000
00000000
00010000
00000000
01000000
00000000
10000000
00000000
01000000
00000000
00010000
01000000
00000000
01000000
,
00100000
00000000
10000000
00000000
01000000
00000000
00010000
00000000
00001000
00000000
00000100
00000000
00000001
00000100
00000000
00000100
,
00000001
00000000
00000010
00000000
00001000
00000000
00000010
00000000
00000100
00000000
00010000
00000000
00001000
00100000
00000000
00100000
,
00001000
00000000
00010000
00000000
01000000
00000000
00100000
01000000
10000000
00000000
00100000
01000000
00010000
00000000
00000000
00000000
,
10010000
00000000
00000000
00000000
00010000
01000000
00001000
00010000
00001000
00000000
00000000
00000000
00011000
00000000
00000000
00000000
,
00010100
00000000
00000000
00000000
00000100
00001000
00000001
00000100
00000001
00000000
00000000
00000000
00000101
00000000
00000000
00000000
,
00001100
00000000
00000000
00000000
00001000
00000100
00010000
00001000
00010000
00000000
00000000
00000000
00011000
00000000
00000000
00000000
,
00110000
00000000
00000000
00000000
00100000
00010000
01000000
00010000
00100000
00000000
00000000
00000000
01000000
00100000
01000000
00000000
,
10010000
00000000
00000000
00000000
00010000
01000000
00001000
00010000
00001000
00000000
00000000
00000000
00011000
00000000
00000000
00000000
,
00010100
00000000
00000000
00000000
00000100
00001000
00000001
00001000
00000100
00000000
00000000
00000000
00000110
00000000
00000000
00000000
,
00000011
00000000
00000000
00000000
00000001
00001000
00000010
00001000
00000001
00000000
00000000
00000000
00001001
00000000
00000000
00000000
,
00001100
00000000
00000000
00000000
00001000
00000100
00010000
00001000
00010000
00000000
00000000
00000000
00011000
00000000
00000000
00000000
,
00010000
00000000
01000000
00000000
10000000
00000000
00100000
00000000
00010000
00000000
00000000
00000000
00001000
00010000
00001000
00000000
,
00022000
00033000
00000000
00000000
;

//--------------- dance-double - Princess Pamela ----------------
#NOTES:
     dance-double:
     Princess Pamela:
     Challenge:
     15:
     0,0,0,0,0:
00000000
00000000
00000000
00000000
,
00000000
00000000
00000000
00000000
,
00000000
00000000
00000000
00000000
,
00000000
00000000
00000000
00000000
,
00000000
00000000
00000000
00000000
,
00000000
00000000
00000000
00000000
00011000
00011000
00000000
00000000
,
00010000
00000000
00100000
00000000
10000000
00100000
00000000
00100000
10000000
00000000
01000000
00010000
00000000
01000000
00010000
00000000
,
00001000
00000000
00000010
00000000
00000001
00000010
00000000
00000010
00000001
00000000
00000100
00001000
00000000
00000100
00001000
00000000
,
00010000
00000000
00100000
00000000
10000000
00100000
00000000
00100000
10000000
00000000
01000000
00010000
00000000
01000000
00010000
00000000
,
00001000
00000000
00000010
00000000
00000001
00000010
00000000
00000010
00000001
00000100
00000000
00000100
00000001
00001000
00000010
00000000
,
00000100
00000000
00001000
00000000
00001000
00020000
00000000
00030000
00100000
00000000
10000000
00000000
10000000
02000000
00000000
03000000
,
00010000
00000000
00001000
00000000
00001000
00000020
00000000
00000030
00000001
00000000
00000100
00000000
00000100
00002000
00000000
00003000
,
00010000
00000000
00100000
00000000
00100000
20000000
00000000
30000000
01000000
00000000
00010000
00000000
00010000
00002000
00000000
00003000
,
00000010
00000000
00000001
00000000
00000001
00000200
00000000
00001300
00000100
00001000
00000000
00010000
00001000
00000000
00010000
00000000
,
00011000
00000000
00011000
00000000
00000000
00000000
00000000
00000000
00010000
00000000
00100000
00000000
10000000
00000000
01000000
10000000
,
01000000
00000000
00010000
00000000
01000000
00100000
00000000
00020000
00000000
00000000
00000000
00000000
01030000
00000000
00010000
00000000
,
01000000
00000000
00001000
00000000
00010000
00000100
00000000
00002000
00000000
00000000
00003000
00000000
00000010
00000000
00000000
00000000
,
00000110
00000000
00000000
00000000
00000010
00000100
00001000
00000000
00011000
00000000
00000000
00000000
01000000
00100000
00010000
00000000
,
00011000
00000000
00000000
00000000
00010000
01000000
00000000
10000000
02000000
00000000
00000000
00000000
03100000
00000000
00010000
00100000
,
00010000
00000000
00000000
00000000
00100000
00001000
00000000
00011000
00000000
00000000
00000000
00000000
00010000
00000000
01000000
00000000
,
10000000
01000000
00000000
11000000
00000000
00000000
00010000
00000000
00100000
00000000
00000000
00000000
01100000
00000000
00000000
00000000
,
00011000
00000000
00000000
00000000
00000010
00001000
00000000
00000001
00000100
00001000
00000000
00000100
00000010
00000100
00000001
00000000
,
00000011
00000000
00000011
00000000
00000010
00001000
00000000
00022000
00000000
00000000
00000000
00000000
00033000
00000000
00000000
00000000
,
00010000
01000000
10000000
00000000
01000000
00000000
00100000
01000000
00010000
00000000
00001000
00000000
00010000
00000000
00000000
00000000
,
10100000
00000000
10100000
00000000
00100000
00010000
00000000
00022000
00000000
00000000
00000000
00000000
00033000
00000000
00000000
00000000
,
00001000
00000000
00000010
00000001
00000100
00000000
00000100
00000010
00001000
00000000
00010000
00000000
01000000
00000000
00100000
00000000
,
10100000
00000000
10000000
00000000
10010000
00000000
00010000
00000000
00110000
00000000
00100000
01000000
10000000
00000000
12000000
00000000
,
00000000
00000000
03010000
00000000
00001000
00100000
00000000
00100000
00001000
00000000
00010000
00001000
00010000
00000000
00000100
00000000
,
00001100
00001000
00001001
00000001
00000101
00000200
00002300
00203000
,
00000000
00000000
00310000
00000000
00100000
01000000
10000000
00010000
00100000
00000000
00000000
00000000
01100000
00000000
00000000
00000000
,
00022000
00000000
00000000
00000000
,
00000000
00000000
00000000
00000000
,
00000000
00000000
00000000
00000000
,
00000000
00000000
00000000
00033000
,
01000000
00000000
00100000
00010000
00001000
00000000
00000100
00000000
,
00000001
00000000
00000010
00000000
00000100
00000000
00001000
00000000
00010000
00000000
00100000
00000000
01000000
10000000
01000000
10000000
,
00100000
01000000
00010000
01000000
00100000
00010000
00001000
00010000
00001000
00000100
00000010
00000100
00000001
00001000
00000001
00000010
,
00000200
00000000
00000000
00000000
00000000
00000000
00000000
00000000
00010300
00001000
00000000
00002000
00023000
00230000
02300000
00000000
,
03010000
01000000
00000000
10000000
00000000
01000000
00000000
00010000
00000000
00000000
00001000
00000000
00001010
00000000
00000000
00000000
,
00000010
00000100
00000000
00001000
00000000
00000100
00000001
00000100
00000010
00000000
00001000
00000000
00001010
00000000
00000000
00000000
,
00001000
00000100
00000000
00000001
00000000
00000100
00000000
00001000
00000000
00000000
00010000
00000000
00110000
00000000
00000000
00000000
,
00100000
01000000
00000000
00010000
00000000
01000000
10000000
01000000
00100000
00010000
00100000
00001000
00010000
00000100
00001000
00000000
,
00000001
00000010
00000000
00001000
00000000
00010000
00000000
01000000
00000000
10000000
01000000
00000000
11000000
00000000
00000000
00000000
,
00010000
00100000
00000000
00001000
00000000
00010000
00001000
00010000
00100000
00000000
01100000
00000000
01010000
00000000
00000000
00000000
,
10000000
00100000
00000000
00010000
00000000
00001000
00000000
00000100
00000000
00000001
00000100
00000000
00000101
00000000
00000000
00000000
,
00001001
00000000
00000000
00001000
00000010
00000000
00000100
00000000
00000101
00000000
00000001
00000010
00001000
00000000
00010000
01000000
,
10000000
01000000
00000000
11000000
00000000
10000000
00100000
00000000
01100000
00000000
01010000
00000000
00010000
00100000
00000000
00001000
,
00010000
00001000
00000000
00011000
00000000
00010000
00000100
00000000
00001100
00000000
00001010
00000000
00000010
00000100
00000000
00000001
,
00000100
00000001
00000000
00000011
00000000
00000010
00000100
00000000
00001100
00000000
00010100
00000000
00010000
00001000
00000000
00100000
,
00010000
00100000
00000000
00110000
00000000
00010000
01000000
00000000
00100000
10000000
01000000
00100000
00010000
01000000
00001000
00000000
,
00010000
00001000
00000000
00011000
00000000
00010000
00000100
00000000
00001100
00000000
00001010
00000000
00000010
00000100
00000000
00000001
,
00000010
00000001
00000000
00000011
00000000
00001000
00000010
00000000
00001010
00000000
00010010
00000000
00010000
00001000
00000000
00100000
,
00010000
00100000
00000000
01100000
00000000
01000000
10000000
00000000
11000000
00000000
10100000
00000000
00100000
01000000
00000000
00010000
,
00100000
00010000
00000000
00101000
00000000
00001000
00010000
00000100
00001000
00000100
00010000
00001000
01000000
00000000
00000000
00000000
,
20020000
00000000
30030000
00000000
10000000
01000000
00010000
00001000
00000020
00000000
00000000
00000030
00000001
00001000
00000001
00000000
,
00002002
00000000
00003003
00000000
00000001
00000100
00001000
00010000
00200000
00000000
00000000
00300000
10000000
00010000
10000000
00000000
,
20020000
00000000
30030000
00000000
10000000
01000000
00010000
00001000
00000020
00000000
00000000
00000030
00000001
00001000
00000001
00000000
,
00002002
00000000
00003003
00000000
00010000
00001000
00000100
00001000
00020000
00000000
00000000
00030000
00100000
01000000
00100000
00000000
,
20020000
00000000
30030000
00000000
10000000
01000000
00010000
00000100
00002000
00000000
00000000
00003000
00000001
00000010
00000100
00000000
,
00002002
00000000
00003003
00000000
00000001
00000100
00001000
01000000
00020000
00000000
00000000
00030000
10000000
00100000
01000000
00000000
,
20020000
00000000
30030000
00000000
10000000
01000000
00010000
00000100
00002000
00000000
00000000
00003000
00000001
00000010
00000100
00000000
,
00002002
00000000
00003003
00000000
00010000
00001000
00000010
00001000
00010000
00000000
00001000
00010000
00011000
00000000
00000000
00000000
,
10010000
00000000
00000000
00010000
00100000
00001000
00010000
00000010
00001000
00000010
00010000
00001000
00000100
00000010
00000100
00000000
,
00002002
00003003
00000000
00000000
;
