#VERSION:0.83;
#TITLE:マジヤバ最強伝説;
#SUBTITLE:;
#ARTIST:DJ Command feat. 鋼兵;
#TITLETRANSLIT:Majiyaba saikyou densetsu;
#SUBTITLETRANSLIT:;
#ARTISTTRANSLIT:DJ Command feat. Kouhei;
#GENRE:;
#ORIGIN:;
#CREDIT:djfipu;
#BANNER:Majiyaba saikyoku densetsu-bn.png;
#BACKGROUND:Majiyaba saikyoku densetsu-bg.png;
#PREVIEWVID:;
#JACKET:Majiyaba saikyoku densetsu-jacket.png;
#CDIMAGE:;
#DISCIMAGE:;
#LYRICSPATH:Majiyaba saikyou densetsu.lrc;
#CDTITLE:cdtitle.png;
#MUSIC:Majiyaba saikyou densetsu.ogg;
#OFFSET:-1.189000;
#SAMPLESTART:55.873001;
#SAMPLELENGTH:12.152000;
#SELECTABLE:YES;
#BPMS:0.000=158.000;
#STOPS:;
#DELAYS:;
#WARPS:;
#TIMESIGNATURES:0.000=4=4;
#TICKCOUNTS:0.000=4;
#COMBOS:0.000=1;
#SPEEDS:0.000=1.000=0.000=0;
#SCROLLS:0.000=1.000;
#FAKES:;
#LABELS:0.000=Song Start;
#BGCHANGES:;
#KEYSOUNDS:;
#ATTACKS:
;

//---------------dance-single - ----------------
#NOTEDATA:;
#CHARTNAME:;
#STEPSTYPE:dance-single;
#DESCRIPTION:;
#CHARTSTYLE:;
#DIFFICULTY:Beginner;
#METER:3;
#RADARVALUES:0.129484,0.211491,0.094955,0.086323,0.000000,105.000000,94.000000,11.000000,10.000000,0.000000,0.000000,0.000000,0.000000,0.000000,0.129484,0.211491,0.094955,0.086323,0.000000,105.000000,94.000000,11.000000,10.000000,0.000000,0.000000,0.000000,0.000000,0.000000;
#CREDIT:djfipu;
#NOTES:
0000
0000
0000
0000
,
0000
0000
0000
0000
,
0000
0000
0000
0000
,
0000
0000
0000
0000
,
1000
0000
0000
0000
,
1000
0000
0000
0000
,
0001
0000
0000
0000
,
0001
0000
0000
0000
,
2002
3003
0000
0000
,
0220
0330
0000
0000
,
2002
3003
0000
0000
,
1001
0000
0000
0000
,
1000
0000
0000
0000
,
0100
0000
0000
0000
,
0010
0000
0000
0000
,
0001
0000
0000
0000
,
0100
0000
0000
0000
,
0010
0000
0000
0000
,
0100
0000
0000
0000
,
0001
0000
0000
0000
,
1001
0000
0000
0000
,
1000
0000
0000
0000
,
0100
0000
0000
0000
,
1000
0000
0000
0000
,
1001
0000
0000
0000
,
0001
0000
0000
0000
,
0100
0000
0000
0000
,
0001
0000
0000
0000
,
1001
0000
0000
0000
,
0001
0000
0000
0000
,
0010
0000
0010
0000
,
0010
0000
0100
0000
,
0100
0000
0000
0000
,
1000
0000
0000
0000
,
0001
0000
1000
0000
,
2002
3003
0000
0000
,
1000
0000
0000
0010
,
0100
0000
0000
0010
,
1000
0000
0000
0001
,
0010
0000
0000
0100
,
1000
0000
0000
0001
,
1000
0000
0000
0010
,
0100
0000
0000
0010
,
1000
0001
0001
0001
,
1000
0000
0000
0100
,
0010
0000
0000
0001
,
1000
0000
0000
0010
,
0100
0000
0000
0010
,
1000
0000
0000
0001
,
1000
0000
0000
0100
,
0010
0000
0000
0100
,
1000
1000
1000
1000
,
0001
0000
0000
0000
,
0100
0000
0000
0000
,
0010
0000
0000
0000
,
0100
0000
0000
0000
,
0001
0000
0000
0000
,
1000
0000
0000
0000
,
0100
0000
0000
0000
,
0110
0000
0000
0000
,
1001
0000
0000
0000
,
0001
0000
1000
0000
,
0010
0000
0000
0000
,
0100
0000
0010
0000
,
1000
0000
0000
0000
,
0001
0000
1000
0000
,
0001
0000
0000
0000
,
0010
0000
0100
0000
,
0010
0000
0000
0000
0010
0000
0000
2002
,
0000
0000
0000
0000
,
3003
0000
0000
0000
;

//---------------dance-single - ----------------
#NOTEDATA:;
#CHARTNAME:;
#STEPSTYPE:dance-single;
#DESCRIPTION:;
#CHARTSTYLE:;
#DIFFICULTY:Easy;
#METER:8;
#RADARVALUES:0.355157,0.409387,0.319395,0.138117,0.000000,288.000000,251.000000,37.000000,16.000000,0.000000,0.000000,0.000000,0.000000,0.000000,0.355157,0.409387,0.319395,0.138117,0.000000,288.000000,251.000000,37.000000,16.000000,0.000000,0.000000,0.000000,0.000000,0.000000;
#CREDIT:djfipu;
#NOTES:
0000
0000
0000
0000
,
0000
0000
0000
0000
,
0000
0000
0000
0000
,
0000
0000
0000
0000
,
1000
0001
0001
1000
,
0010
0100
0010
0010
,
1000
0100
0010
0010
,
0001
0100
0110
1001
,
0002
0010
1003
1001
,
2000
0010
3001
1001
,
0002
0100
1003
0001
,
2000
0010
0010
3100
,
1100
0100
0010
0001
,
1000
0001
0100
0100
,
0010
0100
0001
1000
,
0100
0100
1000
0010
,
0100
0010
1000
0001
,
1000
1000
0100
0010
,
0100
1000
0001
0001
,
0100
0010
0100
0001
,
1000
0100
1000
0020
,
0130
0100
0110
1001
,
0001
0010
0001
0100
,
0010
1000
0100
0100
,
1000
0010
0100
0002
,
0013
0010
0110
1001
,
1000
0010
0100
0001
,
1000
1000
0100
1000
,
0010
0010
0100
0010
,
0010
1000
0001
1001
,
2000
3010
2000
3100
,
2000
3001
0110
1001
,
0002
0103
0002
0013
,
0002
1003
0001
0010
,
0100
0100
0100
1000
,
2002
0000
3003
0000
,
1001
0001
0100
1001
,
0001
1000
0100
0110
,
0010
0010
0100
0010
,
0110
0010
0001
1000
,
1001
1000
0010
1001
,
1000
0001
0100
0110
,
0010
0010
0100
0010
,
1000
1001
0110
0110
,
1001
1000
0100
1001
,
1000
0001
0100
0110
,
0010
0010
0100
0010
,
0110
0010
1000
0001
,
1001
0001
0010
1001
,
0001
1000
0100
0110
,
0010
0010
0100
0010
,
0001
1001
0110
0110
,
1001
1000
0100
1000
,
1000
0001
0100
0010
,
0010
0100
0001
1000
,
0100
0010
0001
1000
,
0010
0010
0100
0110
,
0010
1000
0001
0011
,
0001
1000
0100
1100
,
0002
0000
2003
0000
,
3001
0010
0100
1000
,
0001
1000
0010
0010
,
0100
0010
1000
0001
,
0010
0010
0001
0100
,
0010
0100
0001
1000
,
0001
0001
0010
0100
,
0010
0001
1000
1000
,
0010
0100
0010
1000
;

//---------------dance-single - XO----------------
#NOTEDATA:;
#CHARTNAME:;
#STEPSTYPE:dance-single;
#DESCRIPTION:XO;
#CHARTSTYLE:;
#DIFFICULTY:Medium;
#METER:11;
#RADARVALUES:0.468610,0.449959,0.258969,0.328027,0.133801,380.000000,350.000000,30.000000,38.000000,0.000000,0.000000,0.000000,0.000000,0.000000,0.468610,0.449959,0.258969,0.328027,0.133801,380.000000,350.000000,30.000000,38.000000,0.000000,0.000000,0.000000,0.000000,0.000000;
#CREDIT:djfipu;
#NOTES:
0000
0000
0000
0000
,
0000
0000
0000
0000
,
0000
0000
0000
0000
,
0000
0000
0000
0000
,
0001
0000
1000
0000
0001
0000
0000
0000
0010
0000
0000
0100
0000
0000
1000
0000
,
0001
0000
1000
0000
0001
0000
0000
0000
1000
0000
0000
0010
0000
0000
0100
0000
,
0010
0000
1000
0000
0010
0000
0000
0000
0100
0000
0000
0001
0000
0000
1000
0000
,
0100
0010
0100
1000
0002
0000
0103
0000
,
2002
3003
1000
0110
,
2002
3003
0001
0110
,
2002
3003
0100
0010
,
2001
0100
0010
3001
,
1000
0100
1000
0000
0001
0010
0001
0000
,
1000
0000
0001
0000
1000
0000
0000
0000
0010
0000
0000
0100
0000
0000
0001
0000
,
1000
0010
1000
0000
0001
0100
0001
0000
,
1000
0000
0001
0000
1000
0000
0000
0000
0100
0000
0000
0010
0000
0000
0001
0000
,
0100
0010
1000
0000
0001
0010
0100
0000
,
1000
0000
0001
0000
1000
0000
0000
0000
0001
0000
0000
1000
0000
0000
0100
0000
,
0010
0001
1000
0000
0100
1000
0010
0000
,
0100
0000
0010
0000
0100
0000
0000
0000
0001
0000
0000
1000
0000
0000
0001
0000
,
2000
0000
3001
2000
0000
3001
0020
0000
,
0030
0100
1000
0100
2000
0000
3001
0000
,
0002
0000
1003
0002
0000
1003
0200
0000
,
0310
0000
0100
0000
0010
0000
0001
0000
1000
0000
0000
0010
0000
0000
0100
0000
,
0020
0000
0130
0020
0000
0130
0002
0000
,
1003
0010
1000
0010
0200
0000
0302
0000
,
0023
0000
0130
0020
0000
0130
0200
0000
,
1300
0000
0010
0000
0100
0000
0001
0000
0010
0000
0000
0010
0000
0000
0010
0000
,
0200
0000
1300
2000
0000
3001
0100
0001
,
0000
1000
0010
1000
0001
0000
1001
0000
,
0000
1000
0100
0000
0010
0001
0000
1001
,
0000
1000
0001
1000
0200
0000
0310
0000
,
0002
0000
0103
0020
0000
0130
0100
0002
,
0000
1003
0001
1000
0100
0000
0010
0100
,
1000
0000
0001
0000
1000
0000
0001
0200
,
0000
0000
0300
0010
0100
0000
1001
0000
,
1000
0000
0000
0100
0000
0000
0010
0000
0000
0000
0000
0000
0011
0000
0000
0000
,
0001
0000
0100
0000
0000
0010
0000
0000
0000
0000
0000
0000
1010
0000
0000
0000
,
1000
0000
0000
1000
0000
0000
0002
0000
0000
0000
0013
0000
0100
0000
1000
0000
,
0100
0110
1001
1100
,
0001
0000
0000
1000
0000
0000
0010
0000
0000
0000
0000
0000
0110
0000
0000
0000
,
1000
0000
0001
0100
0000
0000
0010
0000
0000
0000
0000
0000
0110
0000
0000
0000
,
0001
0000
0000
0001
0000
0000
2000
0000
0000
0000
3100
0000
0010
0000
0001
0000
,
0010
0110
1001
0110
,
0001
0000
0000
0100
0000
0000
0010
0000
0000
0000
0000
0000
1010
0000
0000
0000
,
1000
0000
0100
0000
0000
0010
0000
0000
0000
0000
0000
0000
0011
0000
0000
0000
,
0001
0000
0000
0001
0000
0000
2000
0000
0000
0000
3010
0000
0100
0000
0001
0000
,
0100
0110
1001
0101
,
1000
0000
0000
0001
0000
0000
0010
0000
0000
0000
0000
0000
0110
0000
0000
0000
,
0001
0000
1000
0100
0000
0000
0010
0000
0000
0000
0000
0000
0110
0000
0000
0000
,
1000
0000
0000
1000
0000
0000
0002
0000
0000
0000
0103
0000
0010
0000
1000
0000
,
0010
0110
1001
0110
,
0001
0100
1000
0100
0001
0000
1000
0000
,
0001
0010
1000
0010
0001
0010
0100
0000
,
1000
0010
0001
0010
1000
0000
0001
0000
,
1000
0000
0100
0000
0010
0000
0100
0000
1000
0000
0000
1000
0000
0000
0001
0000
,
1000
0000
0010
0000
0100
0000
0001
0000
0000
0001
0000
0000
0001
0000
0000
0000
,
0001
0000
0010
0000
0100
0000
1000
0000
0000
1000
0000
0000
1000
0000
0000
0000
,
0010
0000
0100
0000
0010
0000
1000
0000
0000
0001
0000
0000
1000
0000
0000
0000
,
2002
0000
0000
3003
,
0001
1000
0001
0100
0001
0010
0001
0000
,
1000
0000
0001
0000
1000
0000
0000
0000
0100
0000
0000
0010
0000
0000
0001
0000
,
1000
0100
1000
0010
1000
0001
1000
0000
,
0001
0000
1000
0000
0001
0000
0000
0000
0010
0000
0000
0100
0000
0000
1000
0000
,
0010
0100
0001
0100
0010
0100
0001
1000
,
0100
0000
0010
0000
0100
0000
0000
0000
1000
0000
0000
0001
0000
0000
0001
0000
,
0010
0100
1000
0100
0010
0100
1000
0001
,
0100
0000
0010
0000
0100
0000
0000
0000
0001
0000
0000
1000
0000
0000
0010
0000
,
1000
0000
0000
1000
0000
0000
0001
0000
0000
0001
0000
0000
2000
0000
0002
0000
,
0000
0000
3003
0000
;

//---------------dance-single - FS- XO----------------
#NOTEDATA:;
#CHARTNAME:;
#STEPSTYPE:dance-single;
#DESCRIPTION:FS- XO;
#CHARTSTYLE:;
#DIFFICULTY:Hard;
#METER:14;
#RADARVALUES:0.621525,0.719934,0.336660,0.388453,0.401402,504.000000,465.000000,39.000000,45.000000,6.000000,0.000000,0.000000,0.000000,0.000000,0.621525,0.719934,0.336660,0.388453,0.401402,504.000000,465.000000,39.000000,45.000000,6.000000,0.000000,0.000000,0.000000,0.000000;
#CREDIT:djfipu;
#NOTES:
// measure 0
0000
0000
0000
0000
,  // measure 1
0000
0000
0000
0000
,  // measure 2
0000
0000
0000
0000
,  // measure 3
0000
0000
0000
0000
,  // measure 4
0001
0000
0100
0000
0010
0000
0100
0000
0001
0000
1000
0010
0M00
0010
0001
0000
,  // measure 5
1000
0000
0100
0000
0010
0000
0100
0000
1000
0000
0001
0100
00M0
0100
1000
0000
,  // measure 6
0010
0000
0100
0000
0001
0000
0100
0000
0010
0000
1000
0100
00M0
0100
0001
0000
,  // measure 7
1000
0100
1000
0100
0010
0001
0010
0001
2000
0000
0000
0000
0002
0000
3003
0000
,  // measure 8
1002
0000
0003
1000
0001
0100
0110
0000
,  // measure 9
2001
0000
3000
1000
0001
0010
0110
0000
,  // measure 10
2002
0000
0000
0000
3003
0000
0001
0000
0100
0000
0001
1000
0000
1000
0001
0000
,  // measure 11
1001
1010
0101
0011
,  // measure 12
1000
0001
1000
0010
1000
0001
1000
0100
,  // measure 13
1000
0001
1000
0000
0001
0000
0010
0000
0100
0000
1000
0001
0000
0000
0100
0000
,  // measure 14
0001
1000
0001
0010
0001
1000
0001
0100
,  // measure 15
0001
1000
0001
0000
1000
0000
0010
0000
0100
0000
0001
1000
0000
0000
0100
0000
,  // measure 16
0010
0001
0010
0100
0010
1000
0010
0100
,  // measure 17
1000
0001
1000
0000
0001
0000
0100
0000
0010
0000
1000
0001
0000
0000
0100
0000
,  // measure 18
0010
0001
0010
0100
0010
1000
0010
0100
,  // measure 19
0001
1000
0001
0000
1000
0000
0100
0000
0010
0000
0001
1000
0000
0000
0010
0000
,  // measure 20
2000
0000
3001
0200
0000
0301
0020
0000
,  // measure 21
0031
0010
0100
1000
1002
0000
0103
0000
,  // measure 22
0002
0000
1003
0020
0000
1030
0200
0000
,  // measure 23
1300
0001
1000
0001
1000
0000
0010
0000
0100
0000
0001
0010
0M00
0010
1000
0000
,  // measure 24
0002
0000
1003
0200
0000
1300
0020
0000
,  // measure 25
1030
0010
0100
0001
2001
0000
3100
0000
,  // measure 26
2000
0000
3001
0020
0000
0031
0200
0000
,  // measure 27
0301
1000
0001
1000
0001
0000
0010
0000
0100
0000
1000
0010
0M00
0010
0001
0000
,  // measure 28
2000
0000
3001
0020
0000
0130
1000
0001
,  // measure 29
0000
1000
0010
1000
0002
0000
0013
0000
,  // measure 30
0011
0001
1000
0000
0010
0100
0000
1001
,  // measure 31
0000
1000
0100
0010
0012
0000
1003
0000
,  // measure 32
0002
0000
0103
0020
0000
1030
0001
0010
,  // measure 33
0000
0100
1000
0100
2100
0000
3001
0001
,  // measure 34
2000
0000
3020
0000
0230
0000
0302
2000
,  // measure 35
0000
3003
1001
0110
,  // measure 36
1000
0000
0000
0100
0000
0000
0001
0000
0000
0100
0000
0000
1001
0000
0000
0000
,  // measure 37
1000
0000
0000
0010
0000
0000
0001
0000
0000
0010
0000
0000
1001
0000
0000
0000
,  // measure 38
1000
0000
0000
1000
0000
0000
0020
0000
0000
0000
0130
0000
0001
0000
0100
0000
,  // measure 39
0010
1010
0101
0011
,  // measure 40
0001
0000
0000
0010
0000
0000
1000
0000
0000
0010
0000
0000
1001
0000
0000
0000
,  // measure 41
1000
0000
0001
0100
0000
0000
0110
0000
0000
1000
0000
0000
1001
0000
0000
0000
,  // measure 42
0001
0000
0000
0001
0000
0000
0020
0000
0000
0000
0130
0000
1000
0000
0100
0000
,  // measure 43
0010
1100
1001
1010
,  // measure 44
0001
0010
0100
0000
1000
0000
0010
0000
0001
0000
0000
0000
0110
0000
0000
0000
,  // measure 45
1000
0100
0010
0000
0001
0000
0100
0000
1000
0000
0000
0000
0110
0000
0000
0000
,  // measure 46
0001
0000
0001
1000
0000
0000
0200
0000
0000
0000
0310
0000
1000
0000
0010
0000
,  // measure 47
0100
1100
0011
1001
,  // measure 48
0001
0100
0010
0000
1000
0000
0100
0000
0001
0000
0000
0000
1001
0000
0000
0000
,  // measure 49
1000
0010
0100
0000
0001
0000
0010
0000
1000
0000
0000
0000
1001
0000
0000
0000
,  // measure 50
1000
0000
1000
0001
0000
0000
0200
0000
0000
0000
0310
0000
0001
0000
0010
0000
,  // measure 51
0100
1010
1001
0011
,  // measure 52
1000
0000
0010
0000
1000
0000
0010
0100
0000
0010
1000
0000
0001
0000
1000
0000
,  // measure 53
0001
0000
0010
0000
0001
0000
0010
0100
0000
0010
0001
0000
1000
0001
1000
0000
,  // measure 54
0001
0000
0100
0000
0001
0000
0100
0010
0000
0100
0001
0000
1000
0000
0010
0000
,  // measure 55
1000
0001
1000
0001
0100
0010
0100
0010
1000
0000
0001
0100
00M0
0100
1000
0000
,  // measure 56
0001
0010
0001
0020
0000
0000
0130
0000
0001
0000
0100
0000
2000
0000
0000
0000
,  // measure 57
3010
0100
0010
0200
0000
0000
0301
0000
0010
0000
1000
0000
0020
0000
0000
0000
,  // measure 58
0130
1000
0100
1000
0200
0000
1300
0000
0010
0000
0001
0000
0020
0000
0000
0000
,  // measure 59
1030
0100
0000
0010
0001
0000
0200
0000
0000
0000
0301
0000
0101
0000
0000
0000
,  // measure 60
0100
0000
0001
0010
0000
0010
0100
0000
0100
1000
0000
1000
0010
0000
0100
0000
,  // measure 61
0001
0010
0001
0000
0100
0000
0010
0000
0001
0000
0000
0010
0000
0000
1000
0000
,  // measure 62
0100
0000
1000
0010
0000
0010
0100
0000
0100
0001
0000
0001
0010
0000
0100
0000
,  // measure 63
1000
0010
1000
0000
0100
0000
0010
0000
1000
0000
0000
0010
0000
0000
0001
0000
,  // measure 64
1000
0000
0001
0010
0000
0001
0100
0000
0010
1000
0000
0100
1000
0000
0010
0100
,  // measure 65
0001
1000
0001
0000
0010
0000
0100
0000
0001
0000
0000
0100
0000
0000
1000
0000
,  // measure 66
0001
0000
1000
0010
0000
1000
0100
0000
0010
0001
0000
0100
0001
0000
0010
0100
,  // measure 67
1000
0001
1000
0000
0010
0000
0100
0000
1000
0000
0000
0100
0000
0000
0001
0000
,  // measure 68
1000
0000
0000
0010
0000
0000
0100
0000
0000
0001
0000
0000
2000
0000
0002
0000
,  // measure 69
0000
0000
3003
0000
;

//---------------dance-single - FS+ XO+ DS----------------
#NOTEDATA:;
#CHARTNAME:fantasia is the best popn mix;
#STEPSTYPE:dance-single;
#DESCRIPTION:FS+ XO+ DS;
#CHARTSTYLE:;
#DIFFICULTY:Challenge;
#METER:17;
#RADARVALUES:0.839799,0.839923,0.397086,0.353924,0.936604,681.000000,635.000000,46.000000,41.000000,17.000000,0.000000,0.000000,0.000000,0.000000,0.839799,0.839923,0.397086,0.353924,0.936604,681.000000,635.000000,46.000000,41.000000,17.000000,0.000000,0.000000,0.000000,0.000000;
#CREDIT:djfipu;
#NOTES:
0000
0000
0000
0000
,
0000
0000
0000
0000
,
0000
0000
0000
0000
,
0000
0000
0000
0000
,
1000
0100
0010
0001
1000
0100
0010
0001
1000
0000
0001
0010
0M00
0010
1000
0000
,
0001
0100
0010
1000
0001
0100
0010
1000
0001
0000
1000
0010
0M00
0010
0001
0000
,
1000
0010
0100
0001
1000
0010
0100
0001
1000
0000
0001
0100
00M0
0100
1000
0000
,
0001
0010
0100
1000
0001
0010
0100
1000
0002
0000
0000
0000
0103
0000
0000
0000
,
2020
0000
0000
0000
3030
0000
0001
0010
0100
0000
1000
0010
0M00
0010
0001
0000
,
0202
0000
0000
0000
0303
0000
1000
0100
0010
0000
0001
0100
00M0
0100
1000
0000
,
0022
0000
0000
0000
0033
0000
1000
0010
0100
0000
0001
0010
0M00
0010
1000
0000
,
2100
0010
3001
0110
,
1001
0000
1000
0010
0100
0010
1000
0010
0100
0001
1000
0001
0100
0001
0010
0100
,
1000
0001
1000
0000
1000
0000
0010
0000
0100
0000
0001
0010
0M00
0010
1000
0000
,
1001
0000
0001
0010
0100
0010
0001
0010
0100
1000
0001
1000
0100
1000
0010
0100
,
0001
1000
0001
0000
0001
0000
1000
0000
0100
0000
1000
0010
0M00
0010
0001
0000
,
1001
0000
0001
1000
0010
1000
0001
1000
0100
1000
0010
0100
0001
0010
0100
1000
,
0001
0010
0001
0000
0001
0000
0100
0000
0010
0000
1000
0100
00M0
0100
0001
0000
,
1001
0000
1000
0001
0010
0001
1000
0001
0100
0001
0010
0100
1000
0010
0100
0001
,
1000
0010
1000
0000
1000
0000
0100
0000
0010
0000
0001
0100
00M0
0100
1000
0000
,
0002
0100
0013
0002
0100
1003
1001
0000
,
1000
0100
0010
0000
0001
0000
0100
0000
0120
0000
0000
0000
1030
0000
0000
0000
,
2000
0010
3001
2000
0010
3100
1100
0000
,
0001
0010
0001
1000
0001
0000
0100
0000
0010
0000
1000
0010
0M00
0010
0001
0000
,
0020
0001
0130
0020
1000
0130
0110
0000
,
0010
0100
1000
0000
0001
0000
0100
0000
0101
0000
0000
0000
1100
0000
0000
0000
,
0200
1000
0310
0200
0001
0310
0110
0000
,
0010
0100
0010
0100
1000
0000
0010
0000
0100
0000
0001
0010
0M00
0010
1000
0000
,
0002
0000
0103
0020
0000
1030
0100
2000
,
0000
3001
0100
0010
0210
0000
0301
0000
,
0001
1000
1100
0000
0001
0011
0000
1001
,
0000
1000
0010
0100
1002
0000
0100
0000
,
0023
0000
0031
2000
0000
3100
0010
0002
,
0000
1003
0010
1000
1020
0000
0130
0010
,
0101
0000
1001
0000
1100
0000
2000
0002
,
0000
0000
0000
0000
3003
0000
0000
0000
0110
0000
0100
0010
0100
0000
0001
1000
,
0001
0000
1000
0010
0000
0100
0010
0000
1000
0100
0010
0001
1000
0001
0010
0100
,
1000
0000
0001
0100
0000
0010
0100
0000
0001
0010
0100
1000
0001
1000
0100
0010
,
0001
0000
1000
0010
0000
0100
0020
0000
0000
0000
0130
0000
0010
0000
0001
0000
,
0010
1010
1100
1001
,
1000
0000
0100
0010
0000
0001
1000
0000
0001
0100
0010
1000
0100
1000
0010
0100
,
0001
0000
1000
0100
0000
0010
0001
0000
1000
0010
0100
0001
0010
0001
0100
0010
,
1000
0000
0001
0010
0000
0000
1002
0000
0000
0000
0013
0000
0001
0000
1000
0000
,
0100
0011
1100
0101
,
1000
0000
0001
0100
0000
0010
1000
0000
0001
0010
0001
0100
0010
0100
0001
0010
,
0100
0000
1000
0010
0000
0100
0001
0000
1000
0100
1000
0010
0100
0010
1000
0100
,
0010
0000
0001
0100
0000
0010
0200
0000
0000
0000
0310
0000
0100
0000
1000
0000
,
0100
0110
0101
1001
,
0001
0000
0010
0100
0000
1000
0001
0000
1000
0010
0100
0010
0001
0010
0100
0010
,
1000
0000
0100
0010
0000
0001
1000
0000
0001
0010
0100
0010
1000
0010
0100
0010
,
0001
0000
1000
0100
0000
0000
2001
0000
0000
0000
3100
0000
1000
0000
0001
0000
,
0010
1100
0011
1010
,
0001
0000
1000
0000
0010
0000
1000
0010
0000
0010
0100
0001
0100
0010
0100
1000
,
0100
0000
0001
0000
0010
0000
0001
0010
0000
0010
0100
1000
0100
0010
0100
0001
,
0100
0000
1000
0000
0100
0000
1000
0100
0000
0100
0010
0001
0010
0100
0010
1000
,
0010
0001
0010
0001
1000
0010
1000
0010
0100
0000
0100
0010
0M00
0010
0001
0000
,
1000
0100
0010
0002
0000
0000
1003
0010
0100
0010
1000
0001
0200
0000
0000
0000
,
0310
0100
0010
1000
0200
0000
0310
0001
1000
0100
0010
0100
2000
0000
0000
0000
,
3001
0100
0001
0010
0002
0000
1003
0100
1000
0010
1000
0001
0200
0000
0300
0000
,
1002
0000
0010
0010
0000
0100
1003
0000
,
1001
0000
0001
0100
0010
0100
1000
0100
0010
0100
0001
0100
0010
1000
0100
0010
,
0001
1000
0010
0000
1000
0000
0100
0000
0010
0000
0100
0010
0M00
0010
1000
0000
,
1001
0000
1000
0010
0100
0010
0001
0010
0100
0010
1000
0010
0100
0001
0010
0100
,
1000
0001
0100
0000
0001
0000
0010
0000
0100
0000
0010
0100
00M0
0100
0001
0000
,
1001
0000
1000
0100
0010
0100
0001
0100
0010
0100
1000
0100
0010
0100
0001
0100
,
0010
0001
1000
0000
0010
0000
1000
0000
0001
0000
0100
0010
0M00
0010
0001
0000
,
1001
0000
1000
0010
0100
0010
0001
0010
0100
0010
1000
0010
0100
0010
0001
0010
,
0100
0001
1000
0000
0100
0000
1000
0000
0010
0000
0010
0100
00M0
0100
1000
0000
,
1001
0000
0001
1000
0000
0010
0100
0000
0001
1000
0000
0100
0020
0000
0200
0000
,
0000
0000
0330
0000
;
