#VERSION:0.83;
#TITLE:麻痺;
#SUBTITLE:;
#ARTIST:yama;
#TITLETRANSLIT:Mahi;
#SUBTITLETRANSLIT:;
#ARTISTTRANSLIT:;
#GENRE:;
#ORIGIN:;
#CREDIT:;
#BANNER:Mahi.png;
#BACKGROUND:Mahi-bg.png;
#PREVIEWVID:;
#JACKET:Mahi-jacket.png;
#CDIMAGE:;
#DISCIMAGE:;
#LYRICSPATH:;
#CDTITLE:;
#MUSIC:Mahi.ogg;
#OFFSET:-1.241441;
#SAMPLESTART:51.189751;
#SAMPLELENGTH:19.650002;
#SELECTABLE:YES;
#BPMS:0.000=200.000;
#STOPS:;
#DELAYS:;
#WARPS:;
#TIMESIGNATURES:0.000=4=4;
#TICKCOUNTS:0.000=4;
#COMBOS:0.000=1;
#SPEEDS:0.000=1.000=0.000=0;
#SCROLLS:0.000=1.000;
#FAKES:;
#LABELS:0.000=Song Start;
#BGCHANGES:;
#KEYSOUNDS:;
#ATTACKS:
;

//---------------dance-single - ----------------
#NOTEDATA:;
#CHARTNAME:;
#STEPSTYPE:dance-single;
#DESCRIPTION:;
#CHARTSTYLE:;
#DIFFICULTY:Hard;
#METER:13;
#RADARVALUES:0.555923,0.705233,0.295267,0.439115,0.015142,514.000000,475.000000,39.000000,58.000000,0.000000,0.000000,0.000000,0.000000,0.000000,0.555923,0.705233,0.295267,0.439115,0.015142,514.000000,475.000000,39.000000,58.000000,0.000000,0.000000,0.000000,0.000000,0.000000;
#CREDIT:hdm300;
#NOTES:
// measure 0
0000
0000
0000
0000
,  // measure 1
0000
0000
0000
0000
,  // measure 2
0000
0000
0000
0000
,  // measure 3
0000
0000
0000
0000
,  // measure 4
1000
0000
0000
0200
0000
0000
0300
0000
,  // measure 5
0100
0000
0000
0020
0000
0000
0030
0000
,  // measure 6
0010
0000
0000
0002
0000
0000
0003
0000
,  // measure 7
0001
0000
1000
1000
0000
0001
1000
1000
,  // measure 8
0001
0000
0100
0010
0000
0100
0001
1000
,  // measure 9
0000
0001
0010
0000
0100
0000
0010
0100
,  // measure 10
1000
0000
1100
0000
1001
0000
0000
1010
,  // measure 11
0000
0110
0000
1010
0000
1000
0001
0000
,  // measure 12
1000
0000
0100
0010
0000
0100
1000
0001
,  // measure 13
0000
1000
0010
0000
0100
0000
0010
0100
,  // measure 14
0001
0000
0101
0000
1001
0000
0000
0011
,  // measure 15
0000
0110
0000
0011
0000
0001
1000
1000
,  // measure 16
0002
0000
0203
1000
0000
0000
0302
0000
,  // measure 17
0000
0000
1003
0000
1000
0001
0010
0001
,  // measure 18
1000
0000
0010
0100
0000
0100
0001
0000
,  // measure 19
0000
0000
1000
0000
0000
1000
0001
0000
,  // measure 20
2000
0000
3200
0001
0000
0000
2300
0000
,  // measure 21
0000
0000
3001
0000
0001
1000
0010
1000
,  // measure 22
0001
0000
0010
0100
0000
0100
1000
0000
,  // measure 23
0000
0000
0001
0000
0001
0010
0100
1000
,  // measure 24
0001
0200
2300
3200
,  // measure 25
0302
2003
3200
0302
,  // measure 26
0003
0002
0203
2300
,  // measure 27
3002
0000
0203
0000
1300
0000
1000
0100
,  // measure 28
0001
0020
0230
2300
,  // measure 29
3020
0000
0130
0010
1000
0000
0001
0010
,  // measure 30
0100
0000
1000
0010
0100
0000
0010
1000
,  // measure 31
0001
0000
0010
0100
0000
0010
0100
1000
,  // measure 32
0001
0000
0200
0000
2300
0000
3100
0001
,  // measure 33
1000
0000
0100
0010
0001
0000
1000
0000
,  // measure 34
0000
0002
0203
1000
,  // measure 35
0301
0000
0010
0100
1000
0000
0001
0000
,  // measure 36
1001
0000
0001
1000
0100
0001
0100
1000
,  // measure 37
1000
0001
1000
0001
0100
1000
0100
0001
,  // measure 38
0001
1000
0100
0010
0001
0100
0010
0100
,  // measure 39
0001
0000
0010
0000
0100
0000
1000
0000
0010
0000
0100
0000
0001
0000
0001
1000
,  // measure 40
0001
0000
0000
0000
,  // measure 41
0000
0000
0000
0000
0000
0100
0010
1000
,  // measure 42
1001
0000
1000
0100
0000
0001
0000
0100
,  // measure 43
1000
0000
0100
0010
0000
0010
0001
0200
,  // measure 44
1000
0010
1000
0010
,  // measure 45
0301
0000
0000
0000
0000
0100
0010
1000
,  // measure 46
0001
0000
1000
0100
0000
0001
0000
0100
,  // measure 47
0000
1000
0001
0100
0000
0010
0100
0001
,  // measure 48
1000
0000
0100
0010
0000
0001
0000
0100
,  // measure 49
0010
0000
0000
0000
0000
0000
0000
0100
,  // measure 50
0000
0100
0010
1000
0100
0000
0010
0100
,  // measure 51
0000
1100
0000
1001
0000
1010
0000
0010
,  // measure 52
0100
0010
1000
0100
0010
0000
0010
0001
,  // measure 53
1000
1010
0110
0101
,  // measure 54
1001
0000
0011
0000
0110
0000
0100
1000
,  // measure 55
0000
1001
0000
1010
0000
0110
0000
0100
,  // measure 56
0001
1000
0100
0010
0001
0000
0100
0010
,  // measure 57
0000
0100
0001
0010
0100
1000
0001
0100
,  // measure 58
0020
0000
0200
0330
,  // measure 59
0001
0000
0000
0000
0010
0000
0000
0000
0100
0000
0000
0100
0000
0000
2000
0000
,  // measure 60
0000
0002
0000
0000
0000
0000
0000
0000
0000
0000
0000
0000
3003
0000
0000
0000
,  // measure 61
1000
0000
0010
0000
0100
0001
1000
1000
,  // measure 62
0001
0000
0010
0011
0000
0010
0100
1000
,  // measure 63
0001
0100
0001
1001
0000
1000
0001
0001
,  // measure 64
2000
0000
0010
3020
0000
1030
0010
0010
,  // measure 65
0100
0001
1000
0100
1000
0001
0010
0100
,  // measure 66
2000
0000
0000
0100
0000
0000
3001
0000
,  // measure 67
0200
0000
0000
0001
0000
0000
0010
0000
,  // measure 68
0302
0000
0000
0100
0000
0000
1003
0000
,  // measure 69
0200
0000
0000
1000
0000
0000
0310
0010
,  // measure 70
0002
0000
0000
0010
0000
0000
1003
0000
,  // measure 71
0020
0000
0000
1000
0000
0000
0100
0000
,  // measure 72
2030
0000
0000
0010
0000
0000
3001
0000
,  // measure 73
0020
0000
0000
0001
0000
0130
1000
1000
,  // measure 74
0020
0000
0100
0100
0000
1030
0001
0001
,  // measure 75
0020
0000
0100
0100
0000
0000
0001
0000
,  // measure 76
0230
0000
1000
1000
0000
0310
0001
0001
,  // measure 77
2000
0000
0010
0010
0000
3001
0010
0100
,  // measure 78
2000
0000
0100
0000
0001
0000
3010
0200
,  // measure 79
0001
0010
0301
2000
,  // measure 80
3200
0000
1300
0200
0001
0000
0010
0000
,  // measure 81
2300
0000
0000
0000
0000
0000
0000
0000
3002
0000
0000
0000
1003
0001
2000
0000
,  // measure 82
0000
0000
0000
0000
,  // measure 83
0000
0000
0000
0000
0000
3100
0010
0001
,  // measure 84
1001
0000
0001
0100
0000
1000
0000
0100
,  // measure 85
0001
0000
0100
0010
0000
0010
1000
0200
,  // measure 86
0001
0010
0001
0010
,  // measure 87
1300
0000
0000
0000
0000
0100
0010
0001
,  // measure 88
1000
0000
0001
0100
0000
1000
0000
0100
,  // measure 89
0000
0001
1000
0100
0000
0010
0100
1000
,  // measure 90
0001
0000
0100
0010
0000
1000
0000
0100
,  // measure 91
0010
0000
0000
0000
0000
0000
0000
0100
,  // measure 92
0000
0100
0010
0001
0100
0000
0010
0100
,  // measure 93
0000
0101
0000
1001
0000
0011
0000
0010
,  // measure 94
0100
0010
0001
0100
0010
0000
0010
1000
,  // measure 95
0001
0011
0110
1100
,  // measure 96
1001
0000
1010
0000
0110
0000
0100
0001
,  // measure 97
0000
1001
0000
0011
0000
0110
0000
0100
,  // measure 98
1000
0010
0100
0001
1000
0000
0100
0010
,  // measure 99
0000
0100
1000
0001
0100
0010
1000
0100
,  // measure 100
0010
0000
0001
0100
0010
0000
0100
0001
,  // measure 101
1000
0100
0010
0001
0100
0010
0100
0001
,  // measure 102
1000
0000
0001
0010
0100
1000
0001
0100
,  // measure 103
0020
0000
0030
0000
;

//---------------dance-single - ----------------
#NOTEDATA:;
#CHARTNAME:;
#STEPSTYPE:dance-single;
#DESCRIPTION:;
#CHARTSTYLE:;
#DIFFICULTY:Medium;
#METER:11;
#RADARVALUES:0.378547,0.470155,0.030284,0.711668,0.000000,350.000000,346.000000,4.000000,94.000000,0.000000,0.000000,0.000000,0.000000,0.000000,0.378547,0.470155,0.030284,0.711668,0.000000,350.000000,346.000000,4.000000,94.000000,0.000000,0.000000,0.000000,0.000000,0.000000;
#CREDIT:hdm300;
#NOTES:
0000
0000
0000
0000
,
0000
0000
0000
0000
,
0000
0000
0000
0000
,
0000
0000
0000
0000
,
0001
0000
0000
0200
0000
0000
0300
0000
,
0100
0000
0000
0020
0000
0000
0030
0000
,
0010
0000
0000
2000
0000
0000
3000
0000
,
1000
0000
0001
1000
0000
0001
1000
0001
,
1000
0000
0100
0000
0010
0000
0001
0100
,
0000
0001
0010
0000
0100
0000
1000
0000
,
0001
0000
0100
0000
1000
0000
0000
1000
,
0000
0100
0000
0002
0000
0000
1003
0000
,
0001
0000
0100
0000
0010
0000
1000
0100
,
0000
1000
0010
0000
0100
0000
0001
0000
,
1000
0000
0100
0000
0001
0000
0000
0001
,
0000
0100
0000
2000
0000
0000
3001
1000
,
0002
0000
0000
0203
0000
0000
0310
0000
,
0000
0010
0100
0001
,
1000
0000
0100
0010
0000
0001
1000
0000
,
0000
0001
0000
0001
,
2000
0000
0000
3200
0000
0000
0310
0000
,
0000
0010
0100
1000
,
0001
0000
0100
0010
0000
1000
0001
0000
,
0000
0000
1000
0000
0001
0010
0100
0000
,
1000
0020
0230
0320
,
2030
3200
0320
0230
,
0300
0200
0320
0032
,
0203
0320
0032
0023
,
0130
0002
0023
0230
,
2300
3020
0230
0320
,
2030
0000
3002
0000
,
1003
0000
0100
0010
0000
0001
1000
0000
,
0001
0200
0320
0230
,
0302
0023
0230
0320
,
0030
0020
0032
0010
,
2003
3020
0230
0302
,
1003
0000
0100
0000
0020
0100
0000
0031
,
1000
0000
0010
0000
0200
0010
0000
0301
,
1000
0200
0320
0032
,
2003
3020
0230
0000
,
0300
0000
0000
0000
,
0000
0000
0000
0000
0000
0100
0001
0000
,
1001
0000
1000
0100
0000
0010
0000
0010
,
0001
0000
0001
1000
0000
0001
0100
0000
,
0200
0310
0200
1000
,
0310
0000
0000
0000
0000
0100
0001
0000
,
1001
0000
1000
0100
0000
0010
0000
0001
,
0000
0001
1000
0001
0000
0001
0100
0000
,
0010
0000
0100
0001
0000
1000
0000
0100
,
0010
0000
0000
0000
,
0002
0010
1000
0203
,
1000
0001
1000
0301
,
2000
0010
0001
3100
,
0020
0100
0130
0000
,
2000
0010
0001
3200
,
0001
1000
0001
1300
,
0002
0010
1000
0103
,
0010
0000
0100
0000
0001
1000
0001
0000
,
2000
0000
3200
0000
,
0310
0001
1000
1000
,
0001
0000
0000
0100
0000
0000
0010
0000
,
0100
0000
0010
0000
1000
0000
0001
1000
,
0001
0000
0010
0100
0000
1000
0010
0000
,
0100
0000
0010
1000
0000
0100
0010
0000
,
0002
0000
0000
2003
0000
0000
3001
0000
,
1000
0010
0100
0001
,
2000
0000
3000
1000
,
0200
0000
0300
0100
,
0002
0000
0003
0001
,
0020
0000
0030
0010
,
2000
0000
3000
1000
,
0200
0000
0300
0100
,
0020
0000
0000
0000
,
0200
0000
0330
0000
,
0002
0000
0003
0001
,
0200
0000
0300
0100
,
2000
0000
3000
1000
,
0020
0000
0030
0010
,
0002
0000
0003
0001
,
0200
0000
0300
0100
,
0020
0000
0230
0000
,
0302
0000
0020
0000
,
0033
0000
0000
0000
,
0000
0000
0000
0000
0000
0100
1000
0000
,
1001
0000
0001
0100
0000
0010
0000
0010
,
1000
0000
1000
0001
0000
1000
0100
0000
,
0200
0310
0200
0001
,
0310
0000
0000
0000
0000
0100
1000
0000
,
1001
0000
0001
0100
0000
0010
0000
1000
,
0000
1000
0001
1000
0000
1000
0100
0000
,
0010
0000
0100
1000
0000
0001
0000
0100
,
0010
0000
0000
0000
,
2000
0010
0001
3200
,
0001
1000
0001
1300
,
0002
0010
1000
0103
,
0020
0100
0130
0000
,
0002
0010
1000
0203
,
1000
0001
1000
0301
,
2000
0010
0001
3100
,
0010
0000
0100
0000
1000
0001
1000
0000
,
0001
0000
0000
0001
0100
0000
0000
0001
,
1000
0001
0010
0000
0100
0000
1000
0001
,
1000
0000
0000
1000
0010
0000
1000
0001
,
2000
0000
3000
0000
;

//---------------dance-single - ----------------
#NOTEDATA:;
#CHARTNAME:;
#STEPSTYPE:dance-single;
#DESCRIPTION:;
#CHARTSTYLE:;
#DIFFICULTY:Easy;
#METER:8;
#RADARVALUES:0.264983,0.350913,0.000000,0.635959,0.000000,245.000000,245.000000,0.000000,84.000000,0.000000,0.000000,0.000000,0.000000,0.000000,0.264983,0.350913,0.000000,0.635959,0.000000,245.000000,245.000000,0.000000,84.000000,0.000000,0.000000,0.000000,0.000000,0.000000;
#CREDIT:hdm300;
#NOTES:
0000
0000
0000
0000
,
0000
0000
0000
0000
,
0000
0000
0000
0000
,
0000
0000
0000
0000
,
1000
0000
0000
2000
0000
0000
0000
0000
,
3001
0000
0000
0002
0000
0000
0000
0000
,
1003
0000
0000
2000
0000
0000
0000
0000
,
3001
0000
0000
1000
0000
0000
0001
0000
,
0001
0000
0010
0000
,
0100
0010
0001
0000
,
1000
0000
0010
0000
,
0100
0010
1000
0001
,
1000
0000
0010
0000
,
0100
0010
1000
0000
,
0001
0000
0010
0000
,
0100
0010
0001
1000
,
0001
0000
0000
0100
0000
0000
0020
0000
,
0000
0100
0000
0130
,
0000
0010
0000
1000
,
0000
0001
0000
1000
,
1000
0000
0000
0100
0000
0000
0020
0000
,
0000
0100
0000
0130
,
0000
0010
0000
0001
,
0000
1000
0000
0001
,
0001
0200
0320
0230
,
0320
0230
0320
0230
,
0300
0200
0302
0203
,
0302
0203
0302
0203
,
0300
0002
2003
3002
,
2003
3002
2003
3000
,
0200
0000
0020
0000
,
0330
0000
0000
0000
,
0000
0200
0320
0230
,
0320
0230
0320
0230
,
0300
0200
2300
0000
,
3002
2003
3002
2003
,
3002
0000
0000
0000
0000
0010
0000
0000
,
2003
0000
0000
0000
0000
0010
0000
0000
,
3001
2000
3200
0320
,
0032
2003
3002
0000
,
0003
0000
0000
0000
,
0000
0000
0000
0001
,
1000
0000
0000
1000
0000
0000
0010
0000
,
0100
0000
0000
0100
0000
0000
0001
0000
,
0020
0230
0320
0230
,
0320
0030
0000
0010
,
0001
0000
0000
0001
0000
0000
0100
0000
,
0010
0000
0000
0010
0000
0000
1000
0000
,
0001
0000
0000
0010
0000
0000
0001
0000
,
2000
0000
3000
0000
,
0010
1000
0010
0000
,
1000
0001
1000
0000
,
0100
1000
0100
0010
,
0200
0010
0310
0000
,
0010
0001
0010
0000
,
0001
1000
0001
0000
,
0100
0001
0100
0010
,
0200
0010
0310
0000
,
0200
0000
0002
0303
,
1000
0000
0000
1000
0000
0000
0000
0000
,
0010
0000
0000
0010
0000
0000
0000
0000
,
0100
0010
0100
0000
,
0010
0000
0000
1000
0000
0000
0100
0000
,
0010
0000
0000
0010
0000
0000
0000
0000
,
0100
0000
0000
1000
0000
0000
0001
0000
,
0100
0001
1000
0010
,
0200
0000
0000
0000
,
0302
0000
0003
0000
,
2000
0000
0000
0000
,
3200
0000
0300
0000
,
0020
0000
0000
0000
,
0230
0000
0300
0000
,
2000
0000
0000
0000
,
0002
0000
0000
3003
,
0002
0000
0000
0100
,
0203
0000
0300
0010
,
0020
0000
0000
1030
,
2000
0000
3000
0001
,
0002
0000
0000
0000
,
0023
0000
0030
0000
,
0200
0000
2300
0000
,
3020
0000
0200
0000
,
0330
0000
0000
0000
,
0000
0000
0000
0001
,
1000
0000
0000
1000
0000
0000
0010
0000
,
0100
0000
0000
0100
0000
0000
0001
0000
,
0020
0230
0320
0230
,
0320
0030
0000
0010
,
0001
0000
0000
0001
0000
0000
0100
0000
,
0010
0000
0000
0010
0000
0000
1000
0000
,
0001
0000
0000
0010
0000
0000
0001
0000
,
2000
0000
3000
0000
,
0010
1000
0010
0000
,
1000
0001
1000
0000
,
0100
1000
0100
0010
,
0200
0010
0310
0000
,
0010
0001
0010
0000
,
0001
1000
0001
0000
,
0100
0001
0100
0010
,
0200
0000
0300
0000
,
0001
0000
1000
0000
,
0001
0010
0001
0010
,
0100
0000
0100
1000
,
0001
0000
0000
0000
;

//---------------dance-single - ----------------
#NOTEDATA:;
#CHARTNAME:;
#STEPSTYPE:dance-single;
#DESCRIPTION:;
#CHARTSTYLE:;
#DIFFICULTY:Beginner;
#METER:5;
#RADARVALUES:0.160071,0.194952,0.000000,0.166561,0.000000,148.000000,148.000000,0.000000,22.000000,0.000000,0.000000,0.000000,0.000000,0.000000,0.160071,0.194952,0.000000,0.166561,0.000000,148.000000,148.000000,0.000000,22.000000,0.000000,0.000000,0.000000,0.000000,0.000000;
#CREDIT:hdm300;
#NOTES:
0000
0000
0000
0000
,
0000
0000
0000
0000
,
0000
0000
0000
0000
,
0000
0000
0000
0000
,
1000
0000
0000
0000
,
0010
0000
0000
0000
,
0100
0000
0000
0000
,
0002
0003
0000
0000
,
0000
1000
0000
1000
,
0000
1000
0000
1000
,
1000
0000
0100
0000
,
0010
0000
0001
0000
,
0000
1000
0000
1000
,
0000
1000
0000
1000
,
1000
0000
0010
0000
,
0100
0000
0001
0000
,
1000
0000
0000
0002
,
0000
0000
0000
0003
,
0000
0010
0000
0010
,
0000
0010
0000
0000
,
0001
0000
0000
2000
,
0000
0000
0000
3000
,
0000
0010
0000
0010
,
0000
0010
0000
0000
,
1000
0000
0001
0000
,
0010
0000
0100
0100
,
0000
0000
1000
0000
,
0100
0000
0010
0000
,
0001
0000
0100
0000
,
1000
0000
0100
0000
,
0001
0000
2000
0000
,
3000
0000
0000
0000
,
0001
0000
1000
0000
,
0010
0000
0100
0100
,
0000
0000
0001
0000
,
0100
0000
0010
0000
,
1000
0000
0000
0000
,
0001
0000
0000
0000
,
1000
0000
0001
0000
,
1000
0001
2000
0000
,
3000
0000
0000
0000
,
0000
0000
0000
0000
,
0001
0000
0010
0000
,
0100
0000
1000
0000
,
0001
0000
0001
0000
,
0001
0000
0000
0000
,
1000
0000
0010
0000
,
0100
0000
0001
0000
,
1000
0000
0100
0000
,
0010
0000
0000
0000
,
0100
0000
0100
0000
,
1000
0000
1000
0000
,
0001
0000
0001
0000
,
0100
0000
0000
0000
,
0010
0000
0010
0000
,
0100
0000
0100
0000
,
0001
0000
0001
0000
,
2000
0000
3000
0000
,
0002
0000
0000
0000
,
0000
0000
0003
0000
,
0020
0000
0030
0000
,
0001
0000
0001
0000
,
1000
0000
0000
0000
,
0001
0000
0000
0000
,
0100
0000
0010
0000
,
0100
0000
0000
0000
,
0002
0000
0003
0000
,
0020
0000
0030
0000
,
0200
0000
0300
0000
,
2000
0000
3000
0000
,
0020
0000
0030
0000
,
0200
0000
0300
0000
,
0002
0000
0000
0000
,
0000
0000
0003
0000
,
2000
0000
3000
0000
,
0200
0000
0300
0000
,
0020
0000
0030
0000
,
0002
0000
0003
0000
,
0200
0000
0300
0000
,
0020
0000
0030
0000
,
0100
0000
0001
0000
,
1000
0000
0002
0000
,
0003
0000
0000
0000
,
0000
0000
0000
0000
,
1000
0000
0010
0000
,
0100
0000
0001
0000
,
1000
0000
1000
0000
,
1000
0000
0000
0000
,
0001
0000
0010
0000
,
0100
0000
1000
0000
,
0001
0000
0100
0000
,
0010
0000
0000
0000
,
0100
0000
0100
0000
,
0001
0000
0001
0000
,
1000
0000
1000
0000
,
0100
0000
0000
0000
,
0010
0000
0010
0000
,
0100
0000
0100
0000
,
1000
0000
1000
0000
,
0001
0000
0000
0000
,
1000
0000
1000
0000
,
0010
0000
0100
0000
,
0001
0000
0010
0000
,
0100
0000
0000
0000
;
