#TITLE:MUSIC TO YOUR HEAD;
#SUBTITLE:;
#ARTIST:SLAKE;
#TITLETRANSLIT:;
#SUBTITLETRANSLIT:;
#ARTISTTRANSLIT:;
#GENRE:;
#CREDIT:;
#BANNER:;
#BACKGROUND:;
#LYRICSPATH:;
#CDTITLE:;
#MUSIC:MUSIC TO YOUR HEAD.ogg;
#OFFSET:-0.200000;
#SAMPLESTART:99.842743;
#SAMPLELENGTH:12.000000;
#SELECTABLE:YES;
#BPMS:0.000000=144.000000
;
#STOPS:34.000000=1.250000
;
#BGCHANGES:;
#KEYSOUNDS:;
#ATTACKS:;

//---------------dance-single - ----------------
#NOTES:
     dance-single:
     :
     Hard:
     16:
     0.767428,0.897808,0.074267,0.503367,0.903585,651.000000,642.000000,9.000000,61.000000,0.000000,0.000000,0.767428,0.897808,0.074267,0.503367,0.903585,651.000000,642.000000,9.000000,61.000000,0.000000,0.000000:
0000
0000
0000
0000
,
0000
0000
0000
0000
,
0000
0000
0000
0000
,
0000
0000
0000
0000
,
0000
0000
0000
0000
0000
0000
0000
0000
1000
0000
0001
0100
0001
0000
0000
0000
,
1000
0000
0001
0010
0001
0000
0000
0000
0001
0000
1000
0100
1000
0000
0000
0000
,
0001
0000
1000
0010
0000
0000
1000
0000
0010
0000
1000
0001
0010
0000
0001
0000
,
0010
0000
0001
1000
0010
0000
1000
0000
0010
0000
0100
0001
0100
0000
0010
0000
,
0100
0000
1000
0000
0100
0000
0001
0000
0200
0300
0000
0000
0010
0000
1000
0000
,
0100
0000
0010
0000
0000
0000
0011
0000
0000
1001
0000
0000
1100
0000
1000
0000
,
0010
0100
0000
0100
0010
0000
1000
0000
0001
0100
0000
0100
0001
0000
1000
0000
,
0010
0100
0000
0100
0010
0000
1000
0000
0100
1000
0000
0100
0010
0000
0001
0000
,
0100
0010
0000
0010
0100
0000
0001
0000
1000
0100
0000
0100
1000
0000
0001
0000
,
0010
0100
0000
0100
0010
0000
0001
0000
0100
0001
0000
0001
0100
0000
0010
0000
,
1000
0100
0000
0010
0100
0000
1000
0000
0001
0100
0000
0010
0100
0000
0001
0000
,
0100
0010
0000
0100
0001
0000
0010
0000
0100
1000
0000
0100
0010
0000
0001
0000
,
0001
0100
0000
0010
0100
0000
0001
0000
1000
0001
0000
0010
0001
0000
0100
0000
,
0010
0100
0000
0010
1000
0000
0001
0000
1000
0100
0000
1000
0001
0000
0100
0000
,
0010
1000
0010
1000
0100
0000
0010
0000
0001
0100
0000
0100
0001
0000
0010
0000
,
0100
0010
0100
0010
0100
0000
1000
0000
0001
1000
0000
1000
0001
0000
0100
0000
,
0010
1000
0010
1000
0010
0000
0100
0000
0001
0010
0000
0010
0100
0000
1000
0000
,
0001
0010
0001
0010
0001
0000
0100
0000
0010
1000
0000
0100
0010
0000
0001
0000
,
1000
0010
0100
0010
1000
0000
0001
0000
0100
0010
0000
1000
0001
0000
0100
0000
,
0001
0100
0010
0100
0001
0000
1000
0000
0100
0010
0000
0001
1000
0000
0100
0000
,
0010
0100
1000
0001
1000
0000
0010
0000
0100
0001
0000
0001
0100
0000
0010
0000
,
1000
0010
0100
0001
0100
0000
0001
0000
0010
0100
1000
0010
0200
0000
0000
0000
,
0001
0320
1000
0230
,
0001
0320
1000
0230
,
0001
0000
0320
0000
1000
0030
0200
0301
,
0200
0310
0200
1300
0200
0301
0020
0130
,
0020
1030
0020
0130
0020
0031
0200
1300
,
0200
0301
0020
1030
0020
0031
1000
0010
,
2000
0000
0000
0000
0000
0000
3001
0000
0000
0000
0000
0000
0000
0000
0000
0000
0000
0000
0101
0000
0000
0000
0000
0000
0000
0000
0000
1010
0000
0000
0000
0000
0000
0000
0102
0000
0000
0000
0000
0000
0000
0000
0000
0000
0000
0000
0000
0000
,
0000
0000
0000
0000
0003
0000
1000
0000
0100
1000
0010
0100
0001
0000
1000
0000
,
0001
0100
0010
0100
1000
0000
0100
0000
0010
1000
0000
1000
0010
0000
1000
0000
,
0100
0010
0100
0001
0100
0000
1000
0000
0001
0100
0000
0100
0010
0000
1000
0000
,
0010
0100
0010
0001
0010
0000
1000
0000
0001
0100
0000
0001
0010
0000
0100
0000
,
0010
1000
0010
0100
0010
0000
0001
0000
0100
0010
0000
0010
1000
0000
0001
0000
,
0010
1000
0010
0001
0100
0000
0001
0000
1000
0010
0000
0010
0100
0000
1000
0000
,
0100
0001
0100
1000
0100
0000
0010
0000
1000
0100
0000
0100
0010
0000
0001
0000
,
0100
0001
0100
1000
0100
0000
0010
0000
1000
0001
0000
0001
0010
0000
1000
0000
,
0010
0001
0100
0010
0100
0000
0001
0000
0010
1000
0010
0100
2000
0000
0000
0000
,
0000
0000
0000
0000
3000
0000
0000
0000
0000
0000
0000
0000
0001
0010
0001
0010
,
0001
0100
0001
0100
0010
1000
0010
1000
0100
1000
0100
1000
0001
0100
0001
0100
,
0010
1000
0010
1000
0100
0010
0001
0100
0000
0000
0000
0000
0010
1000
0010
1000
,
0100
1000
0100
1000
0001
0010
0001
0010
0001
0100
0001
0100
0001
0010
0001
0010
,
0100
1000
0100
1000
0001
0100
0010
1000
0000
0000
0000
0000
0010
0100
0010
0100
,
0001
1000
0001
1000
0100
0010
0100
0010
0001
1000
0001
1000
0010
0100
0001
1000
,
0010
0100
0001
1000
0100
0010
0001
0100
0000
0000
0000
0000
0001
1000
0001
1000
,
0010
0100
0010
0100
0001
1000
0001
1000
0100
0010
0100
0010
0001
0100
0010
1000
,
0001
0100
0010
1000
0001
0010
0100
1000
0000
0000
0000
0000
0001
0100
0001
0000
,
1000
0010
1000
0000
0002
0000
0203
0000
0320
0000
1030
0000
0100
1000
0100
0000
,
0010
0001
0010
0000
0200
0000
2300
0000
3002
0000
0103
0000
0010
1000
0010
0000
,
0100
0001
0100
0000
0020
0000
2030
0000
3002
0000
0103
0000
0010
1000
0010
0000
,
0100
0001
0100
0000
0002
0000
2003
0000
3020
0000
0130
0000
0001
1000
0100
0000
,
0010
0001
0100
0000
0020
0000
0032
0000
0023
0000
1030
0000
0100
1000
0100
0000
,
0010
0001
0010
0000
0200
0000
0302
0000
0203
0000
1300
0000
0010
0100
0010
0000
,
1000
0010
1000
0000
0002
0000
0023
0000
2030
0000
3010
0000
0001
0100
0001
0000
,
1000
0010
1000
0000
0002
0000
0203
0000
2300
0000
3100
0000
0001
0100
0010
1000
,
0001
0010
0100
1000
0002
0000
0023
0000
2030
0000
3001
0000
0100
1000
0100
1000
,
0010
0100
0010
0100
0002
0000
0203
0000
2300
0000
3001
0000
0010
1000
0010
1000
,
0100
0010
0100
0010
2000
0000
3002
0000
0203
0000
1300
0000
0010
0100
0010
0100
,
0001
0000
0000
1000
0000
0000
0001
0000
0000
1000
0000
0000
0020
0000
0000
0000
0000
0000
0032
0000
0000
0000
0000
0000
2003
0000
0000
0000
0000
0000
3100
0000
0000
0000
0000
0000
0010
0000
0000
0000
0010
0000
1000
0000
0000
0000
1000
0000
,
0010
0000
0000
0000
0010
0000
1000
0000
0000
0000
1000
0000
0100
0000
0000
0010
0000
0000
0100
0000
0000
0010
0000
0000
0001
0000
0000
1000
0000
0000
0001
0000
0000
0000
0000
0000
0100
0000
0000
0000
0100
0000
0001
0000
0000
0000
0001
0000
,
0100
0000
0000
0000
0100
0000
0001
0000
0000
0000
0001
0000
0010
0000
0000
0100
0000
0000
0010
0000
0000
0100
0000
0000
1000
0000
0000
0010
0000
0000
1000
0000
0000
0000
0000
0000
0001
0000
0000
0000
0001
0000
1000
0000
0000
0000
1000
0000
,
0010
0000
0000
0000
0010
0000
0100
0000
0000
0000
0100
0000
0001
0000
0000
0010
0000
0000
0001
0000
0000
0010
0000
0000
0100
0000
0000
1000
0000
0000
0100
0000
0000
1000
0000
0000
0010
0000
0000
0000
0000
0000
0100
0000
0000
0000
0000
0000
,
0002
0000
1003
0000
0000
0000
0110
0000
0000
1001
0000
0000
0220
0000
0000
0000
,
0000
0000
0000
0000
,
0330
0000
0000
0000
;

//---------------dance-single - ----------------
#NOTES:
     dance-single:
     :
     Medium:
     12:
     0.482148,0.559067,0.008252,0.156786,0.342454,409.000000,408.000000,1.000000,19.000000,0.000000,0.000000,0.482148,0.559067,0.008252,0.156786,0.342454,409.000000,408.000000,1.000000,19.000000,0.000000,0.000000:
0000
0000
0000
0000
,
0000
0000
0000
0000
,
0000
0000
0000
0000
,
0000
0000
0000
0000
,
0000
0000
0000
0000
0000
0000
0000
0000
1000
0000
0000
0010
0100
0000
0000
0000
,
0001
0000
0000
0100
0010
0000
0000
0000
1000
0000
0000
0100
0010
0000
0000
0000
,
0001
0000
0100
0010
0000
0000
1000
0000
0020
0000
0030
0000
0020
0000
0030
0000
,
2000
3000
2000
3000
0002
0003
0002
0003
,
0200
0000
0300
0000
0200
0000
0300
0000
0020
0030
0000
0000
0000
0000
0000
0000
,
0000
0000
0000
0000
0000
0000
1000
0010
,
0100
0000
0000
0100
0000
0000
0001
0000
0010
0000
0000
0100
0000
0000
1000
0000
,
0010
0000
0000
0010
0000
0000
1000
0000
0001
0000
0000
0100
0000
0000
0010
0000
,
1000
0000
0000
1000
0000
0000
0100
0000
1000
0000
0000
0001
0000
0000
0001
0000
,
0010
0000
0000
0010
0000
0000
0001
0000
0100
0000
0000
0010
0000
0000
1000
0000
,
0100
0000
0000
0010
0000
0000
0001
0000
1000
0000
0000
0010
0000
0000
0100
0000
,
0001
0000
0000
1000
0000
0000
0001
0000
0100
0000
0000
0010
0000
0000
1000
0000
,
0100
0000
0000
1000
0000
0000
0001
0000
0100
0000
0000
0010
0000
0000
1000
0000
,
0001
0000
0000
0010
0000
0000
0001
0000
1000
0000
0000
0010
0100
0000
0001
0000
,
0100
0000
0000
0010
0000
0000
1000
0000
0100
0000
0000
1000
0010
0000
0100
0000
,
0001
0000
0000
0100
0000
0000
0010
0000
1000
0000
0000
0001
1000
0000
0100
0000
,
1000
0000
0000
0010
0000
0000
0100
0000
0001
0000
0000
1000
0010
0000
0100
0000
,
0001
0000
0000
1000
0000
0000
0100
0000
0010
0000
0000
0001
1000
0000
0001
0000
,
0100
0000
0010
1000
0000
0000
0100
0000
1000
0010
0000
0100
0000
0000
0001
0000
,
0010
0000
0001
0100
0000
0000
0010
0000
0100
0000
0001
1000
0000
0000
0100
0000
,
0010
0000
0001
1000
0000
0000
0010
0000
1000
0000
0100
0010
0000
0000
0001
0000
,
0100
0000
0010
1000
0000
0000
0001
0000
1000
0001
0000
0100
0020
0000
0000
0000
,
0000
2030
0000
3002
,
0000
0203
0000
0320
,
0000
2030
0000
3100
,
0100
0010
0010
0001
,
0001
1000
1000
0010
,
0010
0000
0100
0000
0100
0000
0001
1000
,
0001
0000
0000
0000
0000
0000
0100
0000
0000
0000
0000
0000
0000
0000
0000
0000
0000
0000
0010
0000
0000
0000
0000
0000
0000
0000
0000
0010
0000
0000
0000
0000
0000
0000
0200
0000
0000
0000
0000
0000
0000
0000
0000
0000
0000
0000
0000
0000
,
0000
0000
0020
0000
0330
0000
0100
0001
,
0100
0010
0000
0100
0010
0000
0100
0000
0001
0000
0000
0010
0000
0000
0100
0000
,
1000
0010
0000
1000
0010
0000
0100
0000
0001
0000
0000
1000
0000
0000
0001
0000
,
1000
0010
0000
1000
0010
0000
0100
0000
0001
0000
0000
0010
0000
0000
0100
0000
,
1000
0100
0000
1000
0100
0000
0010
0000
0001
0000
0000
0100
0000
0000
0010
0000
,
1000
0010
0000
1000
0010
0000
0100
0000
0001
0010
0000
0001
0000
0000
0100
0000
,
0010
1000
0000
0100
1000
0000
0001
0000
0100
0001
0000
0010
0000
0000
0001
0000
,
1000
0100
0000
1000
0100
0000
0010
0000
0100
0010
0000
0001
0000
0000
0100
0000
,
0010
0100
0000
0010
0100
0000
0001
0000
1000
0001
0000
1000
0000
0000
0000
0000
,
0000
0000
0000
0000
0000
0000
1000
0100
,
1000
0100
0010
0001
0010
0001
1000
0010
,
0100
0000
0001
0000
1000
0001
0000
1000
0000
0000
0000
0000
0010
0000
0100
0000
,
0010
0100
0001
1000
0001
1000
0100
0010
,
0001
0000
0100
0000
0010
1000
0000
0010
0000
0000
0000
0000
0100
0000
0001
0000
,
0100
0001
1000
0100
1000
0100
0010
0001
,
0100
0000
0010
0000
1000
0001
0000
1000
0000
0000
0000
0000
1000
0000
0010
0000
,
1000
0010
0100
0001
0100
0001
0010
0100
,
1000
0000
0010
0000
1000
0001
0000
1000
0000
0000
0000
0000
1000
0000
0010
0000
,
0100
0001
1000
0100
1000
0000
0001
0100
,
0010
1000
0001
0010
0001
0000
1000
0100
,
0010
0001
1000
0010
1000
0000
0001
0010
,
0100
1000
0001
0010
0001
0000
1000
0100
,
0010
0001
0100
1000
0100
0000
0001
1000
,
0100
0010
0001
0010
1000
0000
0010
0001
,
1000
0010
0100
0010
0001
0000
0010
1000
,
0001
0100
1000
0100
0001
0000
1000
0010
,
1000
0100
0001
0100
1000
0010
1000
0001
,
0100
0010
0001
0010
1000
0100
0010
0001
,
0100
0010
1000
0010
0100
1000
0100
0001
,
1000
0000
0100
0000
0010
0000
0001
0000
0010
0000
1000
0000
0010
0000
0001
0100
,
0001
0000
1000
0010
1000
0000
0100
0000
1000
0000
0000
0000
0001
0000
1000
0010
,
1000
0000
0001
0100
0001
0000
0010
0000
0100
0000
0000
0000
0010
0000
0001
1000
,
0001
0000
0100
0010
0100
0000
0001
0000
1000
0000
0000
0000
0100
0000
0000
0000
,
0010
0000
0001
0000
0000
0000
1000
0000
0000
0010
0000
0000
0220
0000
0000
0000
,
0000
0000
0000
0330
;

//---------------dance-single - ----------------
#NOTES:
     dance-single:
     :
     Easy:
     9:
     0.384303,0.419300,0.033008,0.132031,0.173290,326.000000,322.000000,4.000000,16.000000,0.000000,0.000000,0.384303,0.419300,0.033008,0.132031,0.173290,326.000000,322.000000,4.000000,16.000000,0.000000,0.000000:
// measure 0
0000
0000
0000
0000
,  // measure 1
0000
0000
0000
0000
,  // measure 2
0000
0000
0000
0000
,  // measure 3
0000
0000
0000
0000
,  // measure 4
0000
0000
0000
0000
1000
0100
0000
0000
,  // measure 5
0001
0100
0000
0000
1000
0010
0000
0000
,  // measure 6
0001
0010
0000
0000
1000
0000
1000
0000
,  // measure 7
0001
0001
0100
0100
,  // measure 8
0010
0010
0000
0100
,  // measure 9
0001
0000
1000
0000
0000
0000
0100
0000
0000
0100
0000
0000
0010
0000
0000
0000
,  // measure 10
0001
0000
1000
0000
0000
0000
0100
0000
0010
0000
0000
0100
0000
0000
1000
0000
,  // measure 11
0001
0000
1000
0000
0000
0000
0001
0000
0100
0000
0000
0010
0000
0000
1000
0000
,  // measure 12
0100
0000
1000
0000
0000
0000
0001
0000
0100
0000
0000
0010
0000
0000
0100
0000
,  // measure 13
0001
0000
0010
0000
0000
0000
0001
0000
1000
0000
0000
0100
0000
0000
1000
0000
,  // measure 14
0010
0000
0000
0100
0000
0000
0001
0000
1000
0000
0010
0000
0000
0000
0100
0000
,  // measure 15
0001
0000
0000
1000
0000
0000
0010
0000
0100
0000
0010
0000
0000
0000
1000
0000
,  // measure 16
0001
0000
0000
0100
0000
0000
0010
0000
1000
0000
0001
0000
0000
0000
0100
0000
,  // measure 17
0010
0000
0000
0100
0000
0000
0001
0000
1000
0000
0100
0000
0010
0000
0001
0000
,  // measure 18
0010
0000
0000
0100
0000
0000
1000
0000
0010
0000
0000
1000
0000
0000
0001
0000
,  // measure 19
0010
0000
0000
0001
0000
0000
1000
0000
0100
0000
0000
1000
0000
0000
0010
0000
,  // measure 20
0001
0000
0000
0010
0000
0000
0100
0000
1000
0000
0000
0100
0000
0000
0001
0000
,  // measure 21
0010
0000
0000
0001
0000
0000
1000
0000
0100
0000
0000
1000
0000
0000
0010
0000
,  // measure 22
0100
0000
0000
0001
0000
0000
0010
0000
0100
0000
0000
1000
0000
0000
0010
0000
,  // measure 23
0100
0000
0000
0001
0000
0000
1000
0000
0100
0000
0000
0010
0000
0000
0001
0000
,  // measure 24
0100
0000
0000
0010
0000
0000
1000
0000
0100
0000
0000
1000
0000
0000
0001
0000
,  // measure 25
0100
0000
0000
0010
0000
0000
0100
0000
0001
0000
0000
0010
0200
0000
0000
0000
,  // measure 26
0000
0000
0000
0320
,  // measure 27
0000
0000
0000
0032
,  // measure 28
0000
0000
0003
1001
,  // measure 29
1000
0010
0010
0100
,  // measure 30
0100
0001
0001
0010
,  // measure 31
0010
0100
0100
1000
,  // measure 32
0001
0000
1000
0000
0000
0000
0100
0000
0000
0100
0000
0000
0200
0000
0000
0000
,  // measure 33
0000
0000
0300
0110
,  // measure 34
0010
0000
1000
0000
0000
0000
0001
0000
0100
0010
0000
0100
0000
0000
0000
0000
,  // measure 35
0001
0000
1000
0000
0000
0000
0100
0000
0010
0001
0000
0010
0000
0000
0000
0000
,  // measure 36
0001
0000
1000
0000
0000
0000
0010
0000
0100
0010
0000
0100
0000
0000
0000
0000
,  // measure 37
0010
0000
1000
0000
0000
0000
0100
0000
0010
0000
0000
0001
0100
0000
0000
0000
,  // measure 38
0010
0000
1000
0000
0000
0000
0001
0000
0010
0100
0000
0010
0100
0000
0000
0000
,  // measure 39
1000
0000
0001
0000
0000
0000
1000
0000
0001
0100
0000
0001
0100
0000
0000
0000
,  // measure 40
0010
0000
1000
0000
0000
0000
0100
0000
1000
0100
0000
1000
0100
0000
0000
0000
,  // measure 41
0010
0000
0001
0000
0000
0000
1000
0000
0010
0100
0000
0001
1000
0000
0000
0000
,  // measure 42
0000
0000
0000
0000
0000
0000
1000
0100
,  // measure 43
1000
0000
0001
0100
0001
0000
0010
0000
,  // measure 44
0100
0000
1000
0001
0000
0000
1000
0010
,  // measure 45
1000
0000
0001
0010
0001
0000
0100
0000
,  // measure 46
0010
0000
1000
0100
0000
0000
1000
0010
,  // measure 47
1000
0000
0001
0100
0001
0000
0010
0000
,  // measure 48
0100
0000
1000
0001
0000
0000
1000
0001
,  // measure 49
0100
0000
0001
1000
0100
0000
0010
0000
,  // measure 50
0001
0000
0100
0010
0000
0000
1000
0000
,  // measure 51
0100
0000
1000
0100
1000
0100
0010
0000
,  // measure 52
0001
0000
0010
0001
0010
0001
0100
0000
,  // measure 53
0010
0000
1000
0010
1000
0010
0100
0000
,  // measure 54
0001
0000
1000
0001
1000
0001
0100
0000
,  // measure 55
0010
0000
1000
0001
0010
0100
1000
0000
,  // measure 56
0001
0000
1000
0010
0100
0001
1000
0000
,  // measure 57
0001
0000
0010
0100
0010
0001
0100
0000
,  // measure 58
0010
0000
1000
0010
0100
0010
1000
0100
,  // measure 59
1000
0001
0100
0000
0010
0000
1000
0001
,  // measure 60
0010
0001
0100
0000
0010
0000
1000
0100
,  // measure 61
0010
0100
0010
0000
0001
0000
0100
0001
,  // measure 62
0100
0010
0100
0000
0001
0000
0020
0000
,  // measure 63
0230
2300
3001
0002
,  // measure 64
2003
3020
0130
0200
,  // measure 65
0320
2030
3002
0013
,  // measure 66
0100
0000
1000
0000
0000
0000
1010
0000
0000
0010
0000
0000
0202
0000
0000
0000
,  // measure 67
0000
0000
0000
0303
;
