#TITLE:MOVE ME BABY;
#SUBTITLE:;
#ARTIST:E-ROTIC;
#TITLETRANSLIT:;
#SUBTITLETRANSLIT:;
#ARTISTTRANSLIT:;
#GENRE:;
#CREDIT:;
#MUSIC:Move Me Baby.ogg;
#BANNER:Move Me Baby-bn.png;
#BACKGROUND:Move Me Baby-bg.png;
#CDTITLE:cdtitle.png;
#SAMPLESTART:84.222;
#SAMPLELENGTH:12.247;
#SELECTABLE:YES;
#OFFSET:-0.127;
#BPMS:0.000=146.976;
#STOPS:;
#DISPLAYBPM:146.976;
#ORIGIN:;
#PREVIEWVID:;
#JACKET:Move Me Baby-jacket.png;
#CDIMAGE:;
#DISCIMAGE:;
#BGCHANGES:;
#FGCHANGES:;

//--------------- dance-single - Highflyer ----------------
#NOTES:
     dance-single:
     Highflyer:
     Beginner:
     2:
     0.12825,0.207654,0.062452,0,0,115,107,8,0,0,0,0,0,0,0.12825,0.207654,0.062452,0,0,115,107,8,0,0,0,0,0,0:
0000
0000
0000
0000
,
0000
0000
0000
0000
,
1000
0000
0000
0000
,
0010
0000
0000
0000
,
0100
0000
0000
0000
,
0010
0000
0000
0000
,
1000
0000
0000
0000
,
0001
0000
0000
0000
,
0010
0000
0000
0000
,
0010
0000
0000
0000
,
0100
0000
0000
0000
,
0100
0100
0100
0000
,
1000
0000
0000
0000
,
1000
1000
1000
0000
,
1001
0000
0000
0000
,
1001
0000
0000
0000
,
0001
0000
0000
0000
,
1000
0000
0000
0000
,
0010
0000
0010
0000
,
0010
0000
0000
0000
,
0100
0000
0100
0000
,
0100
0000
0000
0000
,
0001
0000
0001
0000
,
0001
0000
0000
0000
,
1000
0000
1000
0000
,
1000
0000
0000
0000
,
0100
0100
0000
0100
,
0000
0010
0000
0010
,
0010
0000
0001
0000
,
1000
0000
0010
0000
,
0100
0000
0100
0000
,
0010
0000
0010
0000
,
1000
0000
0001
0000
,
1000
0000
0001
0000
,
1001
0000
0000
0000
,
0001
0000
0000
0000
,
1000
0000
0000
0000
,
0010
0000
0000
0000
,
0100
0100
0100
0000
,
0110
0000
0000
0000
,
1001
0000
0000
0000
,
0001
0000
0000
0000
,
1000
1000
1000
0000
,
0010
0000
0000
0000
,
0100
0000
0000
0000
,
0010
0000
0000
0000
,
1000
0000
0000
0000
,
0001
0000
0000
0000
,
0010
0000
0000
0000
,
0100
0100
0100
0100
,
0100
0000
0000
0000
,
1001
0000
0000
0000
,
1000
0000
0000
0000
,
1000
0000
0000
0000
,
0001
0000
0000
0000
,
0001
0000
0000
0000
,
0100
0000
0000
0000
,
0100
0000
0000
0000
,
0010
0010
0010
0010
,
0010
0000
0000
0000
,
0100
0000
0000
0000
,
0010
0000
0000
0000
,
1000
0000
0000
0000
,
0001
0000
0000
0000
,
0010
0000
0000
0000
,
0001
0000
0000
0000
,
1000
1000
1000
1000
,
1000
0000
0000
0000
,
0010
0000
0000
0000
,
0100
0000
0000
0000
,
0010
0000
0000
0000
,
1000
0000
0000
0000
,
1001
0000
0000
0000
,
0110
0000
0000
0000
,
0001
0000
0000
0000
,
1000
1000
1000
0000
,
0100
0000
0000
0000
;

//--------------- dance-single - Highflyer ----------------
#NOTES:
     dance-single:
     Highflyer:
     Easy:
     6:
     0.273228,0.326313,0.085872,0,0,245,234,11,0,0,0,0,0,0,0.273228,0.326313,0.085872,0,0,245,234,11,0,0,0,0,0,0:
0000
0000
0000
0000
,
0000
0000
0000
0000
,
1000
0010
0100
0010
,
1000
0000
0001
0010
,
0100
0010
0001
1000
,
0010
0000
0100
0010
,
1001
0001
0010
0100
,
1000
0000
0010
0100
,
0001
0100
1000
0100
,
0001
0000
0000
0000
,
1000
0100
0010
0000
,
0010
0010
0010
0000
,
0100
1000
0001
0000
,
0100
0001
0100
0000
,
1001
1000
0100
0000
,
0110
0010
0001
0000
,
1000
0010
0100
0000
,
0010
1000
0100
0010
,
0001
0000
1000
0010
,
0100
0100
0010
1000
,
0001
0000
0010
0000
,
0100
0010
0001
1000
,
0010
0000
0100
0000
,
0010
1000
0100
0010
,
0001
0000
1000
0000
,
0010
0100
0001
0010
,
0100
0110
0010
1001
,
1000
0010
0100
0010
,
1000
0000
1000
0000
,
0001
0010
0100
0010
,
0001
0000
1000
1000
,
0010
0010
0010
0010
,
0100
0000
0010
0000
,
1000
0100
0001
0100
,
1000
0000
0000
0000
,
0001
0100
1000
0100
,
0010
1000
0100
0010
,
0100
1000
0001
0100
,
1000
0100
0001
0010
,
0110
0100
1000
0001
,
1001
1000
0100
0010
,
0100
1000
0001
0100
,
0010
0010
0100
0010
,
1000
0000
0000
0000
,
0001
0000
0000
0000
,
0010
0000
0000
0000
,
0100
0000
0000
0000
,
0010
0000
0010
0000
,
0001
0000
0001
0000
,
1000
0100
0001
0100
,
1000
0000
0010
0000
,
1001
0000
0000
0000
,
0001
0100
1000
0100
,
0010
1000
0100
0001
,
0100
0010
0001
1000
,
0010
0100
0010
1000
,
0100
0001
0100
0010
,
0001
0100
1000
0001
,
0010
1000
0100
0010
,
0001
0000
1000
0100
,
0001
0100
0010
0001
,
0100
0010
1000
0010
,
0100
1000
0001
0010
,
1000
0100
0010
0100
,
1000
0001
0100
0010
,
0100
0001
1000
0100
,
0010
0010
0010
0010
,
0010
0000
0100
0000
,
0010
0000
0001
0000
,
1000
1000
1000
0000
,
0010
0000
0100
0000
,
0010
1000
0010
0000
,
0110
0000
0010
0000
,
1001
0000
1000
0000
,
0100
0010
0001
1000
,
0010
0010
0010
0000
,
1001
0000
0000
0000
;

//--------------- dance-single - Highflyer ----------------
#NOTES:
     dance-single:
     Highflyer:
     Medium:
     10:
     0.375828,0.415307,0.078065,0,0,337,327,10,0,0,0,0,0,0,0.375828,0.415307,0.078065,0,0,337,327,10,0,0,0,0,0,0:
0000
0000
0000
0000
,
0000
0000
0000
0000
,
1000
1000
0010
0010
,
0100
0100
0001
0001
,
0010
0010
0100
0100
,
1000
1000
0001
0001
,
0100
0010
1000
0100
,
0010
0001
1000
0010
,
0100
0010
0100
0010
0100
0010
0100
0010
,
0100
0000
0000
0000
,
0010
1000
0100
0010
,
0001
1000
0001
0000
0100
0000
0000
0000
,
0010
0100
0001
0010
,
0100
1000
0100
1000
0001
0000
0000
0000
,
0110
0010
1000
0001
,
0011
1000
0001
0100
,
0010
0100
0010
0000
1000
0000
0001
0000
,
0010
0100
0010
0100
0010
0000
0001
0000
,
1001
0000
1000
0000
0010
0100
0010
0000
,
1000
0000
0001
0000
1000
0100
1000
0000
,
0001
0000
0100
0010
,
0100
0001
1000
0100
,
0010
0000
0100
0000
,
0010
0000
0001
0000
1000
0010
1000
0000
,
0001
0000
0010
0100
,
0010
0010
0100
0000
,
1000
0100
1000
0000
0001
0100
0001
0000
,
1000
0000
0010
0000
0100
0010
0100
0000
,
0010
0000
0010
0000
,
1000
0001
0010
0100
,
0010
0000
0000
0000
0001
1000
0001
0000
,
0010
0100
0010
0100
0010
0100
0010
0000
,
0001
0000
1000
0010
,
0100
0100
0010
1000
,
1001
0000
0000
0000
,
0001
0010
1000
0010
,
0100
1000
0100
0000
1000
0000
0001
0000
,
0100
1000
0100
0010
,
1000
0001
1000
0001
1000
0000
0100
0000
,
0110
0010
0001
1000
,
1010
1000
0010
0100
,
0001
0010
0001
0000
1000
0000
0010
0000
,
0100
0010
0100
0010
1000
0000
0100
0000
,
0010
0000
0000
0000
0100
0000
0010
0001
,
0000
1000
0000
0000
0001
0000
0000
0000
,
0100
0000
0000
0000
0010
0000
1000
0001
,
0000
1000
0000
0000
0100
0000
0100
0000
,
0010
0000
0001
1000
0001
0000
0001
1000
,
0001
1000
0000
0000
0010
0000
0100
0000
,
0010
0100
0010
0100
0010
0100
0010
0100
,
0010
1000
0100
0001
,
0110
0000
0000
0000
,
0001
0000
0100
0000
1000
0000
0100
0001
,
0010
0100
1000
0001
,
0010
0000
0100
0000
0010
0000
0001
1000
,
0010
0100
0010
0010
,
0100
0000
0001
1000
0100
0000
1000
0001
,
0100
0010
0100
0001
,
0010
0100
0010
0100
0010
0100
0010
0100
,
0010
0000
0001
1000
,
0010
0000
0100
0000
0010
0000
1000
0100
,
0010
0001
1000
0010
,
0100
0000
0010
0000
1000
0000
0100
0010
,
0100
0010
0001
1000
,
0001
0000
0100
0010
0100
0000
0010
0100
,
0010
1000
0001
0010
,
0100
1000
0100
1000
0100
1000
0100
1000
,
0100
0010
0001
1000
,
0010
0100
0010
1000
,
0100
0010
0100
0000
0010
0000
0001
0000
,
1000
0010
0100
0001
,
0010
0100
0010
0100
0010
0000
0001
0000
,
1001
1000
0010
0100
,
0101
0001
0010
0100
,
1000
0001
1000
0000
0010
0000
0100
0000
,
0010
0100
0010
0100
0010
0000
1000
0000
,
1001
0000
0000
0000
;

//--------------- dance-single - BEMANI Charting Team "Highflyer" ----------------
#NOTES:
     dance-single:
     BEMANI Charting Team "Highflyer":
     Hard:
     13:
     0.63902,0.68229,0.242002,0,0.327874,573,542,31,0,0,0,0,0,0,0.63902,0.68229,0.242002,0,0.327874,573,542,31,0,0,0,0,0,0:
0000
0000
0000
0000
,
0000
0000
0000
0000
,
1000
0000
0000
0001
0100
0000
0010
0000
1000
0001
1000
0000
0100
0000
0010
0000
,
0100
0000
0000
0010
0001
0000
1000
0000
0010
0100
0010
0000
1000
0000
0001
0000
,
0010
0000
0000
0100
1000
0000
0001
0000
0100
0010
0100
0000
0001
0000
1000
0000
,
0100
0000
0000
0010
0100
0000
0010
0000
0100
1000
0100
0000
0010
0000
0000
0000
,
1001
0000
0000
0001
0100
0000
0010
0000
1000
0001
1000
0000
0010
0000
0100
0000
,
0001
0000
0000
1000
0100
0000
0010
0000
0100
0000
1000
0000
0010
0000
0100
0000
,
0001
0100
1000
0100
0001
0100
1000
0100
,
0001
0000
0000
0000
0000
0000
0000
0000
0000
0000
0000
0000
0000
0000
1000
0100
,
1000
0000
0001
0000
0100
0000
0010
0100
0000
0000
0010
0000
0000
0000
1000
0001
,
0100
0001
1000
0100
1000
0000
0100
0010
0000
0000
0000
0000
0000
0000
0001
0100
,
0001
0000
1000
0000
0100
0000
0010
0001
0000
0000
1000
0000
0000
0000
0010
1000
,
0100
0000
0010
0000
0100
0000
1000
0001
0000
0000
0000
0000
0000
0000
1000
0010
,
0100
0000
0100
0000
0100
0000
0010
1000
0000
0000
0001
0000
0000
0000
0010
0100
,
1000
0001
1000
0100
1000
0000
0001
0100
0000
0000
0000
0000
0000
0000
0010
0100
,
0010
0000
1000
0000
0001
0000
0100
0010
0000
0000
0100
0000
0000
0000
0010
1000
,
0001
0000
0010
0000
0100
0000
1000
0001
0100
0010
0000
0100
0001
1000
0100
0010
,
0001
0000
0100
0000
0010
0000
1000
0000
0001
0000
1000
0010
1000
0000
0010
0000
,
0100
0001
0010
0100
1000
1000
1000
0001
,
0100
0000
0000
0010
1000
0000
0001
0000
0010
0000
0100
0000
1000
0000
0000
0000
,
0001
0001
0100
0100
0010
1000
0100
0010
,
0001
0000
1000
0010
0000
0000
1000
0000
0001
0000
0010
0100
1000
0000
0000
0000
,
0001
0100
0010
0100
0001
0001
0010
0100
,
1100
0000
0101
1000
0001
0010
0100
0000
,
0011
0000
0000
0000
1010
0000
0000
0000
1000
0000
0001
0000
1000
0000
0000
0001
,
0100
0001
1000
0000
1100
0000
0000
1000
0001
0100
0001
0000
0011
0000
0000
0000
,
0010
0100
1000
0001
0100
0010
0100
0001
,
1000
0000
1000
0000
0100
0000
0000
0000
1000
0001
1000
0000
0100
0000
0000
0000
,
0010
0001
0000
0100
0001
0000
1000
0000
0010
0000
0100
0000
0001
0000
0010
0000
,
0100
0000
0100
0000
0010
0000
0000
0000
0001
0000
1000
0001
0100
0000
0000
0000
,
0001
0000
1000
0100
1000
0000
0001
0100
0001
0000
1000
0100
1000
0000
0001
0000
,
0100
0000
0000
0010
1000
0000
0001
0000
0010
0000
0100
0000
0010
0000
0000
0000
,
0101
1100
1010
0011
,
1000
0000
0000
0000
,
0001
0000
0100
0000
1000
0000
0100
0001
0000
0000
1000
0000
0000
0000
0100
0010
,
0100
1000
0100
0010
0100
0000
1000
0001
1000
0000
0010
0000
0001
0000
0010
0100
,
0010
0000
1000
0000
0001
0000
0010
0100
0000
0000
1000
0000
0000
0000
0100
1000
,
0010
0000
0100
0000
0001
0000
1000
0001
0000
0000
0000
0000
1000
0000
0001
0000
,
0101
0000
0100
0000
0010
0000
1000
0001
0000
0000
0010
0000
0000
0000
0100
0000
,
1100
0000
1000
0001
0100
0000
0010
0100
0000
0000
0000
0000
0010
0000
0000
0000
,
1000
0000
0100
0000
0010
0000
0001
0100
0000
0000
0010
0000
0000
0000
0100
0001
,
1000
0000
0100
0000
0010
0000
0100
1000
0001
0000
0000
0100
0010
0000
0001
0000
,
0010
0000
1000
0000
0100
0000
0001
1000
,
0000
0010
0000
0000
0100
0000
1000
0000
,
0001
0000
0100
0000
1000
0001
0010
1000
,
0000
0001
0000
0000
0010
0000
0100
0000
,
1001
0000
1000
0100
1000
0000
0001
0100
,
0001
1000
0000
0000
0001
0000
0010
0000
,
0001
0100
1000
0100
0001
0100
1000
0100
,
0001
0000
0011
0000
1010
0000
1100
0001
,
1001
0000
0001
1000
,
0001
0100
1000
0100
0001
0010
1000
0010
,
0100
0010
0001
0000
1000
0010
0100
0000
,
0001
0010
1000
0001
0100
1000
0001
0100
,
0010
1000
0001
0000
1001
0000
0011
0000
,
1000
0100
0001
0100
0010
1000
0010
0001
,
0100
1000
0001
0010
1000
0000
0001
0000
,
1000
0100
0001
0100
1000
0100
0001
0100
,
1000
0001
1010
0101
,
1000
0100
0010
0100
0001
0100
1000
0010
,
0001
0010
1000
0000
0001
0010
0100
0000
,
1000
0010
0001
1000
0100
0001
1000
0100
,
0001
0100
1000
0000
1001
0000
1010
0000
,
0001
0100
1000
0100
0010
0001
0010
1000
,
0100
0010
0001
1000
0010
0000
1000
0000
,
0001
0100
1000
0100
0001
0100
1000
0100
,
0001
0000
0011
0000
1010
0000
1100
0001
,
1001
0000
0001
0000
0100
0000
0010
1000
0000
0000
0001
0000
0000
0000
0010
0100
,
1000
0001
0100
0001
1000
0000
0100
0010
0001
0000
0100
0000
1000
0000
0100
0001
,
0100
0000
0010
0000
1000
0000
0001
0010
0000
0000
0100
0000
0000
0000
0010
0001
,
0100
0000
0010
0000
1000
0000
0001
0100
0000
0000
0000
0000
0010
0000
0100
0000
,
0110
0000
0010
0000
0010
0000
1000
0001
0000
0000
0010
0000
0000
0000
0100
0000
,
1100
0000
1000
0001
0100
0000
0010
0100
0000
0000
0000
0000
0010
0000
1000
0100
,
0010
0000
0001
0000
1000
0000
0001
0100
0010
0000
1000
0000
0001
0000
0010
0001
,
0100
0000
0010
0000
1000
0000
0001
0010
0100
0000
0000
1000
0001
0000
0100
0000
,
1001
0000
0000
0000
;

//--------------- dance-single - STR FS XO BR DS- Roll- ----------------
#NOTES:
     dance-single:
     STR FS XO BR DS- Roll-:
     Edit:
     17:
     0.976931,1.160732,0.257615,0.296648,1.190495,876,843,33,38,6,2,6,0,0,0.976931,1.160732,0.257615,0.296648,1.190495,876,843,33,38,6,2,6,0,0:
0000
0000
0000
0000
,
0000
0000
0000
0000
,
1000
0000
0010
0100
0001
0000
1000
0000
0100
0100
0001
0000
0010
0000
0001
0000
,
1001
0000
1000
0010
0100
0000
0001
0000
0010
0010
1000
0000
0002
0000
0010
0000
,
1003
0000
0010
0100
0001
0000
1000
0000
0100
0100
0001
0000
1000
0000
0010
0000
,
0100
0000
0010
1000
0001
0000
0010
0000
0100
0100
0001
0000
1000
0000
0001
0000
,
1100
0000
0000
0010
1000
0000
0001
0000
0010
0100
1000
0000
0010
0000
0100
0000
,
1000
0000
0100
0010
1000
0001
0010
0100
0010
0001
1000
0001
0100
0010
1000
0001
,
1100
0010
1000
0001
1010
0100
1000
0001
1100
0010
0100
0001
1100
0010
1100
0001
,
1010
0000
0000
0000
0200
0000
1010
0000
0000
0000
0310
0001
0100
0000
0010
0010
,
0001
0000
0100
0000
1000
0000
0100
0010
0000
1000
0001
0000
0010
0000
0100
1000
,
0010
0010
0100
0100
0001
0000
0010
0100
0000
0000
1000
0000
0001
0000
0010
0010
,
1000
0000
0100
0000
0001
0000
0100
0010
0000
0100
1000
0000
0010
0000
0100
0100
,
1000
0000
0010
0000
0100
0000
1000
0100
0000
0000
0010
0000
1000
0000
0001
1000
,
0104
0010
0000
0013
0100
0000
1000
0001
0000
0000
0100
0000
0001
0000
0010
0010
,
4100
0001
0000
3001
0010
0000
0100
0010
0001
0000
1000
0000
0010
0000
0100
0100
,
1000
0000
0010
0000
0001
0000
0010
0100
0000
0001
1000
0000
0100
0000
0010
0010
,
1000
0000
0001
0000
1100
0000
0000
0010
1000
0001
0000
0010
0100
1000
0001
0100
,
0010
0000
1000
0000
0001
0000
0010
0000
0100
0000
0010
0010
1000
0000
0010
0000
,
0100
0010
1000
0002
0100
1000
0103
0010
,
1000
0000
0001
0010
0100
0000
0010
0000
0100
0000
1000
0001
0100
0000
0000
0000
,
0010
0000
0100
0001
1000
0000
0100
0000
0010
0000
0100
1000
0001
0000
0100
0000
,
0010
0000
1000
0001
1000
0000
0100
0000
0010
0000
0100
1000
0001
0000
0000
0000
,
1000
0010
0100
0010
2000
0100
3002
1000
,
0103
0000
0001
0100
0001
0000
2000
0000
0001
0000
3010
1000
0010
0000
0000
0000
,
1000
0000
0100
0000
0001
0000
0100
0000
1000
0000
0010
0100
0001
0000
0000
1000
,
0100
0100
0001
0000
1200
0000
0000
0301
0010
0010
1000
0000
0101
0000
0010
0000
,
0100
0000
1000
0001
0100
0000
0010
1000
0001
0000
0010
0100
1000
0000
0010
0000
,
2100
0000
3001
0000
0010
0000
0000
0000
0101
1000
0001
0100
0010
0000
0100
0000
,
0011
0100
00M0
0100
1010
0000
0100
0000
1000
0000
0001
0000
0100
0000
0010
0000
,
1100
0000
0001
0000
0010
0000
0000
0000
0100
00M0
0100
0001
0100
0000
0000
0000
,
0010
0M00
0010
0001
0010
0M00
0010
1000
0010
0M00
0010
0001
0010
0000
0100
0000
,
1000
0000
0001
0100
0010
0000
1000
0000
0001
0010
0100
1000
0001
0000
1000
0000
,
0010
0100
0001
1000
0100
1000
0001
0100
0010
1000
0100
1000
0010
0100
0001
0010
,
0100
0000
0000
0000
0010
0000
0102
0000
0000
0000
1003
0010
0100
0000
0000
0000
,
0001
0000
0100
0000
1000
0000
0100
0010
1000
0000
0001
0000
0010
0000
0100
1000
,
0010
0010
0100
0100
0001
0000
1000
0100
1000
0000
0010
0000
0001
0000
0010
0100
,
0001
0000
0010
0000
0100
0000
1000
0001
0100
0000
0010
0000
1000
0000
0100
0100
,
0001
0000
0010
0000
1000
0000
0010
0100
1000
0000
0001
0000
0100
0000
0010
1000
,
0041
0100
0000
1030
0100
0000
0010
0001
1000
0000
0100
0000
0010
0000
0100
1000
,
0401
0010
0000
1300
0010
0000
0100
0001
1000
0000
0010
0000
0100
0000
0010
0010
,
0001
0000
1000
0000
0100
0000
0010
0001
1000
0010
0100
0010
1000
0001
1000
0100
,
0010
0000
0100
0000
1000
0000
0001
0100
0001
0010
0M00
0010
1000
0001
0010
0100
,
2000
0000
3020
0000
0032
0000
2003
3200
,
0000
0302
0000
0003
2000
0000
3002
0000
,
0023
0000
2030
0000
3002
0203
2300
3002
,
0000
0203
0000
0300
0020
0000
2030
0000
,
3101
0000
0010
0000
0002
0003
1000
0000
0010
0000
0100
0000
0020
0000
1030
0000
,
0001
0000
0020
0030
0200
0300
2000
3000
0002
0003
0200
0300
0020
0000
1030
0000
,
0001
0010
0100
1000
0100
0010
0001
1000
0001
0100
0010
1000
0010
0100
0001
1000
,
0101
0010
0001
1000
0011
0100
0010
1000
0101
0010
0001
1000
0011
0100
0011
1000
,
0102
0000
0000
0000
1003
0000
0200
0000
0000
0000
0310
0001
1000
0000
0000
0000
,
0010
0100
0001
0010
0100
1000
0001
1000
0100
0010
0100
0010
0001
1000
0010
1000
,
0001
0010
0001
1000
0010
0100
0001
1000
0001
0010
0100
0010
0001
1000
0010
0100
,
0001
1000
0100
1000
0001
0100
0010
0100
0001
0010
0100
1000
0001
1000
0010
0100
,
0001
1000
0100
1000
0001
0100
0010
0100
0001
1000
0100
1000
0001
0100
0001
1000
,
0100
0010
0001
0010
0100
1000
0001
0100
0010
1000
0010
0100
0001
0010
0100
1000
,
0010
0100
0001
0010
0100
1000
0001
1000
0010
0100
0010
0100
0001
1000
0001
1000
,
0100
0010
0001
0010
0100
1000
0100
0010
0001
1000
0010
0100
0001
0100
0010
1000
,
0100
0010
0001
1000
0001
0100
0010
0100
0001
1000
0100
0010
0001
1000
0010
0100
,
0001
0010
0001
0010
0100
1000
0100
1000
0010
0100
0001
1000
0100
1000
0001
0010
,
0001
0100
0010
1000
0100
0010
0100
1000
0001
0100
0001
1000
0100
0010
0001
1000
,
0001
0100
0010
0100
0001
1000
0010
0100
0001
1000
0100
1000
0001
0010
0001
1000
,
0010
0100
0001
1000
0100
0010
0001
1000
0001
0100
0001
0100
0010
1000
0010
1000
,
0001
0010
0001
0010
0100
1000
0001
0100
0001
0100
0010
1000
0001
0010
0100
0010
,
0001
1000
0010
0100
0001
1000
0001
0010
0100
1000
0001
0100
0010
0100
0001
1000
,
0001
0010
0100
1000
0100
0010
0001
0010
0100
1000
0001
0100
0010
1000
0010
0100
,
0001
1000
0100
0010
0100
1000
0001
0100
0010
0100
0001
1000
0100
1000
0010
0100
,
0001
0000
1000
0000
0100
0000
0010
0010
1000
0000
0010
0000
0001
0000
0010
1000
,
0100
0100
0010
0010
0001
0000
1000
0010
0100
0001
1000
0100
0010
0000
0100
0100
,
0001
0000
0010
0000
1000
0000
0010
0100
1000
0000
0001
0000
0100
0000
0010
0010
,
0001
0000
0100
0000
1000
0000
0100
0001
1000
0000
0001
0010
0100
0000
0010
0010
,
1400
0001
0000
0310
1000
0000
0001
0010
0000
0100
1000
0000
0001
0000
0100
0100
,
1040
0001
0000
0130
1000
0000
0001
0100
0000
0010
0100
0000
0001
0000
0100
0100
,
1000
0001
0010
0001
1000
0010
0100
0001
1000
0100
1000
0001
0100
0010
0100
0001
,
1010
0100
0010
0001
1000
0001
0100
0010
0100
0000
0000
0010
1000
0000
0001
0000
,
2020
3030
0000
0000
;

//--------------- dance-double - Highflyer ----------------
#NOTES:
     dance-double:
     Highflyer:
     Easy:
     6:
     0.273228,0.326313,0.085872,0,0,245,234,11,0,0,0,0,0,0,0.273228,0.326313,0.085872,0,0,245,234,11,0,0,0,0,0,0:
00000000
00000000
00000000
00000000
,
00000000
00000000
00000000
00000000
,
00010000
00000010
00001000
00000010
,
00010000
00000000
00000100
00001000
,
00000001
00001000
00000100
00010000
,
00001000
00000000
00100000
00010000
,
00110000
00010000
10000000
01000000
,
00100000
00000000
00010000
01000000
,
00100000
01000000
10000000
01000000
,
00010000
00000000
00000000
00000000
,
00100000
00001000
01000000
00000000
,
01000000
01000000
01000000
00000000
,
00001000
00010000
00000010
00000000
,
00000100
00000010
00000100
00000000
,
00001010
00001000
00000100
00000000
,
00010100
00010000
00001000
00000000
,
00100000
00010000
10000000
00000000
,
00010000
00100000
00001000
00010000
,
00000100
00000000
00001000
00000001
,
00000010
00000010
00000001
00001000
,
00000100
00000000
00010000
00000000
,
00001000
00010000
00000100
00001000
,
00000001
00000000
00000010
00000000
,
00000001
00001000
00000100
00010000
,
00001000
00000000
00100000
00000000
,
00010000
10000000
01000000
00100000
,
00001000
00101000
00100000
00010010
,
00010000
00001000
01000000
00001000
,
00010000
00000000
00010000
00000000
,
00000010
00000100
00000001
00000100
,
00000010
00000000
00010000
00010000
,
00001000
00001000
00001000
00001000
,
01000000
00000000
00001000
00000000
,
00100000
01000000
00010000
01000000
,
10000000
00000000
00000000
00000000
,
00010000
01000000
10000000
01000000
,
00010000
00100000
00001000
01000000
,
00001000
00010000
00000010
00000100
,
00001000
00000100
00000001
00000010
,
00000110
00000100
00010000
00000010
,
00010010
00010000
00001000
00100000
,
00001000
01000000
00100000
10000000
,
00010000
00010000
10000000
00010000
,
00100000
00000000
00000000
00000000
,
00001000
00000000
00000000
00000000
,
00010000
00000000
00000000
00000000
,
00000100
00000000
00000000
00000000
,
00010000
00000000
00010000
00000000
,
00000010
00000000
00000010
00000000
,
00001000
00000100
00000001
00000100
,
00001000
00000000
00000010
00000000
,
00001001
00000000
00000000
00000000
,
00000001
00000100
00001000
00000100
,
00000001
00000010
00001000
00000001
,
00000100
00001000
00000010
00010000
,
00001000
01000000
00001000
00100000
,
01000000
00010000
01000000
00100000
,
00010000
01000000
10000000
00010000
,
00100000
01000000
00001000
00100000
,
00010000
00000000
10000000
01000000
,
00010000
01000000
10000000
00100000
,
01000000
00001000
01000000
00010000
,
01000000
10000000
00010000
00100000
,
01000000
00001000
00100000
00001000
,
00010000
00000100
00001000
00000001
,
00001000
00000010
00010000
00000100
,
00001000
00001000
00001000
00001000
,
00001000
00000000
00000100
00000000
,
00001000
00000000
00000010
00000000
,
00010000
00010000
00010000
00000000
,
00000100
00000000
00001000
00000000
,
00000100
00000010
00000100
00000000
,
00010100
00000000
00000100
00000000
,
00101000
00000000
00100000
00000000
,
00010000
10000000
00100000
01000000
,
00010000
00010000
00010000
00000000
,
00000110
00000000
00000000
00000000
;

//--------------- dance-double - Highflyer ----------------
#NOTES:
     dance-double:
     Highflyer:
     Medium:
     10:
     0.375828,0.415307,0.078065,0,0,337,327,10,0,0,0,0,0,0,0.375828,0.415307,0.078065,0,0,337,327,10,0,0,0,0,0,0:
00000000
00000000
00000000
00000000
,
00000000
00000000
00000000
00000000
,
00010000
00010000
00000100
00000100
,
00000010
00000010
00000001
00000001
,
00000100
00000100
00000010
00000010
,
00010000
00010000
00001000
00001000
,
01000000
00100000
10000000
01000000
,
00100000
00010000
01000000
00001000
,
00010000
00001000
00010000
00001000
00010000
00001000
00010000
00001000
,
00010000
00000000
00000000
00000000
,
00001000
01000000
00100000
10000000
,
01000000
00100000
01000000
00000000
10000000
00000000
00000000
00000000
,
00100000
10000000
00010000
01000000
,
00001000
00010000
00001000
00010000
00000100
00000000
00000000
00000000
,
00000110
00000010
00000001
00000010
,
00000011
00001000
00000001
00000010
,
00000100
00000010
00000100
00000000
00010000
00000000
00001000
00000000
,
00100000
00010000
00100000
00010000
00100000
00000000
00001000
00000000
,
01001000
00000000
01000000
00000000
00010000
10000000
00010000
00000000
,
01000000
00000000
00001000
00000000
01000000
00100000
01000000
00000000
,
00001000
00000000
00010000
00000010
,
00010000
00000100
00000010
00000001
,
00001000
00000000
00000001
00000000
,
00001000
00000000
00000100
00000000
00010000
00001000
00010000
00000000
,
00000010
00000000
00001000
00000100
,
00001000
00001000
00000100
00000000
,
00010000
00000100
00010000
00000000
00001000
00100000
00001000
00000000
,
01000000
00000000
00100000
00000000
10000000
00100000
10000000
00000000
,
00100000
00000000
00100000
00000000
,
01000000
00001000
00010000
00000010
,
00010000
00000000
00000000
00000000
00001000
00100000
00001000
00000000
,
01000000
00010000
01000000
00001000
01000000
00010000
01000000
00000000
,
00001000
00000000
00010000
00000010
,
00000100
00000100
00000010
00001000
,
00001001
00000000
00000000
00000000
,
00000001
00000010
00001000
00000010
,
00000100
00010000
00000100
00000000
00010000
00000000
00000010
00000000
,
00000100
00001000
00000100
00000010
,
00010000
00000100
00010000
00000100
00010000
00000000
00001000
00000000
,
01001000
01000000
00010000
10000000
,
10100000
10000000
00100000
01000000
,
00010000
10000000
00010000
00000000
00100000
00000000
00001000
00000000
,
01000000
00001000
01000000
00001000
00010000
00000000
00000010
00000000
,
00001000
00000000
00000000
00000000
00000010
00000000
00001000
00000001
,
00000000
00000100
00000000
00000000
00000001
00000000
00000000
00000000
,
00001000
00000000
00000000
00000000
00000010
00000000
00010000
00000100
,
00000000
00010000
00000000
00000000
00001000
00000000
00001000
00000000
,
01000000
00000000
00010000
00100000
00010000
00000000
00010000
00100000
,
00010000
00100000
00000000
00000000
00001000
00000000
00010000
00000000
,
00001000
00010000
00000010
00010000
00000100
00010000
00000010
00010000
,
00001000
00100000
01000000
10000000
,
11000000
00000000
00000000
00000000
,
00010000
00000000
01000000
00000000
10000000
00000000
01000000
00010000
,
00100000
00001000
00010000
00000100
,
00000010
00000000
00000001
00000000
00000010
00000000
00000100
00001000
,
00000001
00000100
00000001
00000001
,
00000100
00000000
00000010
00001000
00000100
00000000
00001000
00000010
,
00010000
00000100
00010000
00001000
,
01000000
00100000
01000000
00010000
01000000
00100000
01000000
00010000
,
01000000
00000000
00001000
00010000
,
00000010
00000000
00000100
00000000
00000010
00000000
00010000
00001000
,
00100000
00001000
00100000
00010000
,
10000000
00000000
00010000
00000000
00100000
00000000
00001000
00010000
,
00000100
00010000
00000100
00000010
,
00000100
00000000
00001000
00000010
00001000
00000000
00000010
00001000
,
00000010
00010000
00001000
01000000
,
00010000
10000000
00010000
00100000
00010000
10000000
00010000
01000000
,
00010000
01000000
00001000
00010000
,
00000100
00001000
00000100
00000010
,
00000001
00001000
00000001
00000000
00001000
00000000
00000100
00000000
,
00010000
00001000
01000000
00100000
,
10000000
01000000
10000000
01000000
10000000
00000000
00010000
00000000
,
00110000
00100000
00001000
00010000
,
00010100
00000100
00001000
00000001
,
00000010
00000100
00000010
00000000
00000001
00000000
00001000
00000000
,
00000001
00001000
00000001
00001000
00000010
00000000
00000100
00000000
,
00011000
00000000
00000000
00000000
;

//--------------- dance-double - BEMANI Charting Team "Highflyer" ----------------
#NOTES:
     dance-double:
     BEMANI Charting Team "Highflyer":
     Hard:
     14:
     0.635674,0.68229,0.218583,0,0.331777,570,542,28,0,0,0,0,0,0,0.635674,0.68229,0.218583,0,0.331777,570,542,28,0,0,0,0,0,0:
00000000
00000000
00000000
00000000
,
00000000
00000000
00000000
00000000
,
00010000
00000000
00000000
00001000
00100000
00000000
00010000
00000000
01000000
00001000
01000000
00000000
00010000
00000000
00100000
00000000
,
00010000
00000000
00000000
00100000
00001000
00000000
00010000
00000000
00000100
00001000
00000100
00000000
00000010
00000000
00000001
00000000
,
00000100
00000000
00000000
00000010
00001000
00000000
00000100
00000000
00010000
00000010
00010000
00000000
00001000
00000000
01000000
00000000
,
00010000
00000000
00000000
10000000
00010000
00000000
10000000
00000000
00010000
01000000
00010000
00000000
00100000
00000000
00000000
00000000
,
01001000
00000000
00000000
00001000
00010000
00000000
00000010
00000000
00001000
00000001
00001000
00000000
00000100
00000000
00000010
00000000
,
00000001
00000000
00000000
00001000
00000010
00000000
00000100
00000000
00001000
00000000
00010000
00000000
00100000
00000000
10000000
00000000
,
01000000
00010000
00001000
00000010
00000001
00000100
00001000
00010000
,
00000100
00000000
00000000
00000000
00000000
00000000
00000000
00000000
00000000
00000000
00000000
00000000
00000000
00000000
00001000
00000001
,
00001000
00000000
00000010
00000000
00010000
00000000
00001000
00010000
00000000
00000000
00001000
00000000
00000000
00000000
01000000
00010000
,
00100000
00010000
01000000
00100000
01000000
00000000
00100000
10000000
00000000
00000000
00000000
00000000
00000000
00000000
00010000
01000000
,
00010000
00000000
00100000
00000000
00001000
00000000
01000000
00010000
00000000
00000000
10000000
00000000
00000000
00000000
00100000
10000000
,
00010000
00000000
00100000
00000000
00010000
00000000
01000000
00001000
00000000
00000000
00000000
00000000
00000000
00000000
01000000
00010000
,
10000000
00000000
10000000
00000000
10000000
00000000
00010000
01000000
00000000
00000000
00001000
00000000
00000000
00000000
00010000
00000100
,
00001000
00000001
00001000
00000100
00001000
00000000
00000010
00010000
00000000
00000000
00000000
00000000
00000000
00000000
00001000
00010000
,
00001000
00000000
01000000
00000000
00010000
00000000
00100000
01000000
00000000
00000000
00100000
00000000
00000000
00000000
01000000
10000000
,
00100000
00000000
01000000
00000000
00010000
00000000
00100000
00001000
00010000
00000010
00000000
00010000
00000100
00001000
00000010
00000100
,
00000001
00000000
00001000
00000000
00000010
00000000
00010000
00000000
00001000
00000000
00010000
00000100
00010000
00000000
00000100
00000000
,
00001000
00000010
00000100
00000001
00001000
00001000
00001000
00000010
,
00010000
00000000
00000000
00001000
01000000
00000000
00010000
00000000
00100000
00000000
01000000
00000000
10000000
00000000
00000000
00000000
,
00100000
00100000
01000000
01000000
00010000
00100000
00001000
00010000
,
00000100
00000000
00001000
00000001
00000000
00000000
00001000
00000000
00000010
00000000
00000100
00000001
00000010
00000000
00000000
00000000
,
00000100
00001000
00000001
00001000
00000010
00000010
00010000
00001000
,
01001000
00000000
00110000
10000000
00010000
01000000
00100000
00000000
,
01010000
00000000
00000000
00000000
00011000
00000000
00000000
00000000
00010000
00000000
00000100
00000000
00010000
00000000
00000000
00000100
,
00001000
00000100
00000010
00000000
00000011
00000000
00000000
00000010
00000100
00001000
00000100
00000000
00010100
00000000
00000000
00000000
,
00010000
00001000
00100000
00010000
01000000
00001000
01000000
00010000
,
10000000
00000000
10000000
00000000
00100000
00000000
00000000
00000000
10000000
01000000
10000000
00000000
00010000
00000000
00000000
00000000
,
00100000
00001000
00000000
01000000
00001000
00000000
00010000
00000000
00000010
00000000
00001000
00000000
00000100
00000000
00010000
00000000
,
00001000
00000000
00001000
00000000
00010000
00000000
00000000
00000000
00000010
00000000
00001000
00000010
00001000
00000000
00000000
00000000
,
00000010
00000000
00001000
00000001
00001000
00000000
00000100
00010000
00000100
00000000
00001000
00000001
00001000
00000000
00000100
00000000
,
00010000
00000000
00000000
00001000
01000000
00000000
00010000
00000000
00100000
00000000
01000000
00000000
00100000
00000000
00000000
00000000
,
01010000
10010000
10100000
01010000
,
10000000
00000000
00000000
00000000
,
00010000
00000000
01000000
00000000
10000000
00000000
01000000
00010000
00000000
00000000
00100000
00000000
00000000
00000000
00001000
01000000
,
00001000
00010000
00001000
00100000
00001000
00000000
01000000
00010000
01000000
00000000
00100000
00000000
00010000
00000000
00100000
01000000
,
00100000
00000000
10000000
00000000
00010000
00000000
01000000
00001000
00000000
00000000
00010000
00000000
00000000
00000000
00001000
00010000
,
00000010
00000000
00001000
00000000
00000001
00000000
00000100
00000001
00000000
00000000
00000000
00000000
00000100
00000000
00000001
00000000
,
00000011
00000000
00000010
00000000
00000100
00000000
00001000
00000010
00000000
00000000
00010000
00000000
00000000
00000000
00000100
00000000
,
00001100
00000000
00001000
00000010
00010000
00000000
00000100
00010000
00000000
00000000
00000000
00000000
00000100
00000000
00000000
00000000
,
00001000
00000000
00000001
00000000
00000100
00000000
00000010
00001000
00000000
00000000
00000001
00000000
00000000
00000000
00001000
00000010
,
00010000
00000000
00001000
00000000
01000000
00000000
00001000
00100000
00010000
00000000
00000000
01000000
00100000
00000000
00010000
00000000
,
00100000
00000000
10000000
00000000
01000000
00000000
00010000
10000000
,
00000000
00100000
00000000
00000000
01000000
00000000
10000000
00000000
,
00100000
00000000
01000000
00000000
10000000
00010000
00100000
01000000
,
00000000
00010000
00000000
00000000
00100000
00000000
00001000
00000000
,
00010010
00000000
00010000
00001000
00010000
00000000
00000010
00001000
,
00000010
00000100
00000000
00000000
00000010
00000000
00001000
00000000
,
00000010
00000100
00001000
00010000
01000000
00100000
00001000
00010000
,
00000010
00000000
00001010
00000000
00010100
00000000
00011000
00000010
,
00010010
00000000
00000010
00010000
,
00000010
00000100
00001000
00000100
00000001
00000100
00001000
00100000
,
10000000
00100000
00001000
00000000
00000100
00000010
00001000
00000000
,
00000100
00000010
00000001
00000001
00000100
00000010
00010000
00001000
,
00100000
00001000
00010000
00000000
00011000
00000000
00001010
00000000
,
00000010
00010000
00001000
01000000
10000000
01000000
00001000
00010000
,
00000100
00000001
00000100
00010000
00001000
00000000
00010000
00000000
,
00001000
00010000
00100000
00010000
00001000
00000010
00001000
00010000
,
00100000
00010000
00010100
00011000
,
00010000
01000000
00010000
00001000
00010000
00100000
00010000
00000010
,
00000001
00000010
00001000
00000000
00000100
00000010
00000001
00000000
,
00000100
00001000
00010000
00000010
00000100
00000010
00010000
00000100
,
00001000
00000100
00010000
00000000
00010100
00000000
00110000
00000000
,
00100000
01000000
10000000
00010000
01000000
00001000
01000000
00100000
,
10000000
00010000
00100000
00000000
00001000
00000000
00010000
00000000
,
00001000
00010000
01000000
00010000
00001000
00000100
00001000
00010000
,
01000000
00000000
00000000
00000000
00010000
00000000
00000000
00000000
00001000
00000000
00000000
00010000
00000100
00000000
00010000
00000000
,
00010100
00000000
00000100
00000000
00001000
00000000
00000010
00010000
00000000
00000000
00001000
00000000
00000000
00000000
01000000
00010000
,
00100000
00001000
00010000
00001000
00100000
00000000
00010000
10000000
00100000
00000000
01000000
00000000
10000000
00000000
01000000
00100000
,
01000000
00000000
00010000
00000000
00100000
00000000
01000000
10000000
00000000
00000000
00100000
00000000
00000000
00000000
10000000
00010000
,
00100000
00000000
01000000
00000000
10000000
00000000
00010000
01000000
00000000
00000000
00000000
00000000
00001000
00000000
01000000
00000000
,
01001000
00000000
00001000
00000000
00001000
00000000
00100000
00010000
00000000
00000000
01000000
00000000
00000000
00000000
00001000
00000000
,
00101000
00000000
00100000
00010000
01000000
00000000
00100000
01000000
00000000
00000000
00000000
00000000
00100000
00000000
10000000
00010000
,
01000000
00000000
00001000
00000000
00010000
00000000
00001000
01000000
00010000
00000000
10000000
00000000
01000000
00000000
00100000
01000000
,
10000000
00000000
00010000
00000000
00100000
00000000
01000000
10000000
00010000
00000000
00000000
00100000
00001000
00000000
00010000
00000000
,
00011000
00000000
00000000
00000000
;
