#TITLE:MOBO★MOGA;
#SUBTITLE:;
#ARTIST:Orange Lounge;
#TITLETRANSLIT:;
#SUBTITLETRANSLIT:;
#ARTISTTRANSLIT:;
#GENRE:;
#CREDIT:;
#MUSIC:MOBO MOGA.ogg;
#BANNER:MOBO MOGA BN.png;
#BACKGROUND:MOBO MOGA-bg.png;
#CDTITLE:./CDTITLES/DANCEMANIAX.PNG;
#SAMPLESTART:28.964;
#SAMPLELENGTH:15.000;
#SELECTABLE:YES;
#OFFSET:0.000;
#BPMS:0.000=172.000;
#STOPS:;
#BGCHANGES:;
#FGCHANGES:;

//--------------- dance-single - Minxyz ----------------
#NOTES:
     dance-single:
     Minxyz:
     Hard:
     12:
     0,0,0,0,0:
0000
0000
0000
0000
,
0000
0000
0000
0000
,
0000
0000
0000
0000
,
0000
0000
0000
0000
,
0000
0000
0000
0000
,
0010
0000
0010
0000
1000
1000
0000
0100
,
0000
0100
0000
0001
0000
0001
0000
0000
,
0010
0000
0010
0000
1000
1000
0000
0100
,
0000
0100
0000
0001
0000
0001
0000
0000
,
0100
0000
0100
0000
1000
1000
0000
0010
,
0000
0010
0000
0001
0000
0001
0000
0000
,
0100
0000
0100
0100
0000
1000
1000
0000
,
0010
0000
0000
0010
0000
0000
0110
0000
0000
0000
1000
0000
0100
0000
0010
0000
,
0011
0000
1000
0010
0010
1000
0000
0001
,
0100
0100
0000
0001
0010
0000
0101
0000
,
1100
0000
0010
1000
1000
0100
0000
0010
,
0001
0001
0000
0100
0010
0000
1010
0000
,
0011
0000
0001
0100
0100
0001
0000
0100
,
0010
0010
0000
1000
0100
0000
0010
0000
,
0012
0013
2100
3010
,
0110
0000
0001
1000
0000
0001
2000
0000
,
3100
0000
0010
0001
0100
0010
0100
0000
,
0001
0000
0100
0010
1000
0100
1000
0000
,
0110
0000
0100
0001
0100
0010
1000
0000
,
0101
0000
0001
0010
0001
1000
0100
0000
,
1010
0000
0100
0010
0100
1000
0100
0000
,
1000
0010
0100
0010
2000
0000
3001
0000
,
1001
0000
1000
0010
0100
0000
0011
0000
,
1000
0000
0100
0010
0001
0000
0001
0000
,
1001
1000
0010
0200
0300
0010
0100
0001
,
0010
0000
0001
1000
0100
2000
3000
0000
,
0011
0000
0001
0000
0010
0000
0002
0000
0000
0003
1000
0000
0010
0000
0100
0000
,
0002
0000
0000
0003
0000
0000
1000
0000
0010
0000
0001
0000
0000
0000
0000
0000
,
1000
0100
0001
0020
0030
0001
0010
0100
,
2000
0000
0000
0000
0000
3000
0100
0000
0010
0000
0020
0000
0000
0030
0000
0000
,
2001
0000
0010
3000
2100
0000
3100
0000
,
0022
0000
0000
0000
0033
0000
0000
0000
1000
0000
0000
1000
0001
0000
0000
0000
,
0110
0000
0100
1000
0000
0100
0010
0010
,
0001
0010
1200
0300
,
0100
0000
1000
0100
0000
1000
0010
0010
,
0011
0000
0010
0000
0110
1000
0100
0010
,
0001
0000
0100
0200
0000
0300
0010
0010
,
0000
1000
1000
0000
0101
0001
0010
0100
,
1000
0000
0000
0000
1000
0000
0000
0000
0000
0000
0200
0000
0000
0000
0000
0310
,
0000
0001
0010
0010
0002
0000
1003
0000
,
0110
0000
0010
0002
0000
1003
0100
0100
,
1000
0100
0012
0003
,
0010
0000
0000
0101
0000
0010
1000
1000
,
1100
0000
0010
0000
0110
0100
0010
1000
,
0100
0000
0000
0000
0010
0000
0002
0000
0000
0000
0000
0003
1000
0000
1000
0000
,
0000
0010
0010
0000
0110
1000
0100
0010
,
0001
0000
1001
0010
1000
0010
0100
0001
,
0022
0000
0033
0202
0000
0000
0303
0000
,
0100
0001
0010
1000
0100
0000
0100
1000
,
0010
0001
0100
0000
0100
0001
0010
1000
,
0100
0000
1000
0010
0000
0001
0000
1000
,
0100
0000
0000
0010
0000
0000
1000
0000
0000
0001
0000
0000
0100
0000
0000
0000
,
0220
0330
0022
0000
,
0033
2200
0000
0000
,
0000
0000
0000
0000
0000
0000
0000
0000
0000
0000
0000
0000
0000
0000
0000
3300
;

//--------------- dance-single - Minxyz ----------------
#NOTES:
     dance-single:
     Minxyz:
     Challenge:
     15:
     0,0,0,0,0:
0000
0000
0000
0000
,
0000
0000
0000
0000
,
0000
0000
0000
0000
,
0000
0000
0000
0000
,
0000
0000
0000
0000
,
1000
0000
0100
0000
0010
0010
0000
0001
,
0000
0100
0000
1000
0000
0010
0000
0000
,
1000
0000
0100
0000
0010
0010
0000
1000
,
0000
0100
0000
0001
0000
0010
0000
0000
,
0001
0000
0100
0000
0010
0010
0000
0100
,
0000
0100
0000
0110
0000
0110
0000
0000
,
1000
0000
0001
1000
0000
0000
0001
0000
0000
0100
0010
0000
1000
0010
1000
0000
,
0100
0000
0000
0100
0000
0010
0100
0000
0000
0010
0001
0010
0001
0010
0100
1000
,
0100
0000
1000
0010
0100
0010
1010
0100
,
0101
0000
0200
0000
0000
0000
0302
0000
0000
0000
0023
0000
1000
0030
0000
0000
,
0011
0000
0001
0100
0010
0100
0011
0010
,
1100
0000
0200
0000
0000
0300
2000
0000
0000
3000
0020
0000
0001
0030
0000
0000
,
0020
0000
0000
0000
1030
0000
0000
0100
1000
0000
0010
0000
0110
0000
0000
0000
,
1000
0000
0100
1000
0010
0000
0000
0000
0100
0000
0001
0010
0100
0000
0000
0000
,
2001
0000
3001
0100
0210
0000
0310
1000
,
1001
0000
0000
0001
1000
0000
0001
0000
1000
0001
0000
1000
0001
0000
0000
0000
,
0020
0000
0000
0030
0001
0000
1000
0010
0000
1000
0010
0000
0100
0000
0100
0000
,
0000
0010
1000
0100
0001
0100
1000
0010
,
0200
0000
0000
0300
0001
0000
0010
0001
0000
0010
0001
0000
0100
0000
0100
0000
,
0000
0000
0001
0010
0002
0000
1003
0100
,
1000
0000
0000
0000
0010
0000
0100
0010
0000
0100
0010
0000
1000
0000
1000
0000
,
0000
1000
0010
0001
2000
0000
3100
0001
,
0010
0000
0000
0000
0001
0000
1000
0100
0000
1000
0100
0000
0010
0000
0010
0000
,
0001
0000
0000
0000
0010
0000
0100
0001
0000
0001
0100
0000
1000
0000
0010
0000
,
1010
0000
0100
0010
0110
0000
0001
0010
,
0000
0001
0100
0000
1001
0000
0110
0000
,
1000
0000
0001
0100
0101
0000
1000
0100
,
1100
0000
0000
0001
0011
0000
0110
0000
,
0001
0000
1000
0100
0001
0000
1000
0010
,
0000
0001
0100
0010
,
2010
0000
3010
0100
0012
0000
1003
0010
,
2200
0000
0000
0000
3300
0000
0000
0000
0001
0000
1000
0001
1000
0000
0000
0000
,
0110
0000
1000
0100
0000
0010
0010
0001
,
0010
0000
0000
0000
1001
0000
0000
0000
0120
0000
0000
0000
0000
0030
0000
0000
,
1000
0000
0000
0010
0100
0000
0000
0001
0000
0010
0100
0000
1000
0000
0010
0000
,
1010
0000
0000
1000
0100
0000
0000
0000
0011
0000
0000
0000
0100
0000
0001
0100
,
0001
0000
0001
0010
0000
0000
0100
1000
,
0000
0000
0101
0000
0110
0000
0000
0000
0011
0000
1000
0000
0100
0000
0100
0010
,
0100
0000
0100
0000
0000
1010
0000
0000
,
0110
0000
0011
0000
1000
0100
0001
0100
,
1000
0000
0010
0001
0000
0001
0010
0010
,
1000
0100
0012
0003
,
0010
0000
0000
0001
0100
0000
0000
0010
0000
1000
0100
0000
0010
0000
0001
0000
,
0011
0000
0000
1000
0100
0000
0000
0000
1010
0000
0001
0000
0001
0000
1000
0010
,
1000
0000
0000
0000
0100
0000
1000
0010
0000
1000
0010
0000
0100
0000
0010
0000
,
0000
0000
1001
0000
1010
0000
0000
0000
0010
0000
0100
0001
0000
0000
1000
0100
,
0010
0000
0000
0000
0011
0000
0002
0003
0020
0030
0200
0300
2000
3000
0010
0000
,
0110
0000
0000
2002
0000
0000
3003
0000
,
1000
0000
0001
0000
1000
0100
0010
0000
0100
1000
0000
0000
0001
0000
1000
0000
,
0001
0100
0010
0000
0100
0001
0000
0000
0010
0000
0100
0000
0010
0001
0100
0000
,
0001
0010
0000
0000
0001
0000
1000
0100
0000
1000
0100
0000
0000
0010
0000
0000
,
0001
0000
0100
0010
0000
0000
1000
0000
0000
0100
0010
0000
0001
0100
0010
0000
,
0220
0000
0000
0000
0000
0330
0000
0000
2002
0000
0000
0000
0000
0000
0000
0000
,
0000
3003
0000
0000
0220
0000
0000
0000
0000
0000
0000
0000
0000
0000
0000
0000
,
0000
0000
0000
0000
,
0330
0000
0000
0000
;
