#TITLE:MAX (BPM115);
#SUBTITLE:;
#ARTIST:DDR SuperNOVA Mission;
#TITLETRANSLIT:;
#SUBTITLETRANSLIT:;
#ARTISTTRANSLIT:;
#GENRE:;
#CREDIT:;
#MUSIC:MAX (BPM115).mp3;
#BANNER:MAX (BPM115).png;
#BACKGROUND:MAX (BPM115)-bg.png;
#CDTITLE:./CDTITLES/DanceDanceRevolution SuperNOVA.png;
#SAMPLESTART:0.020;
#SAMPLELENGTH:15.000;
#SELECTABLE:YES;
#OFFSET:-0.044;
#BPMS:0.000=115.000;
#STOPS:;
#BGCHANGES:;
#FGCHANGES:;

//--------------- dance-single - Showdown ----------------
#NOTES:
     dance-single:
     Showdown:
     Medium:
     8:
     0,0,0,0,0:
0000
0000
0000
0000
,
0000
0000
0000
0000
,
0000
0000
0000
0000
,
0000
0000
0000
0000
,
1000
0100
0010
0000
1000
0000
0010
0000
,
0001
0100
0010
0000
0001
0000
0010
0000
,
0100
0001
0010
0000
1000
0000
0010
0000
,
0100
1000
0010
0000
0001
0000
0010
0000
,
1010
0000
0000
0000
0002
0000
0000
0010
0000
0013
0000
0000
1100
0000
0000
0000
,
0001
0000
1000
0000
0002
0000
0000
0100
0000
0103
0000
0000
1010
0000
0000
0000
,
0001
0000
0000
0000
2000
0000
0000
0100
0000
3100
0000
0000
0011
0000
0000
0000
,
1000
0000
0001
0000
0100
0000
0000
0100
0000
0100
0000
0000
0100
0000
0001
0000
,
1000
0000
0100
0000
1000
0001
0100
0000
,
0010
0001
0010
1000
,
0002
0000
0000
0000
0010
0000
0000
0010
0000
0000
0010
0000
0003
0000
0000
0000
,
0001
0000
0000
0000
2000
0000
0000
0000
0010
0000
0000
0010
0000
0000
0010
0000
,
3001
0000
0100
0000
,
0010
0000
0001
0000
,
0010
1000
0001
0000
,
0010
0100
1000
0001
,
1000
0000
0010
0000
0001
0010
0100
0000
,
0001
0000
0010
0000
1000
0010
0100
0000
,
1000
0000
0000
0000
0001
0000
0000
0100
0000
0000
0001
0000
1000
0000
0000
0000
,
0100
0000
0000
0000
0001
0000
0100
0000
0010
0000
0000
0000
0010
0000
0000
0100
;

//--------------- dance-single - EX Showdown ----------------
#NOTES:
     dance-single:
     EX Showdown:
     Hard:
     12:
     0,0,0,0,0:
0000
0000
0000
0000
,
0000
0000
0000
0000
,
0000
0000
0000
0000
,
0000
0000
0000
0000
,
1000
0010
0100
0001
0010
0010
0001
0100
,
1000
0000
0100
0000
0010
0000
0100
0000
0001
1000
0000
0000
1000
0100
1000
0000
,
0001
0010
0010
0100
1000
0010
0001
0010
,
0100
0000
0100
0001
0100
0000
0001
1000
0001
0000
1000
0100
1000
0000
0001
0000
,
0010
0000
0000
0000
1200
0000
0000
0010
0000
0310
0100
0000
1000
0000
0000
0000
,
0001
0000
0001
0000
0200
0000
0000
0010
0000
0310
0100
0000
0001
0000
1000
0000
,
0100
0000
0000
0000
0021
0000
0000
0100
0000
0130
0010
0000
0001
0000
0000
0000
,
1000
0000
1000
0000
0010
0100
0000
0100
0000
0100
0001
0000
1000
0000
0000
0001
,
1000
0100
0001
0100
0010
0010
1000
0010
,
0001
0000
0100
0010
1000
0000
0100
1000
0100
0000
0010
0001
1000
0000
0000
0000
,
0001
0000
0100
0000
0010
0000
0000
0001
0000
1000
0000
0000
0100
0000
0001
0000
,
1000
0000
0100
0000
0001
0000
0000
0000
1000
0000
0000
0010
0000
0000
0100
0000
,
1000
0010
1000
0000
0200
0001
0000
0000
,
0310
0010
0000
0001
1000
0100
1000
0001
,
1000
0010
1000
1000
0010
0100
0001
0000
,
1000
0000
0010
0000
0001
0000
0000
0010
0000
0000
1000
0000
0001
0000
0000
0000
,
1000
0010
0100
1000
0100
0100
0001
0010
,
0100
0000
0010
0001
1000
0000
0010
0000
0100
0010
0000
0000
1000
0100
0010
0000
,
0001
0000
1000
0000
0010
0100
0000
1000
0000
1000
0100
0000
0010
0100
0000
0000
,
0001
0010
1000
0000
0010
0000
0001
1000
0010
0000
0010
0000
0100
0010
0100
1000
;

//--------------- dance-single - Diamond EX Showdown ----------------
#NOTES:
     dance-single:
     Diamond EX Showdown:
     Challenge:
     14:
     0,0,0,0,0:
0000
0000
0000
0000
,
0000
0000
0000
0000
,
0000
0000
0000
0000
,
0000
0000
0000
0000
,
0001
0000
1000
0010
0001
0M00
0001
0000
0100
0000
0010
0000
1000
0001
1000
0000
,
0100
0000
0000
0000
0010
0000
0100
0000
1000
0000
0000
0000
0001
0000
0010
0000
0001
0000
0010
0000
0100
00M0
0100
0000
0001
0000
0000
0000
1000
0000
0000
0000
,
1010
0000
0001
0000
0001
0100
0000
0100
0001
0000
1000
0000
0100
0010
0000
0000
,
0001
0100
0020
0000
0001
0000
0130
0010
1000
0000
0001
1000
0001
1000
0100
0000
,
1100
0000
1000
0000
2001
0000
0000
0010
0000
3010
0100
0000
0010
0000
1000
0000
,
0100
0000
0100
0000
0010
0000
0000
1000
0000
1000
0010
0000
0100
0010
0100
0000
,
1001
0000
0001
0000
0100
0000
0010
0000
0100
0010
1000
0000
0100
0000
0010
0000
,
0011
0000
0001
0000
0010
1000
0000
1000
0000
1000
0010
0000
0100
0000
0000
0100
,
1000
0000
0001
0100
1000
0000
0100
0000
0010
0000
0001
0000
0010
0100
0001
0000
,
1000
0000
0000
0000
0000
0000
0100
0000
0001
0000
0100
0000
0001
0000
0000
0000
0000
0000
0100
0000
0000
1000
0000
0000
0100
0000
0000
1000
0000
0000
0001
0000
0100
0000
0001
0000
0100
0000
0000
0000
0000
0000
0001
0000
0000
0000
0000
0000
,
1000
0000
0100
0000
0001
1000
0000
1000
0000
1000
0001
0000
0100
1000
0001
0000
,
0100
0000
1000
0001
0000
0001
0000
0001
1000
0000
0100
0001
0000
1000
0001
0000
,
1000
0000
1010
0010
0200
1000
0000
0000
,
0301
0000
0001
0000
0011
0000
0010
0100
0000
0000
1000
0000
1100
0000
1000
0010
,
0000
0000
0001
0010
0100
0000
0001
0000
0100
0000
0100
0000
0001
0000
0000
0000
,
1000
0000
1000
0000
0100
0010
0000
0010
0000
0010
0001
0000
1001
0000
0000
0000
,
1000
0000
0001
0100
1000
00M0
1000
0000
0100
0000
0001
0000
1000
0010
0001
0000
,
0100
0000
0000
0000
0000
0000
0010
0000
0000
0M10
0000
0000
0001
0000
0000
0000
0000
0000
1000
0000
0000
0100
0000
0000
0010
0000
0000
1000
0000
0000
0010
0000
0100
0000
1000
0000
0001
0000
0000
0000
0000
0000
0100
0000
0000
0000
0000
0000
,
0010
1000
0001
0000
0010
0100
0000
0010
0000
0100
0010
0000
1000
0010
0000
0000
,
0100
0010
0002
0000
1000
0000
0103
0010
1000
0000
0010
0001
0000
0010
1000
0000
;
