#VERSION:0.83;
#TITLE:MANA;
#SUBTITLE:;
#ARTIST:DJ YOSHITAKA;
#TITLETRANSLIT:;
#SUBTITLETRANSLIT:;
#ARTISTTRANSLIT:;
#GENRE:;
#ORIGIN:;
#CREDIT:MANA;
#BANNER:MANA.png;
#BACKGROUND:MANA-bg.png;
#PREVIEWVID:;
#JACKET:MANA-jacket.png;
#CDIMAGE:;
#DISCIMAGE:;
#LYRICSPATH:;
#CDTITLE:;
#MUSIC:MANA.ogg;
#OFFSET:0.000000;
#SAMPLESTART:71.732994;
#SAMPLELENGTH:14.980000;
#SELECTABLE:YES;
#DISPLAYBPM:195.000000;
#BPMS:0.000=195.000;
#STOPS:;
#DELAYS:;
#WARPS:;
#TIMESIGNATURES:0.000=4=4;
#TICKCOUNTS:0.000=4;
#COMBOS:0.000=1;
#SPEEDS:0.000=1.000=0.000=0;
#SCROLLS:0.000=1.000;
#FAKES:;
#LABELS:0.000=Song Start;
#BGCHANGES:;
#KEYSOUNDS:;
#ATTACKS:
;

//---------------dance-single - ----------------
#NOTEDATA:;
#CHARTNAME:;
#STEPSTYPE:dance-single;
#DESCRIPTION:;
#CHARTSTYLE:;
#DIFFICULTY:Beginner;
#METER:5;
#RADARVALUES:0.178933,0.231041,0.067704,0.067704,0.000000,148.000000,140.000000,8.000000,8.000000,0.000000,0.000000,0.000000,0.000000,0.000000,0.178933,0.231041,0.067704,0.067704,0.000000,148.000000,140.000000,8.000000,8.000000,0.000000,0.000000,0.000000,0.000000,0.000000;
#CREDIT:MANA;
#DISPLAYBPM:195.000000;
#NOTES:
0000
0000
0000
0000
,
0000
0000
0000
0000
,
0000
0000
0000
0000
,
0000
0000
0000
0000
,
0000
0000
0000
0000
,
0000
0000
0000
0000
,
1000
0000
0000
0000
,
1000
0000
0000
0000
,
0001
0000
0000
0000
,
0001
0000
0000
0000
,
1000
0000
1000
0000
,
0001
0000
0001
0000
,
1000
0000
0001
0000
,
1000
0000
0001
0000
,
1000
0000
2000
0000
,
3000
0000
0001
0000
,
0002
0000
0003
0000
,
1000
1000
1000
0000
,
1001
0000
0000
0000
,
0000
0000
0000
0000
,
0000
0000
0000
0000
,
0000
0000
0000
0000
,
0000
0000
0000
0000
,
0000
0000
0000
0000
,
0000
0000
0000
0000
,
0000
0000
0002
0003
,
0001
0000
0001
0000
,
0001
0000
0000
0000
,
0100
0000
0100
0000
,
0100
0000
0000
0000
,
0010
0000
0010
0000
,
0010
0000
0000
0000
,
1000
0000
1000
0000
,
1000
0000
0000
0000
,
0001
0000
1000
0000
,
0001
0000
1000
0000
,
0010
0000
0100
0000
,
0010
0000
0100
0000
,
0010
0000
0000
0000
,
0100
0000
0010
0000
,
0100
0000
0000
0000
,
0010
0010
0010
0000
,
1000
0000
0001
0000
,
1000
0000
0001
0000
,
0100
0000
0010
0000
,
0100
0000
0010
0000
,
0100
0000
0001
0000
,
1000
0000
0000
0010
,
0010
0000
0100
0000
,
0010
0000
0100
0000
,
0001
0000
1000
0000
,
1001
0000
0000
0000
,
1000
0000
0001
0000
,
1001
0000
0000
0000
,
0001
0000
1000
0000
,
1001
0000
0000
0010
,
0010
0000
0100
0000
,
0010
0010
0020
0030
,
0000
0000
1000
0000
,
0100
0000
0010
0000
,
0000
0000
0001
0000
,
0010
0000
0100
0000
,
0000
0000
1001
0000
,
0010
0000
0100
0000
,
0000
0010
0010
0000
,
1000
0000
0001
0000
,
1000
0000
0001
0000
,
0100
0000
0010
0000
,
0000
0000
1000
0000
,
0010
0000
0100
0000
,
0000
0000
1001
0000
,
0100
0000
0010
0000
,
0000
0100
0100
0000
,
0000
0000
0010
0010
,
0020
0030
0000
0000
,
1001
0000
1000
0000
,
0100
0000
0010
0000
,
0001
0000
0010
0000
,
0100
0000
1000
0000
,
0001
0000
1000
0000
,
0010
0000
0100
0000
,
0001
0000
1000
0000
,
0001
0000
0100
0000
,
0020
0000
0030
0000
,
0020
0030
1000
1000
,
1000
0000
0100
0000
,
0010
0000
0001
0000
,
1001
0000
1000
0000
,
0010
0000
0100
0000
,
0001
0000
0010
0000
,
1000
0000
0100
0200
,
0300
0000
0000
0000
;

//---------------dance-single - ----------------
#NOTEDATA:;
#CHARTNAME:;
#STEPSTYPE:dance-single;
#DESCRIPTION:;
#CHARTSTYLE:;
#DIFFICULTY:Easy;
#METER:8;
#RADARVALUES:0.299833,0.385068,0.101556,0.279280,0.000000,248.000000,236.000000,12.000000,33.000000,0.000000,0.000000,0.000000,0.000000,0.000000,0.299833,0.385068,0.101556,0.279280,0.000000,248.000000,236.000000,12.000000,33.000000,0.000000,0.000000,0.000000,0.000000,0.000000;
#CREDIT:MANA;
#DISPLAYBPM:195.000000;
#NOTES:
0000
0000
0000
0000
,
0000
0000
0000
0000
,
0000
0000
0000
0000
,
0000
0000
0000
0000
,
0000
0000
0000
0000
,
0000
0000
0000
0000
,
1001
0000
1000
0000
,
0001
0000
1000
1000
,
1000
0000
0001
0000
,
1000
0000
0001
0001
,
1001
0000
1000
0000
,
0001
0000
0100
0000
,
0010
0000
1000
0000
,
0100
0000
0010
0000
,
0002
0003
2000
0000
,
0000
3000
0001
0001
,
0200
0000
0000
0000
0300
0000
0000
0010
,
0000
0010
0000
0010
0000
0000
2002
0000
,
3003
0000
0000
0000
,
0000
0000
0000
0000
,
0000
0000
0000
0000
,
0000
0000
0000
0000
,
1000
0000
0000
0000
,
0010
0000
0000
0000
,
0001
0000
0000
0000
,
0100
0000
2002
3003
,
1000
0010
1000
0000
,
0001
0010
0001
0000
,
1000
0100
1000
0000
,
0001
0100
0001
0000
,
1001
0100
0010
0000
,
0100
0010
0100
0000
,
0010
1000
0010
1000
,
0001
0100
0001
0100
,
0020
0030
1000
0001
,
0100
0000
0100
0001
,
1000
0000
1000
0001
,
0100
0000
0000
0100
0000
0000
0100
0000
,
0020
0030
0100
0010
,
0100
0000
0000
0100
0000
0000
0100
0000
,
0002
0003
0010
0000
,
0100
0000
1000
0002
,
1003
0000
0001
1000
,
0100
0000
0100
1000
,
0001
0000
0001
1000
,
0100
0000
0000
0100
0000
0000
0100
0000
,
0020
0030
0100
0010
,
0200
0000
0300
2000
,
3001
0000
0100
0000
,
0010
1000
0001
1000
,
1001
0000
0000
0001
0000
0001
0000
0001
,
0000
0100
0001
2000
,
3001
0000
0000
1000
0000
1000
0000
1000
,
0000
0010
1000
0002
,
1003
0000
0000
0001
0000
1000
0000
0001
,
0000
0100
0010
0200
,
0310
1000
0001
0200
,
0310
1000
0001
2002
,
3003
0000
0020
0030
,
1000
0100
0010
0000
,
0010
0000
0100
0000
1000
0000
0000
0010
,
0000
0001
0020
0030
,
2000
0000
3000
0000
0100
0000
0000
0010
,
0000
0010
0000
0010
0000
0000
0100
0000
,
1000
0001
1001
0010
,
0100
0010
1000
0100
,
0010
0001
0020
0030
,
0001
0100
0010
0000
,
0010
0000
0100
0000
0001
0000
0000
0010
,
0000
1000
0020
0030
,
0002
0000
0003
0000
0100
0000
0000
0010
,
0000
0010
0000
0010
0000
0000
0100
0000
,
0001
1000
1001
0010
,
0100
0010
1000
0100
,
0010
0001
0000
0000
,
2002
0000
0000
0000
,
0000
0000
0000
3003
,
1000
0010
0100
0001
,
0100
0010
1000
0001
,
1001
0000
1000
0100
,
0010
0001
0200
0300
,
0010
1000
0010
0100
,
0001
0010
0002
0003
,
2000
0000
3000
0100
,
0020
0030
0100
0100
,
1000
0010
0100
0010
,
0001
0010
0100
0010
,
1001
1000
0001
0010
,
0100
1000
0010
0100
,
0001
0010
1000
0010
,
0001
0100
1000
0200
,
0300
0000
0000
0000
;

//---------------dance-double - ----------------
#NOTEDATA:;
#CHARTNAME:;
#STEPSTYPE:dance-double;
#DESCRIPTION:;
#CHARTSTYLE:;
#DIFFICULTY:Easy;
#METER:8;
#RADARVALUES:0.296206,0.423575,0.118482,0.245428,0.000000,245.000000,231.000000,14.000000,29.000000,0.000000,0.000000,0.000000,0.000000,0.000000,0.296206,0.423575,0.118482,0.245428,0.000000,245.000000,231.000000,14.000000,29.000000,0.000000,0.000000,0.000000,0.000000,0.000000;
#CREDIT:MANA;
#DISPLAYBPM:195.000000;
#NOTES:
00000000
00000000
00000000
00000000
,
00000000
00000000
00000000
00000000
,
00000000
00000000
00000000
00000000
,
00000000
00000000
00000000
00000000
,
00000000
00000000
00000000
00000000
,
00000000
00000000
00000000
00000000
,
00011000
00000000
00001000
00000000
,
00010000
00000000
00001000
00001000
,
00001000
00000000
00010000
00000000
,
00001000
00000000
00010000
00010000
,
00011000
00000000
00001000
00000000
,
00100000
00000000
00010000
00000000
,
01000000
00000000
00001000
00000000
,
00010000
00000000
00000010
00000000
,
00002000
00003000
00000200
00000000
,
00000000
00000300
00010000
00010000
,
00002000
00000000
00000000
00000000
00003000
00000000
00000000
00010000
,
00000000
00010000
00000000
00010000
00000000
00000000
00022000
00000000
,
00033000
00000000
00000000
00000000
,
00000000
00000000
00000000
00000000
,
00000000
00000000
00000000
00000000
,
00000000
00000000
00000000
00000000
,
00001000
00000000
00000000
00000000
,
00010000
00000000
00000000
00000000
,
00100000
00000000
00000000
00000000
,
10000000
00000000
20020000
30030000
,
00010000
00000000
01000000
00000000
,
00001000
00010000
00001000
00000000
,
00000010
00000000
00000001
00000000
,
00000100
00000010
00000100
00000000
,
00001000
00000000
00010000
00000000
,
00100000
01000000
00100000
00000000
,
10000000
00000000
01000000
00000000
,
00010000
00001000
00010000
00001000
,
00020000
00030000
00000100
00001000
,
00000001
00000000
00000001
00001000
,
00000100
00000000
00000100
00000010
,
00000001
00000000
00000000
00000001
00000000
00000000
00000001
00000000
,
00000200
00000300
00001000
00010000
,
01000000
00000000
00000000
01000000
00000000
00000000
01000000
00000000
,
20000000
30000000
00100000
00000000
,
00010000
00000000
00001000
00010000
,
00002000
00003000
01000000
00010000
,
10000000
00000000
10000000
00010000
,
01000000
00000000
01000000
00100000
,
10000000
00000000
00000000
10000000
00000000
00000000
10000000
00000000
,
02000000
03000000
00010000
00001000
,
00020000
00000000
00030000
00000020
,
00000130
00000000
00000100
00000000
,
00000001
00000010
00000100
00001000
,
00001001
00000000
00000000
00000001
00000000
00000001
00000000
00000001
,
00000000
00000100
00001000
00010000
,
00011000
00000000
00000000
00001000
00000000
00001000
00000000
00001000
,
00000000
00010000
00100000
10000000
,
10010000
00000000
00000000
00010000
00000000
00010000
00000000
00010000
,
00000000
01000000
00100000
10000000
,
01000000
00100000
00010000
01000000
,
00100000
00010000
00001000
00022000
,
00033000
00000000
00000020
00000030
,
00001000
00000100
00000010
00000000
,
00000100
00000000
00000010
00000000
00000001
00000000
00000000
00000100
,
00000000
00001000
00020000
00030000
,
00002000
00000000
00003000
00000000
01000000
00000000
00000000
00100000
,
00000000
00100000
00000000
00100000
00000000
00000000
10000000
00000000
,
01000000
00100000
00110000
00010000
,
01000000
00100000
10000000
00100000
,
00010000
00001000
00200000
00300000
,
00010000
01000000
00100000
00000000
,
01000000
00000000
00100000
00000000
10000000
00000000
00000000
01000000
,
00000000
00010000
00002000
00003000
,
00020000
00000000
00030000
00000000
00000100
00000000
00000000
00000010
,
00000000
00000010
00000000
00000010
00000000
00000000
00000001
00000000
,
00000100
00000010
00001010
00001000
,
00000100
00000010
00001000
00010000
,
01000000
01100000
00000000
00000000
,
20020000
00000000
00000000
00000000
,
00000000
00000000
00000000
30030000
,
10000000
00100000
01000000
00010000
,
00100000
00001000
00010000
00000100
,
00000110
00000000
00000001
00000100
,
00001000
00010000
00002000
00003000
,
00010000
00001000
00010000
01000000
,
10000000
00100000
00020000
00030000
,
00002000
00000000
00003000
00000100
,
00000002
00000003
00000010
00000010
,
00000100
00000010
00000001
00001000
,
00000100
00000010
00001000
00010000
,
00011000
00001000
00010000
01000000
,
00100000
00010000
10000000
01000000
,
00100000
00010000
00001000
00000100
,
00000010
00000001
00000100
00002000
,
00003000
00000000
00000000
00000000
;

//---------------dance-single - ----------------
#NOTEDATA:;
#CHARTNAME:;
#STEPSTYPE:dance-single;
#DESCRIPTION:;
#CHARTSTYLE:;
#DIFFICULTY:Medium;
#METER:12;
#RADARVALUES:0.481184,0.652817,0.186187,0.330058,0.000000,398.000000,376.000000,22.000000,39.000000,9.000000,0.000000,0.000000,0.000000,0.000000,0.481184,0.652817,0.186187,0.330058,0.000000,398.000000,376.000000,22.000000,39.000000,9.000000,0.000000,0.000000,0.000000,0.000000;
#CREDIT:MANA;
#OFFSET:0.000000;
#BPMS:0.000000=195.000000
;
#STOPS:231.000000=0.307693
,296.000000=0.307693
;
#DELAYS:;
#WARPS:;
#TIMESIGNATURES:0.000000=4=4
;
#TICKCOUNTS:0.000000=4
;
#COMBOS:0.000000=1
;
#SPEEDS:0.000000=1.000000=0.000000=0
,72.000000=0.000000=0.000000=0
,72.020836=1.000000=15.979000=0
,100.000000=2.000000=4.000000=0
,298.000000=0.000000=0.000000=0
,298.020844=1.000000=7.979000=0
;
#SCROLLS:0.000000=1.000000
,72.000000=0.500000
,298.000000=1.000000
,361.000000=0.000000
,362.000000=1.000000
;
#FAKES:;
#LABELS:0.000000=Song Start
;
#DISPLAYBPM:195.000000;
#NOTES:
0000
0000
0000
0000
,
0000
0000
0000
0000
,
0000
0000
0000
0000
,
0000
0000
0000
0000
,
0000
0000
0000
0000
,
0000
0000
0000
0000
,
1001
1000
0010
0100
,
0001
0000
0010
0000
0100
0000
1000
0010
,
1000
0000
0001
0100
0000
0100
0000
0010
,
0000
0010
1000
0000
0100
0010
0200
0000
,
0310
0000
0010
0000
0001
0000
0100
0010
,
0000
0100
0001
0000
0100
0010
1000
0000
,
0001
0000
0010
0000
0100
0000
1000
0010
,
0000
0100
0010
0000
0100
0001
1000
0000
,
1001
0001
0100
0010
,
1000
0000
0001
0000
0010
0000
0100
0010
,
0100
0000
1000
0000
0010
0000
0100
0001
,
0000
0001
0000
1000
0000
1000
0010
0000
,
1001
0000
0000
0000
,
0000
0000
0000
0000
,
0000
0000
0000
0000
,
0000
0000
0000
0000
,
2000
0000
0000
3000
,
0200
0000
0000
0300
,
0020
0000
0000
0030
,
0002
0000
0000
0000
0103
0010
0100
0000
,
0110
0000
0010
0000
1000
0000
0010
0100
,
0000
0001
0000
0100
0000
0010
0100
0020
,
0000
1030
1000
0000
0100
0000
0010
0001
,
0000
0010
0000
0100
0000
1000
0100
1000
,
0002
0000
0103
0000
0100
0000
0010
1000
,
0000
0010
0000
0100
0000
0001
0100
0002
,
0000
0013
0010
0000
0100
0000
1000
0010
,
0200
0302
2003
3010
,
0110
0100
0001
0010
,
0100
1000
0000
0100
0000
0100
0000
0010
,
0000
0001
0100
0000
0001
0000
2000
0000
,
3010
0000
0010
0100
0000
0010
1000
0010
,
0100
0000
0001
0000
1000
0001
1000
0000
,
0001
0000
0100
0010
0000
0100
0001
0100
,
0010
0000
1000
0000
0001
1000
0001
0000
,
0010
0000
0100
1000
0100
1000
0001
0010
,
0002
1003
1000
0010
,
0100
0001
0000
0100
0000
0100
0000
0010
,
0000
1000
0100
0000
1000
0000
0002
0000
,
0013
0000
0010
0001
0000
0010
0100
0010
,
0001
0000
1000
0100
0000
0010
0100
1000
,
0100
0000
1000
0001
0000
0010
0001
1000
,
0001
1000
0010
0100
,
0001
0020
0230
2300
,
3001
0000
0000
0101
0000
1000
0000
1100
,
0000
0001
0100
0000
0001
0010
0200
0000
,
1300
0000
0000
1010
0000
0001
0000
0011
,
0000
1000
0010
0000
1000
0100
0020
0000
,
0031
0000
0000
0101
0000
1100
0000
0101
,
0000
1000
0100
0000
0010
0100
1000
0001
,
0000
0100
0010
0000
1000
0001
0010
0100
,
0000
1000
0001
0100
0010
2000
3MM1
0000
,
0002
0000
1003
0000
1000
0010
0000
0100
,
0000
0120
0000
0000
0000
0000
1030
0000
,
0100
0000
0010
0000
0001
0100
0000
1000
,
0100
0002
0013
0200
,
1300
0000
1010
0000
0010
0100
0000
0001
,
0000
2001
0000
0000
3010
0000
0100
0000
,
0020
1030
0100
0001
,
0100
0000
1000
0100
0010
0001
0100
0010
,
2000
0000
3001
0000
0001
0010
0000
0100
,
0000
0120
0000
0000
0000
0000
0031
0000
,
0100
0000
0010
0000
1000
0100
0000
0001
,
0100
2000
3010
0200
,
0301
0000
0011
0000
0010
0100
0000
1000
,
0000
1002
0000
0000
0013
0000
0100
0000
,
0020
0031
0100
1000
,
0100
0001
0000
0011
0000
1100
0000
1000
,
0010
MMMM
2002
0000
,
0000
0000
0000
0000
,
0000
3003
1000
0010
,
0001
0010
0100
1000
,
0100
0001
1001
1000
,
0010
0000
0100
0000
0001
0010
0100
1000
,
0020
0000
0030
0000
0100
0001
0100
0010
,
1000
0010
0100
0001
1000
0100
0010
0002
,
0000
0000
0203
0000
,
0000
0000
1300
0100
0010
0000
0100
0001
,
0010
0100
0020
0000
0031
0100
0010
0000
,
0001
0010
0100
0000
1000
0100
0010
0000
,
1000
0010
0100
0000
1000
0100
0001
0010
,
0100
1000
0010
1000
0001
0100
0001
0010
,
0100
1000
0010
1000
0001
0100
0001
0010
,
0100
0001
0100
1000
0100
0010
0001
0010
,
1000
0010
0002
0000
0000
0000
MMM3
0000
;

//---------------dance-double - ----------------
#NOTEDATA:;
#CHARTNAME:;
#STEPSTYPE:dance-double;
#DESCRIPTION:;
#CHARTSTYLE:;
#DIFFICULTY:Medium;
#METER:12;
#RADARVALUES:0.466676,0.652817,0.160798,0.355447,0.000000,386.000000,367.000000,19.000000,42.000000,20.000000,0.000000,0.000000,0.000000,0.000000,0.466676,0.652817,0.160798,0.355447,0.000000,386.000000,367.000000,19.000000,42.000000,20.000000,0.000000,0.000000,0.000000,0.000000;
#CREDIT:MANA;
#OFFSET:0.000000;
#BPMS:0.000000=195.000000
;
#STOPS:231.000000=0.307693
,296.000000=0.307693
;
#DELAYS:;
#WARPS:;
#TIMESIGNATURES:0.000000=4=4
;
#TICKCOUNTS:0.000000=4
;
#COMBOS:0.000000=1
;
#SPEEDS:0.000000=1.000000=0.000000=0
,72.000000=0.000000=0.000000=0
,72.020836=1.000000=15.979000=0
,100.000000=2.000000=4.000000=0
,298.000000=0.000000=0.000000=0
,298.020844=1.000000=7.979000=0
;
#SCROLLS:0.000000=1.000000
,72.000000=0.500000
,298.000000=1.000000
,361.000000=0.000000
,362.000000=1.000000
;
#FAKES:;
#LABELS:0.000000=Song Start
;
#DISPLAYBPM:195.000000;
#NOTES:
00000000
00000000
00000000
00000000
,
00000000
00000000
00000000
00000000
,
00000000
00000000
00000000
00000000
,
00000000
00000000
00000000
00000000
,
00000000
00000000
00000000
00000000
,
00000000
00000000
00000000
00000000
,
00011000
00010000
00000100
00001000
,
00000010
00000000
00010000
00000000
00001000
00000000
01000000
00010000
,
01000000
00000000
00010000
00100000
00000000
00001000
00000000
00010000
,
00000000
00000100
00001000
00000000
00000010
00001000
00000020
00000000
,
00000130
00000000
00000100
00000000
00000001
00000000
00000010
00000001
,
00000000
00001000
00000001
00000000
00000010
00000001
00000100
00000000
,
00001000
00000000
00010000
00000000
00100000
00000000
10000000
01000000
,
00000000
10000000
00010000
00000000
10000000
01000000
00100000
00000000
,
00110000
00010000
01000000
00001000
,
00010000
00000000
00000010
00000000
00001000
00000000
00000100
00000010
,
00000100
00000000
00000010
00000000
00000001
00000000
00001000
00000010
,
00000000
00000100
00000000
00001000
00000000
00010000
00001000
00000000
,
00011000
00000000
00000000
00000000
,
00000000
00000000
00000000
00000000
,
00000000
00000000
00000000
00000000
,
00000000
00000000
00000000
00000000
,
00020000
00000000
00000000
00030000
,
00002000
00000000
00000000
00003000
,
00200000
00000000
00000000
00300000
,
02000000
00000000
00000000
00000000
13000000
00010000
10000000
00000000
,
10010000
00000000
00010000
00000000
01000000
00000000
00100000
01000000
,
00000000
00100000
00000000
00010000
00000000
00001000
00010000
00002000
,
00000000
00103000
00010000
00000000
01000000
00000000
00001000
00010000
,
00000000
00000100
00000000
00001000
00000000
00000001
00000100
00000010
,
00002000
00000000
00003001
00000000
00000001
00000000
00000010
00000100
,
00000000
00000010
00000000
00001000
00000000
00010000
00001000
00020000
,
00000000
00030010
00001000
00000000
00000100
00000000
00010000
00001000
,
00020000
02030000
23000000
30010000
,
10010000
00010000
01000000
00100000
,
10000000
00010000
00000000
00100000
00000000
00100000
00000000
01000000
,
00000000
00010000
00001000
00000000
00010000
00000000
00000200
00000000
,
00001300
00000000
00001000
00000010
00000000
00000001
00000010
00000000
,
00000100
00000000
00001000
00000000
00010000
00001000
00010000
00000000
,
01000000
00000000
10000000
00100000
00000000
00010000
00100000
00000000
,
10000000
00000000
01000000
00000000
00100000
01000000
00100000
00000000
,
00010000
00000000
01000000
00000000
00001000
00010000
00001000
00010000
,
00000020
00001030
00000100
00000010
,
00000001
00001000
00000000
00000010
00000000
00000010
00000000
00000100
,
00000000
00001000
00010000
00000000
00001000
00000000
02000000
00000000
,
03010000
00000000
00010000
00100000
00000000
10000000
00100000
00000000
,
00010000
00000000
01000000
00001000
00000000
00010000
00000100
00000000
,
00001000
00000000
00000010
00000001
00000000
00000010
00001000
00000000
,
00000100
00000010
00000001
00000100
,
00001000
00020000
00001000
00031000
,
00011000
00000000
00000000
00001000
00000000
01000000
00000000
01001000
,
00000000
00001000
00010000
00000000
00000100
00001000
00000020
00000000
,
00010030
00000000
00000000
00010000
00000000
00000100
00000000
00010100
,
00000000
00010000
00001000
00000000
01000000
00010000
00200000
00000000
,
00301000
00000000
00000000
00011000
00000000
00001000
00000000
00101000
,
00000000
00100000
00010000
00000000
00100000
01000000
10000000
00100000
,
00000000
01000000
00001000
00000000
00010000
00000100
00001000
00000010
,
00000000
00000100
00000001
00001000
00000010
00020000
MMM31MMM
00000000
,
00002000
00000000
00013000
00000000
00010000
01000000
00000000
10000000
,
00000000
10200000
00000000
00000000
00000000
00000000
01300000
00000000
,
00100000
00000000
00010000
00000000
00001000
00100000
00000000
01000000
,
00010000
00002000
00103000
00200000
,
01300000
00000000
11000000
00000000
10000000
00100000
00000000
00010000
,
00000000
00012000
00000000
00000000
00003010
00000000
00000100
00000000
,
00000020
00000031
00000100
00001000
,
00000100
00000000
00000001
00000010
00000100
00001000
00000010
00000000
,
00020000
00000000
00031000
00000000
00001000
00000100
00000000
00000001
,
00000000
00000021
00000000
00000000
00000000
00000000
00000130
00000000
,
00000010
00000000
00001000
00000000
00010000
00000010
00000000
00000100
,
00001000
00020000
00030010
00000020
,
00000130
00000000
00000101
00000000
00000001
00000010
00000000
00001000
,
00000000
00021000
00000000
00000000
00130000
00000000
01000000
00000000
,
00200000
10300000
01000000
00010000
,
01000000
20000000
00000000
30200000
00000000
00320000
00000000
00001000
,
00031000
MMMMMMMM
00022000
00000000
,
00000000
00000000
00000000
00000000
,
00000000
00033000
00001000
00000100
,
00001000
00010000
01000000
00010000
,
00001000
00000010
00000012
00001003
,
00001000
00000000
00000010
00000000
00010000
00001000
00010000
00001000
,
02000000
00000000
03000000
00000000
00010000
00100000
00010000
00100000
,
01000000
10000000
01000000
10000000
00100000
01000000
00010000
00200000
,
00000000
00000000
00302000
00000000
,
00000000
00000000
00003010
00000001
00000100
00000000
00001000
00000100
,
00000010
00000100
00002000
00000000
00013000
01000000
10000000
00000000
,
10000000
00100000
00010000
00000000
00001000
00000100
00000001
00000000
,
00000001
00000010
00001000
00000000
00010000
00001000
00000100
00001000
,
00010000
01000000
10000000
00000000
00100000
00010000
00001000
00010000
,
00000100
00000010
00000001
00000000
00001000
00000010
00000100
00000001
,
00000010
00000100
00010000
00001000
00100000
01000000
10000000
00100000
,
00010000
00001000
MMM22MMM
00000000
00000000
00000000
00033000
00000000
;

//---------------dance-single - ----------------
#NOTEDATA:;
#CHARTNAME:;
#STEPSTYPE:dance-single;
#DESCRIPTION:;
#CHARTSTYLE:;
#DIFFICULTY:Hard;
#METER:14;
#RADARVALUES:0.583949,0.813086,0.423151,0.600875,0.033852,483.000000,433.000000,50.000000,71.000000,8.000000,0.000000,0.000000,0.000000,0.000000,0.583949,0.813086,0.423151,0.600875,0.033852,483.000000,433.000000,50.000000,71.000000,8.000000,0.000000,0.000000,0.000000,0.000000;
#CREDIT:MANA;
#OFFSET:0.000000;
#BPMS:0.000000=195.000000
,231.000000=390.000000
,233.000000=195.000000
,297.000000=390.000000
,299.000000=195.000000
;
#STOPS:231.000000=0.307693
,297.000000=0.615387
;
#DELAYS:;
#WARPS:364.000000=2.000000
;
#TIMESIGNATURES:0.000000=4=4
;
#TICKCOUNTS:0.000000=4
;
#COMBOS:0.000000=1
;
#SPEEDS:0.000000=1.000000=0.000000=0
,72.000000=0.000000=0.000000=0
,72.020836=1.000000=15.978996=0
,100.000000=2.000000=4.000000=0
,299.000000=0.000000=0.000000=0
,299.020844=1.000000=7.979004=0
;
#SCROLLS:0.000000=1.000000
,72.000000=0.500000
,299.000000=1.000000
,362.000000=0.000000
,364.000000=1.000000
;
#FAKES:;
#LABELS:0.000000=Song Start
;
#DISPLAYBPM:195.000000;
#NOTES:
0000
0000
0000
0000
,
0000
0000
0000
0000
,
0000
0000
0000
0000
,
0000
0000
0000
0000
,
0000
0000
0000
0000
,
0000
0000
0000
0000
,
1001
0000
1000
0010
0000
0010
0100
0001
,
0000
0000
0001
0000
0010
0000
0000
0000
0001
0000
0000
0001
0000
0000
0001
0000
,
1000
0000
0001
0010
0000
0010
0100
1000
,
0000
1000
0010
0100
0001
1000
0100
0010
,
0002
1003
1000
0010
0100
0000
0010
1000
,
0000
0010
0100
0001
0010
0100
2000
0000
,
3001
0100
0010
0100
0001
0000
0100
0010
,
0000
0100
0001
0010
0100
1000
0001
0000
,
2001
0000
3010
0000
0010
0100
0001
0000
,
1000
0000
0000
0000
0100
0000
0000
0000
0010
0000
0000
0010
0000
0000
0010
0000
,
0001
0000
1000
0010
0100
0001
0010
0010
,
0000
1100
0000
1001
0000
0001
0101
0000
,
1001
0000
0000
0000
,
0000
0000
0000
0000
,
0000
0000
0000
0000
,
0000
0000
0000
0000
,
2000
0000
0000
3000
,
0020
0000
0000
0030
,
0002
0000
0000
0003
,
0200
0000
0000
0000
0000
0000
0000
0000
1300
0000
0001
1000
0002
0000
0000
0000
,
0103
0010
1000
0000
1100
0000
0100
0020
,
0000
0001
0000
0100
0000
0001
0000
0130
,
0000
0010
0001
0000
0101
0000
0100
0020
,
0000
1000
0000
0100
0000
1030
0010
0100
,
0101
0000
1001
0000
1010
0000
0010
0200
,
0000
1000
0000
0010
0000
1000
0000
0310
,
0000
0100
0001
0000
0011
0000
0010
0200
,
0000
1300
0100
0000
1000
0010
0100
0001
,
1001
0000
1000
0010
0100
0010
1000
0000
,
0001
0000
1000
0100
0010
0100
1000
0000
,
0001
0000
1000
0010
0001
0010
1000
0000
,
0200
0000
0310
0100
0000
0100
1000
0010
,
0200
0000
0301
0000
0001
0010
0200
0000
,
0310
0000
0010
0001
0000
0001
0100
0010
,
1000
0000
1001
0000
0001
0100
0010
0100
,
0000
1000
0100
0010
0100
0001
0010
0100
,
1000
0000
0001
0010
0100
0010
0001
0000
,
1000
0000
0001
0100
0010
0100
0001
0000
,
1000
0000
0001
0010
1000
0010
0001
0000
,
0100
0000
0010
0200
0000
0310
1000
0100
,
0020
0000
0031
0200
0000
0310
1000
0001
,
0020
0000
0130
2000
0000
3001
0100
0010
,
0002
0000
0013
2000
0000
3100
0010
0001
,
1000
0010
0100
0001
1000
0100
0010
0001
,
0202
0303
0000
0011
0000
0100
0000
1100
,
0000
1000
0010
0000
0001
0010
1000
0000
,
2020
3030
0000
1100
0000
0010
0000
0011
,
0000
0001
0100
0000
1000
0100
0001
0000
,
0022
0033
0000
0101
0000
1010
1000
0200
,
0000
0310
0001
0000
0010
0100
2000
0001
,
3000
0001
0200
0000
1300
0100
0001
0010
,
0100
1000
0001
0100
0010
1000
2002
0000
,
3003
0000
MMMM
0000
1001
0000
0001
0101
,
0000
1100
0000
0202
0000
0000
0303
0000
,
0001
0010
0100
0000
1100
0000
1000
0010
,
0000
0001
0010
0100
0120
0000
1030
0000
,
0210
0000
0301
0000
0011
0000
0010
0001
,
0000
0101
0000
1010
0000
1000
0100
1000
,
0001
0010
0002
0000
0203
0000
1300
0100
,
0010
1000
0100
0010
0000
0001
0010
0100
,
0010
0001
1000
0001
1001
0000
1000
1100
,
0000
0101
0000
2200
0000
0000
3300
0000
,
1000
0010
0100
0000
0101
0000
0001
0010
,
0000
1000
0010
0100
0120
0000
0031
0000
,
0210
0000
1300
0000
1010
0000
0010
1000
,
0000
1100
0000
0011
0000
0001
0100
0001
,
1000
0010
2000
0000
3200
0000
0301
0100
,
0010
0001
0100
0010
0000
1010
0000
0101
,
0001
1000
1001
0000
MMMM
0000
2002
0000
,
0000
0000
0000
0000
,
0000
0000
3003
0002
,
0203
0320
2030
3200
,
0302
2003
3020
0032
,
0000
0000
0000
0000
0000
0000
0000
0000
0000
0000
0013
0100
0010
0000
0001
0000
,
0010
0100
2000
0000
0000
0000
3001
0100
,
0010
1000
0100
0001
0100
1000
0010
0001
,
0010
0200
0000
0000
0300
0000
0120
0000
,
0000
0000
0000
0000
1030
0100
0002
0000
,
0103
1000
0010
0100
0020
0000
0130
0001
,
0010
0001
0010
0000
0001
0000
0100
0000
0010
0100
0010
0000
0100
0000
0010
0000
,
1000
0100
1000
0000
0100
0000
0010
0000
0001
1000
0001
0000
2000
0000
0010
0000
,
3010
0100
0001
0010
0100
1000
0010
0001
,
1000
0100
0001
0010
0100
1000
0020
0130
,
0200
0301
0002
1003
2000
3100
0200
0310
,
0020
0031
0002
1003
2002
0000
0000
0000
,
0000
0000
3003
0000
;

//---------------dance-double - ----------------
#NOTEDATA:;
#CHARTNAME:;
#STEPSTYPE:dance-double;
#DESCRIPTION:;
#CHARTSTYLE:;
#DIFFICULTY:Hard;
#METER:14;
#RADARVALUES:0.564605,0.658212,0.330058,0.575486,0.012695,467.000000,428.000000,39.000000,68.000000,16.000000,0.000000,0.000000,0.000000,0.000000,0.564605,0.658212,0.330058,0.575486,0.012695,467.000000,428.000000,39.000000,68.000000,16.000000,0.000000,0.000000,0.000000,0.000000;
#CREDIT:MANA;
#OFFSET:0.000000;
#BPMS:0.000000=195.000000
,231.000000=390.000000
,233.000000=195.000000
,297.000000=390.000000
,299.000000=195.000000
;
#STOPS:231.000000=0.307693
,297.000000=0.615387
;
#DELAYS:;
#WARPS:364.000000=2.000000
;
#TIMESIGNATURES:0.000000=4=4
;
#TICKCOUNTS:0.000000=4
;
#COMBOS:0.000000=1
;
#SPEEDS:0.000000=1.000000=0.000000=0
,72.000000=0.000000=0.000000=0
,72.020836=1.000000=15.978996=0
,100.000000=2.000000=4.000000=0
,299.000000=0.000000=0.000000=0
,299.020844=1.000000=7.979004=0
;
#SCROLLS:0.000000=1.000000
,72.000000=0.500000
,299.000000=1.000000
,362.000000=0.000000
,364.000000=1.000000
;
#FAKES:;
#LABELS:0.000000=Song Start
;
#DISPLAYBPM:195.000000;
#NOTES:
00000000
00000000
00000000
00000000
,
00000000
00000000
00000000
00000000
,
00000000
00000000
00000000
00000000
,
00000000
00000000
00000000
00000000
,
00000000
00000000
00000000
00000000
,
00000000
00000000
00000000
00000000
,
00011000
00000000
00010000
00000100
00000000
00000100
00001000
00000010
,
00000000
00000000
00000010
00000000
00000100
00000000
00000000
00000000
00000001
00000000
00000000
00000001
00000000
00000000
00000001
00000000
,
00001000
00000000
00000010
00010000
00000000
00010000
00001000
00100000
,
00000000
00100000
00010000
00100000
01000000
10000000
00010000
01000000
,
00002000
00013000
00010000
00000010
00001000
00000000
00001000
00000100
,
00000000
00000100
00000010
00000001
00001000
00000100
00000020
00000000
,
00000031
00001000
00000100
00010000
00001000
00000000
00001000
00100000
,
00000000
00100000
00010000
00100000
01000000
10000000
00100000
00000000
,
02100000
00000000
03010000
00000000
00010000
00100000
01000000
00000000
,
00010000
00000000
00000000
00000000
00001000
00000000
00000000
00000000
00000010
00000000
00000000
00000010
00000000
00000000
00000010
00000000
,
00000001
00000000
00001000
00000010
00000100
00000001
00001000
00001000
,
00000000
00001100
00000000
00010100
00000000
00010000
00001000
00000000
,
00011000
00000000
00000000
00000000
,
00000000
00000000
00000000
00000000
,
00000000
00000000
00000000
00000000
,
00000000
00000000
00000000
00000000
,
00020000
00000000
00000000
00030000
,
00002000
00000000
00000000
00003000
,
00000200
00000000
00000000
00000300
,
00000002
00000000
00000000
00000000
00000000
00000000
00000000
00000000
00001003
00000000
00001000
00000100
00002000
00000000
00000000
00000000
,
00003010
00000100
00000010
00000000
00000110
00000000
00000100
00000002
,
00000000
00000023
00000000
00002030
00000000
00023000
00000000
01030000
,
00000000
01000000
00100000
00000000
01100000
00000000
01000000
20000000
,
00000000
30200000
00000000
00320000
00000000
00031000
00010000
00000100
,
00001100
00000000
00000001
00000000
00000101
00000000
00000100
00000020
,
00000000
00002030
00000000
00023000
00000000
02030000
00000000
03100000
,
00000000
00100000
10000000
00000000
11000000
00000000
01000000
00020000
,
00000000
00031000
00000100
00000000
00000100
00000001
00000010
00000100
,
00001000
00000000
00000001
00000100
00000010
00001000
00000100
00000000
,
00010000
00000000
00000100
00001000
00000010
00000100
00000001
00000000
,
00001000
00000000
00000001
00000100
00000010
00010000
00001000
00000000
,
00020000
00000000
00030010
00000100
00000000
00001000
00000100
00000001
,
00000020
00000000
00000130
00000000
00000100
00000010
00000002
00000000
,
00001003
00000000
00001000
00000010
00000000
00000001
00000010
00001000
,
00000100
00000000
00000110
00000000
00000010
00000001
00000010
00000100
,
00000000
00001000
00000100
00010000
00001000
00100000
00010000
10000000
,
00010000
00000000
10000000
01000000
00100000
00010000
01000000
00000000
,
00001000
00000000
01000000
00010000
00100000
01000000
10000000
00000000
,
00010000
00000000
10000000
01000000
00100000
00001000
00010000
00000000
,
00002000
00000000
00103000
01000000
00000000
00010000
01000000
10000000
,
00200000
00000000
00310000
00001000
00000000
00010000
00100000
10000000
,
02000000
00000000
03010000
00001000
00000000
00010000
01000000
10000000
,
00200000
00000000
00310000
00001000
00000000
00010000
00001000
00000100
,
00000001
00000010
00000100
00001000
00000010
00000100
00001000
00010000
,
00022000
00033000
00000000
00101000
00000000
01000000
00000000
01010000
,
00000000
10000000
00100000
00000000
00010000
00001000
00010000
00000000
,
00022000
00033000
00000000
00010010
00000000
00000100
00000000
00001100
,
00000000
00000001
00000010
00000000
00001000
00010000
00001000
00000000
,
00022000
00033000
00000000
01001000
00000000
00010100
00010000
00002000
,
00000000
00103000
00010000
00000000
10000000
00100000
02000000
00010000
,
03000000
00010000
00200000
00000000
01300000
00010000
00001000
00000010
,
00000001
00000100
00000010
00001000
00000100
00010000
00022000
00000000
,
00033000
00000000
MMMMMMMM
00000000
00011000
00000000
00001000
00100000
,
00000000
00110000
00000000
22000000
00000000
00000000
33000000
00000000
,
10000000
00100000
01000000
00000000
01010000
00000000
00010000
00100000
,
00000000
01000000
00100000
00001000
00020000
00000000
00030010
00000000
,
00002000
00000000
00103000
00000000
00011000
00000000
00010000
00000100
,
00000000
00001100
00000000
00000011
00000000
00000001
00000100
00000010
,
00000100
00001000
00020000
00000000
00030200
00000000
00000310
00001000
,
00010000
01000000
00100000
00010000
00000000
00010000
01000000
00100000
,
10000000
01000000
00010000
00001000
00011000
00000000
00010000
00000010
,
00000000
00001010
00000000
00000202
00000000
00000000
00000303
00000000
,
00000001
00000010
00000100
00000000
00001100
00000000
00001000
00000010
,
00000000
00000100
00000010
00010000
00002000
00000000
00103000
00000000
,
00020000
00000000
00030010
00000000
00011000
00000000
00001000
01000000
,
00000000
01010000
00000000
10100000
00000000
10000000
01000000
00100000
,
01000000
00010000
00002000
00000000
00203000
00000000
01300000
00010000
,
00001000
00000010
00000100
00001000
00000000
00001001
00000000
00000001
,
00000100
00001000
00011000
00000000
MMMMMMMM
00000000
00022000
00000000
,
00000000
00000000
00000000
00000000
,
00000000
00000000
00033000
02000000
,
03200000
00320000
00032000
00003200
,
00000302
00000023
00002030
00023000
,
00000000
00000000
00000000
00000000
00000000
01030000
01000000
10000000
,
00100000
00010000
00002000
00000000
00000000
00000000
01003000
00100000
,
00010000
00001000
00000100
00000010
00001000
00000100
00000010
00000001
,
00000100
00002000
00000000
00000000
00003000
00000000
00021000
00000000
,
00000000
00000000
00000000
00000000
00130000
00010000
00002000
00000000
,
00013000
01000000
10000000
00100000
00020000
00000000
00031000
00010000
,
00100000
00100000
00010000
00001000
00000010
00000010
00001000
00010000
,
01000000
01000000
00010000
00001000
00000100
00000100
00000002
00001000
,
00001003
00000100
00000010
00000001
00001000
00000010
00010000
00100000
,
10000000
01000000
00100000
00010000
01000000
00001000
00000100
00000001
,
00000010
00000100
00001000
00000010
00000100
00001000
00010000
00000100
,
00001000
00010000
00100000
01000000
20000000
00000000
00000000
00000000
,
00000000
00000000
30000000
00000000
;

//---------------dance-single - ----------------
#NOTEDATA:;
#CHARTNAME:;
#STEPSTYPE:dance-single;
#DESCRIPTION:;
#CHARTSTYLE:;
#DIFFICULTY:Challenge;
#METER:17;
#RADARVALUES:0.741120,1.277706,0.516245,0.787062,0.279280,613.000000,552.000000,61.000000,93.000000,34.000000,0.000000,3.000000,0.000000,0.000000,0.741120,1.277706,0.516245,0.787062,0.279280,613.000000,552.000000,61.000000,93.000000,34.000000,0.000000,3.000000,0.000000,0.000000;
#CREDIT:MANA;
#OFFSET:0.000000;
#BPMS:0.000000=195.000000
,231.000000=390.000000
,233.000000=195.000000
,297.000000=390.000000
,299.000000=195.000000
;
#STOPS:231.000000=0.307693
,297.000000=0.615387
;
#DELAYS:;
#WARPS:364.000000=2.000000
;
#TIMESIGNATURES:0.000000=4=4
;
#TICKCOUNTS:0.000000=4
;
#COMBOS:0.000000=1
;
#SPEEDS:0.000000=1.000000=0.000000=0
,24.000000=999.000000=0.000000=0
,24.125000=1.000000=0.000000=0
,40.000000=999.000000=0.000000=0
,40.125000=1.000000=0.000000=0
,56.000000=999.000000=0.000000=0
,56.125000=1.000000=0.000000=0
,71.000000=999.000000=0.000000=0
,71.125000=1.000000=0.000000=0
,72.000000=0.000000=0.000000=0
,72.020836=1.000000=15.978996=0
,100.000000=2.000000=4.000000=0
,136.000000=999.000000=0.000000=0
,136.125000=2.000000=0.000000=0
,234.000000=999.000000=0.000000=0
,234.250000=2.000000=0.000000=0
,266.000000=999.000000=0.000000=0
,266.125000=2.000000=0.000000=0
,299.000000=0.000000=0.000000=0
,299.020844=1.000000=7.979004=0
;
#SCROLLS:0.000000=1.000000
,67.500000=2.000000
,67.750000=0.000000
,68.000000=1.000000
,68.500000=2.000000
,68.750000=0.000000
,69.000000=1.000000
,69.500000=2.000000
,69.750000=0.000000
,70.000000=1.000000
,72.000000=0.500000
,200.000000=1.000000
,200.250000=0.000000
,200.500000=0.500000
,201.500000=1.000000
,201.750000=0.000000
,202.000000=0.500000
,202.500000=1.000000
,202.750000=0.000000
,203.000000=0.500000
,203.500000=1.000000
,203.750000=0.000000
,204.000000=0.500000
,208.000000=1.000000
,208.250000=0.000000
,208.500000=0.500000
,209.500000=1.000000
,209.750000=0.000000
,210.000000=0.500000
,210.500000=1.000000
,210.750000=0.000000
,211.000000=0.500000
,211.500000=1.000000
,211.750000=0.000000
,212.000000=0.500000
,216.000000=1.000000
,216.250000=0.000000
,216.500000=0.500000
,217.500000=1.000000
,217.750000=0.000000
,218.000000=0.500000
,293.500000=1.000000
,293.750000=0.000000
,294.000000=0.500000
,294.500000=1.000000
,294.750000=0.000000
,295.000000=0.500000
,299.000000=1.000000
,362.000000=0.000000
,364.000000=1.000000
;
#FAKES:;
#LABELS:0.000000=Song Start
;
#DISPLAYBPM:195.000000;
#NOTES:
// measure 0
0000
0000
0000
0000
,  // measure 1
0000
0000
0000
0000
,  // measure 2
0000
0000
0000
0000
,  // measure 3
0000
0000
0000
0000
,  // measure 4
0000
0000
0000
0000
,  // measure 5
0000
0000
0000
0000
,  // measure 6
1001
0000
1000
0020
0000
1030
0100
0020
,  // measure 7
0000
0000
0031
0000
0100
0000
0010
0000
1000
0001
0000
1000
0001
0000
0010
0000
,  // measure 8
0200
0000
1300
0020
0000
0130
0001
0100
,  // measure 9
0010
1000
0010
0100
0001
0010
0100
1000
,  // measure 10
1001
0001
0100
0001
0020
0000
0031
0200
,  // measure 11
0000
0000
0301
1000
0001
0000
0010
0000
0100
0000
1000
0000
0020
0000
0000
0000
,  // measure 12
1030
1000
0010
1000
0200
0000
1300
0020
,  // measure 13
0000
0000
1030
0001
1000
0000
0100
0000
0010
0000
0001
0000
0100
0000
0010
0000
,  // measure 14
0110
0000
1001
0000
1000
0010
0100
0000
,  // measure 15
1000
0000
0000
0000
0100
0000
0000
0000
0001
0000
0100
0010
0000
0100
0010
0000
,  // measure 16
0001
0010
1000
0100
0001
0100
1000
1010
,  // measure 17
0000
0011
0000
0101
0000
0100
1100
0000
,  // measure 18
2002
0000
0000
0000
,  // measure 19
0000
0000
0000
0000
,  // measure 20
0000
0000
0000
0000
,  // measure 21
3000
0000
0000
0000
,  // measure 22
0023
0000
0230
0000
,  // measure 23
2300
0000
3020
0000
,  // measure 24
0032
0000
0203
0000
,  // measure 25
2300
0000
0000
0000
0000
0000
0000
0000
3010
0100
0010
0100
0020
0000
0000
0000
,  // measure 26
0130
0001
0011
0000
0001
0100
0010
2000
,  // measure 27
0100
3002
0010
2003
0100
3002
1000
1003
,  // measure 28
0000
1000
1010
0000
1000
0100
0010
0002
,  // measure 29
0100
2003
0010
3002
0100
2003
0001
3001
,  // measure 30
1001
0000
1000
0010
0110
0000
0100
0001
,  // measure 31
0020
0100
0032
0100
2003
0100
3020
0100
,  // measure 32
0130
0000
0110
0000
0100
0001
0010
0100
,  // measure 33
0010
0000
0011
0000
0001
0010
0100
1000
,  // measure 34
1010
0000
0010
0100
0001
0010
0100
0001
,  // measure 35
0100
0000
0100
0010
0001
0100
0010
0001
,  // measure 36
0010
0000
0010
0100
0001
0010
0100
1000
,  // measure 37
1020
0030
M010
0021
0030
001M
1000
0001
,  // measure 38
0101
0000
0001
0021
0030
001M
1000
0100
,  // measure 39
1200
0300
1000
1020
0030
M010
0001
0100
,  // measure 40
0201
0300
0001
0010
0100
0001
0100
1000
,  // measure 41
0100
0010
0001
0010
1000
0010
0001
0000
,  // measure 42
0011
0000
0010
0100
1000
0010
0100
1000
,  // measure 43
0100
0000
0100
0010
1000
0100
0010
1000
,  // measure 44
0010
0000
0010
0100
1000
0010
0100
0001
,  // measure 45
0021
0030
001M
1020
0030
M010
0001
1000
,  // measure 46
1100
0000
1000
1020
0030
M010
0001
0100
,  // measure 47
0201
0300
0001
0021
0030
001M
1000
0100
,  // measure 48
1200
0300
1000
1020
0030
M010
0001
0100
,  // measure 49
0101
0001
001M
0010
1000
M100
0100
0001
,  // measure 50
2002
3003
0000
1010
0000
0011
0000
0101
,  // measure 51
0000
0000
010M
0000
2000
0000
0000
0000
3010
0100
0010
0000
0100
0000
0000
0000
,  // measure 52
0220
0330
0000
0101
0000
0011
0000
1010
,  // measure 53
0000
0000
1000
0000
0200
0000
0000
0000
0310
0001
0010
0000
0001
0000
0000
0000
,  // measure 54
2002
3003
0000
1010
0000
0011
0001
0200
,  // measure 55
0300
0000
010M
0000
1100
0000
0000
0000
1000
0010
0100
0000
0100
0000
0101
0000
,  // measure 56
0000
0000
0001
0000
0011
0000
0000
0000
0001
1000
0100
0000
1000
0000
1020
0000
,  // measure 57
0000
0000
0130
0001
0010
0000
0010
0100
1000
0000
1000
0001
2000
0000
0000
0000
,  // measure 58
3000
0000
0000
0000
MMMM
0000
0000
0000
1001
0000
0000
0000
0001
0000
0010
0001
,  // measure 59
0100
0000
0100
0010
1000
0000
1000
0001
0020
0000
0000
0000
0100
0000
0000
0000
,  // measure 60
0032
0100
2003
0010
3002
0000
1003
0020
,  // measure 61
M030
0010
0001
0100
0110
0000
0001
0200
,  // measure 62
030M
0100
1000
0010
0210
0000
0301
0020
,  // measure 63
003M
0010
1000
0001
0101
0000
1000
0020
,  // measure 64
M030
0000
0010
0000
0001
0100
0020
0000
1030
0100
0020
0000
0031
0000
0100
0000
,  // measure 65
0010
1000
0100
0001
0100
1000
0010
0100
,  // measure 66
0001
1000
0010
0000
1000
0001
0100
0000
1001
0000
0000
0000
1000
0000
0010
1000
,  // measure 67
0100
0000
0100
0010
0001
0000
0001
1000
0020
0000
0000
0000
0100
0000
0000
0000
,  // measure 68
2030
0100
3002
0010
2003
0000
3001
0020
,  // measure 69
003M
0010
1000
0100
0110
0000
1000
0200
,  // measure 70
M300
0100
0001
0010
0210
0000
1300
0020
,  // measure 71
M030
0010
0001
1000
1100
0000
0001
0020
,  // measure 72
003M
0000
0010
0000
1000
0100
0020
0000
0031
0100
0020
0000
1030
0000
0100
0000
,  // measure 73
0001
1000
0010
0011
0000
0101
0000
1100
,  // measure 74
1000
0010
0100
0001
1000
0000
0000
0000
MMMM
0000
0000
0000
2002
0000
0000
0000
,  // measure 75
0000
0000
0000
0000
,  // measure 76
0000
0000
0000
0000
3003
0000
0001
0010
,  // measure 77
0100
0000
1000
0000
0010
0100
0001
0000
0100
0010
1000
0000
0100
0000
0010
0000
,  // measure 78
0001
0100
0001
0100
0001
0100
0001
0100
0040
0000
0000
0000
2030
0000
0000
0000
,  // measure 79
0200
0000
0300
0000
0000
0000
0001
0000
3001
0000
0001
0100
0010
0000
0001
0000
,  // measure 80
0010
1000
0200
0000
0000
0000
0310
0001
,  // measure 81
0010
1000
0001
0100
1000
0100
0010
0001
,  // measure 82
0200
0040
0300
0000
1030
0000
1002
0000
,  // measure 83
0100
0203
0000
1000
1300
0100
0002
0000
,  // measure 84
0023
0000
0230
0000
2300
0000
3002
0000
0023
0000
0030
0000
001M
1000
0100
0000
,  // measure 85
0100
0010
0001
0000
0001
1000
0010
0000
0010
0100
0001
0000
0001
0010
0100
0000
,  // measure 86
0100
1000
0001
0000
0001
0100
0010
1000
0010
0100
0001
0100
0010
1000
0010
1000
,  // measure 87
0100
0010
0100
0010
0001
0100
0001
0100
0010
1000
0100
0010
0001
1000
0001
0010
,  // measure 88
0100
1000
0010
0100
0040
0000
0000
0000
0000
0000
0000
0000
1030
0100
0010
0000
,  // measure 89
100M
0100
0010
0000
0001
0100
0010
0000
M001
0100
0010
0000
1000
0001
0100
0000
,  // measure 90
10M0
0001
0100
0000
10M0
0001
0010
0200
0020
0000
0000
0000
0000
0000
0000
0000
,  // measure 91
0000
0000
0000
0300
0030
0000
0000
0000
;

//---------------dance-double - ----------------
#NOTEDATA:;
#CHARTNAME:;
#STEPSTYPE:dance-double;
#DESCRIPTION:;
#CHARTSTYLE:;
#DIFFICULTY:Challenge;
#METER:17;
#RADARVALUES:0.736283,1.161551,0.482393,0.871692,0.258122,609.000000,552.000000,57.000000,103.000000,16.000000,0.000000,0.000000,0.000000,0.000000,0.736283,1.161551,0.482393,0.871692,0.258122,609.000000,552.000000,57.000000,103.000000,16.000000,0.000000,0.000000,0.000000,0.000000;
#CREDIT:MANA;
#OFFSET:0.000000;
#BPMS:0.000000=195.000000
,231.000000=390.000000
,233.000000=195.000000
,297.000000=390.000000
,299.000000=195.000000
;
#STOPS:231.000000=0.307693
,297.000000=0.615387
;
#DELAYS:;
#WARPS:364.000000=2.000000
;
#TIMESIGNATURES:0.000000=4=4
;
#TICKCOUNTS:0.000000=4
;
#COMBOS:0.000000=1
;
#SPEEDS:0.000000=1.000000=0.000000=0
,24.000000=999.000000=0.000000=0
,24.125000=1.000000=0.000000=0
,40.000000=999.000000=0.000000=0
,40.125000=1.000000=0.000000=0
,56.000000=999.000000=0.000000=0
,56.125000=1.000000=0.000000=0
,71.000000=999.000000=0.000000=0
,71.125000=1.000000=0.000000=0
,72.000000=0.000000=0.000000=0
,72.020836=1.000000=15.978996=0
,100.000000=2.000000=4.000000=0
,136.000000=999.000000=0.000000=0
,136.125000=2.000000=0.000000=0
,234.000000=999.000000=0.000000=0
,234.250000=2.000000=0.000000=0
,266.000000=999.000000=0.000000=0
,266.125000=2.000000=0.000000=0
,299.000000=0.000000=0.000000=0
,299.020844=1.000000=7.979004=0
;
#SCROLLS:0.000000=1.000000
,67.500000=2.000000
,67.750000=0.000000
,68.000000=1.000000
,68.500000=2.000000
,68.750000=0.000000
,69.000000=1.000000
,69.500000=2.000000
,69.750000=0.000000
,70.000000=1.000000
,72.000000=0.500000
,200.000000=1.000000
,200.250000=0.000000
,200.500000=0.500000
,201.500000=1.000000
,201.750000=0.000000
,202.000000=0.500000
,202.500000=1.000000
,202.750000=0.000000
,203.000000=0.500000
,203.500000=1.000000
,203.750000=0.000000
,204.000000=0.500000
,208.000000=1.000000
,208.250000=0.000000
,208.500000=0.500000
,209.500000=1.000000
,209.750000=0.000000
,210.000000=0.500000
,210.500000=1.000000
,210.750000=0.000000
,211.000000=0.500000
,211.500000=1.000000
,211.750000=0.000000
,212.000000=0.500000
,216.000000=1.000000
,216.250000=0.000000
,216.500000=0.500000
,217.500000=1.000000
,217.750000=0.000000
,218.000000=0.500000
,293.500000=1.000000
,293.750000=0.000000
,294.000000=0.500000
,294.500000=1.000000
,294.750000=0.000000
,295.000000=0.500000
,299.000000=1.000000
,362.000000=0.000000
,364.000000=1.000000
;
#FAKES:;
#LABELS:0.000000=Song Start
;
#DISPLAYBPM:195.000000;
#NOTES:
00000000
00000000
00000000
00000000
,
00000000
00000000
00000000
00000000
,
00000000
00000000
00000000
00000000
,
00000000
00000000
00000000
00000000
,
00000000
00000000
00000000
00000000
,
00000000
00000000
00000000
00000000
,
00011000
00000000
00001000
02000000
00000000
03001000
00010000
00200000
,
00000000
00000000
00310000
00000000
00001000
00000000
01000000
00000000
00010000
00100000
00000000
00100000
00010000
00000000
01000000
00000000
,
00200000
00000000
10300000
02000000
00000000
03100000
00010000
01000000
,
00100000
00010000
00001000
00010000
00100000
01000000
00100000
00010000
,
00011000
00001000
00010000
00000100
00002000
00000000
00003100
00000020
,
00000000
00000000
00000031
00001000
00000001
00000000
00000100
00000000
00000010
00000000
00001000
00000000
00000200
00000000
00000000
00000000
,
00000310
00000010
00001000
00010000
02000000
00000000
13000000
00200000
,
00000000
00000000
01300000
00010000
01000000
00000000
00100000
00000000
10000000
00000000
01000000
00000000
00100000
00000000
00010000
00000000
,
10010000
00000000
01100000
00000000
01000000
00010000
00100000
00000000
,
01000000
00000000
00000000
00000000
00010000
00000000
00000000
00000000
00001000
00000000
00000010
00000100
00000000
00000100
00000010
00000000
,
00000001
00000100
00001000
00010000
00100000
10000000
01000000
01100000
,
00000000
00101000
00000000
00011000
00000000
00000010
00010010
00000000
,
00022000
00000000
00000000
00000000
,
00000000
00000000
00000000
00000000
,
00000000
00000000
00000000
00000000
,
00000000
00000000
00003000
00000000
,
00230000
00000000
20300000
00000000
,
32000000
00000000
03020000
00000000
,
00032000
00000000
00003200
00000000
,
00000302
00000000
00000000
00000000
00000000
00000000
00000000
00000000
00000013
00000100
00000010
00000100
00000020
00000000
00000000
00000000
,
00001030
00010000
00011000
00000000
00001000
00010000
01000000
20000000
,
30200000
00320000
00230000
20300000
30200000
00320000
00001000
00032000
,
00000000
00013000
00011000
00000000
00010000
00001000
00000100
00000002
,
00000023
00002030
00003020
00000032
00000023
00002030
00010000
00013000
,
00011000
00000000
00010000
00000100
00000110
00000000
00000010
00000001
,
00000200
00002300
00023000
00230000
00320000
00032000
00003020
00002030
,
00013000
00000000
00011000
00000000
00010000
01000000
10000000
00100000
,
00010000
00000000
00011000
00000000
00001000
00000100
00000001
00000010
,
00000110
00000000
00000100
00000010
00000001
00001000
00000100
00000010
,
00001000
00000000
00010000
00001000
00000100
00000010
00010000
00001000
,
00000100
00000000
00010000
01000000
00100000
10000000
01000000
00100000
,
00102000
00000000
00013000
00010020
00000000
00001030
00000100
00000010
,
00000011
00000000
00000001
00000201
00000000
00000310
00010000
00001000
,
00201000
00000000
00310000
02010000
00000000
03100000
10000000
01000000
,
00200000
00000000
00310000
00100000
01000000
00010000
00001000
00000010
,
00000100
00010000
00001000
00100000
01000000
10000000
00100000
00000000
,
01100000
00000000
01000000
00100000
10000000
00010000
01000000
00100000
,
00010000
00000000
00001000
00010000
01000000
00100000
00001000
00010000
,
01000000
00000000
00001000
00000100
00000010
00000001
00000100
00000010
,
00020010
00000000
00031000
00201000
00000000
00310000
01000000
00100000
,
10100000
00000000
10000000
12000000
00000000
03010000
00001000
00000010
,
00000012
00000000
00000103
00000120
00000000
00010030
00001000
00100000
,
02100000
00000000
13000000
10200000
00000000
00310000
00001000
00010000
,
00011000
00001000
00000100
00000001
00000010
00000100
00000010
00001000
,
00022000
00033000
00000000
01001000
00000000
00010100
00000000
01001000
,
00000000
00000000
00001000
00000000
00020000
00000000
00000000
00000000
00130000
01000000
00100000
00000000
00010000
00000000
00000000
00000000
,
00022000
00033000
00000000
00010010
00000000
00101000
00000000
00010010
,
00000000
00000000
00010000
00000000
00002000
00000000
00000000
00000000
00003100
00000010
00000100
00000000
00001000
00000000
00000000
00000000
,
00022000
00033000
00000000
01001000
00000000
00010010
00010000
00002000
,
00000000
00000000
00103000
00000000
00101000
00000000
00000000
00000000
00001000
00010000
00001000
00000000
00010000
00000000
00010100
00000000
,
00000000
00000000
00000100
00000000
00000110
00000000
00000000
00000000
00000010
00000001
00000010
00000000
00001000
00000000
00021000
00000000
,
00000000
00000000
01030000
10000000
00100000
00000000
10000000
00100000
00010000
00000000
00100000
00010000
00002000
00000000
00000000
00000000
,
00003000
00000000
00000000
00000000
MMMMMMMM
00000000
00000000
00000000
00011000
00000000
00000000
00000000
00010000
00000000
00001000
00010000
,
00000100
00000000
00001000
00000100
00000010
00000000
00000100
00000010
00000002
00000000
00000000
00000000
00000100
00000000
00000000
00000000
,
00002003
00003020
00020030
00032000
00203000
00000000
00310000
01000000
,
10000000
01000000
00010000
00200000
10000000
00300000
00010000
02000000
,
00100000
03000000
00010000
00100000
02100000
00000000
13000000
00100000
,
00010000
00001000
00000100
00000001
00000011
00000000
00000010
00000100
,
00001000
00000000
00000100
00000000
00010000
00001000
00100000
00000000
00001000
00010000
00000010
00000000
00010000
00000000
00001000
00000000
,
00000100
00001000
00010000
01000000
10000000
00100000
00010000
00001000
,
00100000
00010000
01000000
00000000
00100000
00010000
00001000
00000000
00011000
00000000
00000000
00000000
00001000
00000000
00010000
00001000
,
01000000
00000000
00010000
01000000
00100000
00000000
01000000
00100000
20000000
00000000
00000000
00000000
01000000
00000000
00000000
00000000
,
30020000
00230000
00302000
00023000
00030020
00000000
00001030
00000100
,
00000001
00000100
00001000
00000020
00000001
00000030
00001000
00000200
,
00000010
00000300
00001000
00000010
00000210
00000000
00000301
00000010
,
00001000
00010000
01000000
10000000
10100000
00000000
00100000
01000000
,
00010000
00000000
01000000
00000000
00001000
00010000
00000010
00000000
00010000
00001000
00100000
00000000
00001000
00000000
00010000
00000000
,
01000000
00010000
00001000
00101000
00000000
00010100
00000000
00000100
,
00000010
00000001
00001000
00000010
00010000
00000000
00000000
00000000
MMMMMMMM
00000000
00000000
00000000
00022000
00000000
00000000
00000000
,
00000000
00000000
00000000
00000000
,
00000000
00000000
00000000
00000000
00033000
00000000
00010000
00001000
,
00100000
00000000
01000000
00000000
10000000
00100000
01000000
00000000
00010000
00100000
01000000
00000000
00010000
00000000
00001000
00000000
,
00000010
00000100
00000010
00000100
00001000
00000001
00001000
00000001
00000200
00000000
00000000
00000000
00000320
00000000
00000000
00000000
,
00020000
00000000
00000030
00000000
00000000
00000000
00001000
00000000
00031000
00000000
00001000
00100000
00010000
00000000
01000000
00000000
,
00100000
10000000
00020000
00000000
00000000
00000000
00130000
01000000
,
00010000
00001000
00000010
00010000
00100000
00001000
00010000
00100000
,
00001000
00000020
00000000
00000000
00000130
00000000
00000102
00000000
,
00001000
00002003
00000000
00000010
00003010
00010000
00002000
00000000
,
00203000
00000000
02300000
00000000
23000000
00000000
30020000
00000000
00230000
00000000
00000000
00000000
01300000
10000000
00100000
00000000
,
01000000
00100000
00010000
00000000
00100000
00010000
00001000
00000000
00010000
00001000
00000010
00000000
00001000
00000010
00000100
00000000
,
00001000
00000100
00000010
00000000
00000001
00000100
00000001
00001000
00000010
00001000
00000100
00010000
00002000
00000000
00000000
00000000
,
00103000
00010000
00100000
01000000
00100000
01000000
10000000
00100000
01000000
00010000
00100000
00010000
01000000
00001000
00010000
00000100
,
00001000
00000010
00001000
00000100
00000020
00000000
00000000
00000000
00000000
00000000
00000000
00000000
00000031
00000100
00001000
00000000
,
00000100
00000000
00001000
00000000
00000100
00001000
00010000
00000000
00001000
00000000
00010000
00000000
00001000
00010000
01000000
00000000
,
00010000
00000000
01000000
00000000
10000000
00100000
00010000
00002000
00020000
00000000
00000000
00000000
00000000
00000000
00000000
00000000
,
00000000
00000000
00000000
00003000
00030000
00000000
00000000
00000000
;
