#TITLE:MAGICAL JET TOUR;
#SUBTITLE:;
#ARTIST:泉陸奥彦;
#TITLETRANSLIT:;
#SUBTITLETRANSLIT:;
#ARTISTTRANSLIT:Mutsuhiko Izumi;
#GENRE:HARD COUNTRY 2;
#CREDIT:;
#BANNER:MAGICAL JET TOUR.png;
#BACKGROUND:MAGICAL JET TOUR-bg.png;
#LYRICSPATH:;
#CDTITLE:;
#MUSIC:MAGICAL JET TOUR.ogg;
#OFFSET:1.355382;
#SAMPLESTART:14.289970;
#SAMPLELENGTH:12.000000;
#LASTBEATHINT:1.404756;
#SELECTABLE:YES;
#BPMS:0.000000=276.000000
;
#STOPS:
;
#BGCHANGES:0.000=MAGICAL JET TOUR.mp4=1.000=1=0=0=StretchNoLoop==CrossFade==,
99999=-nosongbg-=1.000=0=0=0 // don't automatically add -songbackground-
;
#KEYSOUNDS:;
#ATTACKS:;

//---------------dance-single - ----------------
#NOTES:
     dance-single:
     :
     Hard:
     15:
     0.824709,0.947946,0.342270,0.604678,0.000000,506.000000,476.000000,30.000000,53.000000,0.000000,0.000000,0.824709,0.947946,0.342270,0.604678,0.000000,506.000000,476.000000,30.000000,53.000000,0.000000,0.000000:
0000
0000
0000
0000
,
0000
0000
0000
0000
,
0000
0000
0000
0000
,
0000
0000
0000
0000
,
0000
0000
0000
0000
,
0001
0100
0000
0100
0000
0001
1000
0001
,
0000
0000
0000
0000
,
0000
0000
0000
0000
,
0000
0000
0000
0000
,
1000
0100
0000
0100
0000
1000
0001
1000
,
0001
0000
0100
0001
1000
0000
0100
1000
,
0001
0000
0100
0001
0000
0100
0010
1000
,
0001
0000
1000
0001
0010
0000
0001
1000
,
0010
1000
0000
1000
0000
0010
0100
0001
,
1000
0000
0010
1000
0001
0000
0010
0001
,
1000
0000
0010
1000
0000
0010
0100
0001
,
1000
0000
0001
1000
0100
0000
1000
0001
,
0100
0001
0000
0001
1000
0100
0010
0001
,
1000
0010
0100
0010
,
0001
0010
0210
0301
,
1000
0100
0010
0100
1000
0100
0000
1000
,
0000
0001
0000
1000
0000
0001
0100
0000
,
0001
0010
0100
0010
,
1000
1010
0120
0031
,
1000
0010
0100
0010
1000
0010
0000
1000
,
0000
1000
0001
0000
0100
0000
0001
0000
,
1000
0100
0010
0100
,
0001
0100
0120
0031
,
1000
0010
0100
0010
1000
0010
0000
1000
,
0000
0001
0000
1000
0000
0001
0010
0000
,
0001
0100
0010
0100
,
1000
1100
0210
0301
,
1000
0100
0010
0100
1000
0100
0000
1100
,
0000
0011
0000
1001
0000
0001
1000
0001
,
2000
0100
3002
0010
,
2003
3010
0102
1003
,
0001
0010
0100
0000
0020
0000
0031
0000
,
0102
1003
0102
1003
,
0002
0010
2003
0100
,
3002
0103
2010
3001
,
1000
0100
0010
0000
0200
0000
1300
0000
,
0001
0100
0001
0100
0010
1000
0001
0000
,
1000
0100
0010
0100
,
0001
0100
2100
3001
,
1000
0010
0100
0001
0100
0010
0000
1000
,
0000
0001
0000
1000
0000
0001
0010
0000
,
0001
0100
0010
0100
,
1000
1100
0120
1030
,
0001
0010
0100
1000
0100
0010
0000
0011
,
0000
1100
0000
0000
1000
0001
1000
0000
,
0102
0000
1003
0000
0001
1000
0100
0000
,
2100
0000
3001
0000
1000
0001
0100
0000
,
0001
0000
1000
0010
0000
0100
0001
1000
,
0001
0000
1000
0100
0000
1000
0001
0000
,
2010
0000
3001
0000
1000
0001
0010
0000
,
0012
0000
1003
0000
0001
1000
0010
0000
,
0100
0001
0100
0001
0100
0001
0100
0001
,
0100
0001
0010
0001
0010
0100
1000
0100
,
1000
0010
0100
0001
0100
0010
1000
0010
,
0200
0000
0300
0000
,
0001
0000
2000
0100
0000
3002
0010
0000
,
2003
0100
0000
3001
0010
0100
0010
0100
,
1000
0010
0000
1000
0100
0010
0001
0010
,
0000
0001
0100
0010
2000
0000
3000
0000
,
0001
0000
2000
0010
0000
3002
0100
0000
,
2003
0010
0000
3001
0100
0010
0100
0010
,
1000
0100
0000
1000
0010
0100
0001
0100
,
0000
0001
0010
0100
2000
0000
3000
0000
,
0001
0100
0010
1000
0000
0010
1000
0100
,
0010
0001
1000
0001
0200
0000
0301
0000
,
1000
0100
0010
0001
0000
0010
0001
0100
,
0010
1000
0001
0000
0200
0000
0301
0000
,
1000
0100
0010
0001
0000
0010
0001
0100
,
0010
1000
0001
1000
0200
0000
1300
0000
,
0001
0000
2000
0010
0000
3002
0100
0000
,
1003
0100
0010
0000
0002
0000
1003
0001
,
2000
0010
3002
0100
,
2003
0000
0100
0000
3001
0010
0100
0000
,
1000
0000
0010
0001
0020
0000
1030
0000
,
0001
0010
0100
1000
0002
0000
1003
0000
,
0002
0010
2003
0100
,
3002
0000
0100
0000
1003
0010
0100
0000
,
0001
0000
0010
0100
1000
0001
0100
0000
,
0010
1000
0001
0010
0200
0000
1300
0000
,
2100
0000
3001
0000
1000
0001
0100
0000
,
0102
0000
1003
0000
0001
1000
0100
0000
,
0010
0001
0010
0001
0010
0001
0010
0001
,
0010
0001
0100
0001
0100
0010
1000
0010
,
1000
0100
0010
0001
0010
0100
1000
0100
,
0020
0000
0030
0000
,
0001
0100
0010
0100
,
1000
0100
0102
1003
,
0001
0010
0100
1000
0100
0010
0000
0001
,
0000
1000
0000
0001
0000
1000
0010
0000
,
1000
0100
0010
0100
,
0001
0101
0120
0031
,
1000
0010
0100
0001
0100
0010
0000
1010
,
0000
0101
0000
2002
0000
0000
3003
0000
;

//---------------dance-single - ----------------
#NOTES:
     dance-single:
     :
     Medium:
     13:
     0.635645,0.724900,0.091272,0.673132,0.000000,390.000000,382.000000,8.000000,59.000000,0.000000,0.000000,0.635645,0.724900,0.091272,0.673132,0.000000,390.000000,382.000000,8.000000,59.000000,0.000000,0.000000:
0000
0000
0000
0000
,
0000
0000
0000
0000
,
0000
0000
0000
0000
,
0000
0000
0000
0000
,
0000
0000
0000
0000
,
0001
0100
0000
0100
0000
0001
1000
0001
,
0000
0000
0000
0000
,
0000
0000
0000
0000
,
0000
0000
0000
0000
,
1000
0100
0000
0100
0000
1000
0001
1000
,
0001
0100
1000
0100
,
0010
1000
0001
0100
,
0001
0010
1000
0010
,
0100
0010
0000
0010
0000
0001
1000
0000
,
0001
0010
1000
0010
,
0100
1000
0001
0010
,
0001
0100
1000
0100
,
0010
0100
0000
0100
0010
0000
1000
0000
,
0001
0010
0001
1000
,
0001
0100
0020
0130
,
0001
0000
0010
0000
0100
1000
0000
0100
,
0000
0010
0000
0002
0000
0000
1003
0000
,
0001
0100
0001
1000
,
0001
0020
0230
0310
,
0001
0000
0100
0000
0010
1000
0000
0010
,
0000
0100
0001
0000
1000
0000
0001
0000
,
1000
0010
1000
0001
,
1000
0100
0020
0130
,
1000
0000
0010
0000
0100
0001
0000
0100
,
0000
0010
0000
2000
0000
0000
3001
0000
,
1000
0100
1000
0001
,
1000
0020
0230
0310
,
1000
0000
0100
0000
0010
0001
0000
0010
,
0000
0100
0000
2002
0000
0000
3003
0000
,
1000
0010
0100
0010
,
0001
0010
0200
0301
,
1000
0100
1000
0000
0001
0000
1000
0000
,
0020
0130
0020
0130
,
0001
0010
0100
0010
,
1000
0010
0200
1300
,
0001
0100
0001
0000
1000
0000
0001
0000
,
0010
0100
0010
0000
0100
0010
0100
0000
,
1000
0100
1000
0001
,
1000
0010
0200
0310
,
1000
0000
0100
0000
0010
0001
0000
0010
,
0000
0100
0000
2000
0000
0000
3001
0000
,
1000
0010
1000
0001
,
1000
0200
0320
0130
,
1000
0000
0010
0000
0100
0001
0000
0100
,
0000
0010
0000
2002
0000
0000
3003
0000
,
0002
0010
1003
0001
,
2000
0010
3001
1000
,
0001
0000
0000
1000
0000
0000
1100
0000
,
1000
0000
0000
0001
0000
0000
0011
0000
,
0002
0100
1003
0001
,
2000
0100
3001
1000
,
0010
0100
0010
0100
0010
0100
0010
0100
,
0020
2030
3002
0203
,
0301
0000
0010
0001
0000
0010
0001
0000
,
2002
0000
3003
0000
,
0001
0000
0100
0001
0000
0100
0001
0000
,
0100
0001
0000
0100
0020
0000
2030
0000
,
3001
0010
0000
0100
0010
0000
0001
0010
,
0000
0001
1000
0000
0002
0000
0003
0000
,
1000
0000
0100
1000
0000
0100
1000
0000
,
0100
1000
0000
0100
0020
0000
0032
0000
,
1003
0010
0000
0100
0010
0000
1000
0010
,
0000
1000
0001
0000
0200
0000
0300
0000
,
0001
0000
0010
0100
0000
0100
0010
0000
,
1000
0010
0001
1000
,
0001
0000
0100
0010
0000
0010
0100
0000
,
1000
0100
0002
0003
,
1000
0000
0100
0010
0000
0010
0100
0000
,
0001
0100
1000
0001
,
1000
0000
0001
0100
0000
1000
0100
0000
,
0001
0010
2002
3003
,
0001
0100
0010
0100
,
1000
0100
0020
1030
,
0001
0000
0010
0100
2000
0000
3001
0000
,
1000
0010
0100
0000
0002
0000
1003
0000
,
0001
0010
0100
0010
,
1000
0010
0200
1300
,
0001
0000
0100
0010
2000
0000
3001
0000
,
1000
0100
0010
0000
0002
0000
1003
0000
,
0002
0010
1003
0001
,
2000
0010
3001
1000
,
0100
0010
0100
0010
0100
0010
0100
0010
,
0200
2300
3002
0023
,
0031
0000
0100
0001
0000
0100
0001
0000
,
2002
0000
3003
0000
,
0001
0010
0001
1000
,
0001
0100
0020
0130
,
0001
0000
0010
0000
0100
1000
0000
0100
,
0000
0010
0000
0002
0000
0000
1003
0000
,
0001
0100
0001
1000
,
0001
0020
0230
0310
,
0001
0000
0100
0000
0010
1000
0000
0010
,
0000
0100
0000
2002
0000
0000
3003
0000
;

//---------------dance-single - ----------------
#NOTES:
     dance-single:
     :
     Easy:
     8:
     0.430283,0.557616,0.216771,0.239589,0.000000,264.000000,245.000000,19.000000,21.000000,0.000000,0.000000,0.430283,0.557616,0.216771,0.239589,0.000000,264.000000,245.000000,19.000000,21.000000,0.000000,0.000000:
0000
0000
0000
0000
,
0000
0000
0000
0000
,
0000
0000
0000
0000
,
0000
0000
0000
0000
,
0000
0000
0000
0000
,
0000
0000
0000
0000
,
0000
0000
0000
0000
,
0000
0000
0000
0000
,
0000
0000
0000
0000
,
0000
0000
0000
0000
,
0001
0000
0100
0000
,
0010
1000
0001
1000
,
0100
0000
0010
0000
,
0001
0000
0000
1000
0000
0000
0001
0000
,
1000
0000
0010
0000
,
0100
0001
1000
0001
,
0010
0000
0100
0000
,
1000
0000
0000
0001
1000
0000
1000
0000
,
0001
0000
0100
0000
,
0010
0000
1010
0000
,
1000
0100
0010
0001
,
0010
0100
1000
0000
,
0001
0000
0100
0000
,
0010
1000
1000
0000
,
0001
0010
0100
1000
,
0100
0010
0001
0000
,
1000
0000
0010
0000
,
0100
0000
0101
0000
,
0001
0010
0100
1000
,
0001
1000
0010
0000
,
0100
0000
0001
0000
,
1000
0100
0100
0000
,
0010
0000
0001
0000
1000
0000
0000
0100
,
0000
1000
0000
0002
0000
0000
0003
0000
,
1010
0000
0101
0000
,
2001
0000
3100
0000
,
1000
0100
0001
0000
,
0100
0010
0100
0010
,
0001
0000
0101
0000
,
2010
0000
3001
0000
,
1000
0010
0001
0000
,
0010
0100
0010
0100
,
0001
0000
0010
0000
,
0100
0000
1100
0000
,
1000
0010
0100
0001
,
0100
0010
1000
0000
,
0001
0000
0010
0000
,
0100
1000
1000
0000
,
0001
0000
1000
0000
0010
0000
0000
1000
,
0000
0001
0000
0200
0000
0000
0300
0000
,
0002
0000
0010
0000
,
2003
0000
0010
0000
,
3001
0000
0000
0010
0000
0000
0100
0000
,
1000
0000
0000
0010
0000
0000
0100
0000
,
0002
0000
0100
0000
,
2003
0000
0100
0000
,
3001
0010
0001
0010
,
0001
0010
0100
1000
,
0001
0000
0000
1000
0000
0000
0001
0000
,
2002
0000
3003
0000
,
0001
0000
0000
0001
0000
0000
0001
0000
,
0000
0001
0000
0000
0010
0000
0010
0000
,
0100
0000
1000
0010
,
0001
0010
1000
0000
,
0001
0000
0000
0001
0000
0000
0001
0000
,
0000
0001
0000
0000
0100
0000
0100
0000
,
0010
0000
1000
0100
,
0001
0100
0010
0000
,
0001
0000
0000
0100
0000
0000
0010
0000
,
0001
0010
0100
0001
,
1000
0000
0000
0100
0000
0000
0010
0000
,
1000
0010
0002
0003
,
1000
0000
0000
0010
0000
0000
0100
0000
,
1000
0100
0001
1000
,
0010
0000
0000
0010
0000
0000
0010
0000
,
0100
0001
2002
3003
,
0011
0000
1100
0000
,
1002
0000
0103
0000
,
0001
0010
1000
0000
,
1000
0010
0001
0000
,
0101
0000
1010
0000
,
2001
0000
3100
0000
,
1000
0100
0001
0000
,
0001
0100
1000
0000
,
0002
0000
0010
0000
,
2003
0000
0100
0000
,
3001
0100
0001
0100
,
0001
0010
0100
1000
,
0010
0000
0000
0100
0000
0000
0010
0000
,
2002
0000
3003
0000
,
0001
0000
0010
0000
,
1000
0000
1010
0000
,
1000
0010
0001
0000
,
1000
0001
1000
0000
,
0001
0000
0100
0000
,
1000
0100
0100
0000
,
0010
0000
1000
0000
0001
0000
0000
0100
,
0000
0001
0000
2002
0000
0000
3003
0000
;

//---------------dance-single - ----------------
#NOTES:
     dance-single:
     :
     Beginner:
     4:
     0.216771,0.333714,0.045636,0.000000,0.000000,133.000000,129.000000,4.000000,0.000000,0.000000,0.000000,0.216771,0.333714,0.045636,0.000000,0.000000,133.000000,129.000000,4.000000,0.000000,0.000000,0.000000:
0000
0000
0000
0000
,
0000
0000
0000
0000
,
0000
0000
0000
0000
,
0000
0000
0000
0000
,
0000
0000
0000
0000
,
0000
0000
0000
0000
,
0000
0000
0000
0000
,
0000
0000
0000
0000
,
0000
0000
0000
0000
,
0000
0000
0000
0000
,
1000
0000
1000
0000
,
1000
0000
0000
0000
,
0010
0000
0010
0000
,
0010
0000
0000
0000
,
0100
0000
0100
0000
,
0100
0000
0000
0000
,
0001
0000
0001
0000
,
0001
0000
0000
0000
,
0010
0000
0010
0000
,
0010
0000
0000
0000
,
0100
0000
0000
0000
,
1000
0000
0000
0000
,
0001
0000
0001
0000
,
0001
0000
0000
0000
,
0100
0000
0000
0000
,
0010
0000
0000
0000
,
1000
0000
1000
0000
,
1000
0000
0000
0000
,
0001
0000
0000
0000
,
0010
0000
0000
0000
,
0100
0000
0100
0000
,
0100
0000
0000
0000
,
1000
0000
0000
0000
,
0001
0000
1001
0000
,
1000
0000
1000
0000
,
1000
0000
0000
0000
,
0010
0000
0010
0000
,
0000
0000
0000
0000
,
0100
0000
0100
0000
,
0100
0000
0000
0000
,
0001
0000
0001
0000
,
0000
0000
0000
0000
,
0010
0000
0010
0000
,
0010
0000
0000
0000
,
0100
0000
0000
0000
,
1000
0000
0000
0000
,
0001
0000
0001
0000
,
0001
0000
0000
0000
,
0100
0000
0100
0000
,
0100
0000
0100
0000
,
0100
0000
0000
0000
,
0010
0000
0000
0000
,
1000
0000
1000
0000
,
1000
0000
1000
0000
,
1000
0000
0000
0000
,
0001
0000
0000
0000
,
0010
0000
0010
0000
,
0010
0000
0010
0000
,
0010
0000
0010
0000
,
1001
0000
0000
0000
,
0001
0000
0001
0000
,
0001
0000
0001
0000
,
0001
0000
0000
0000
,
0100
0000
0000
0000
,
0010
0000
0010
0000
,
0010
0000
0010
0000
,
0010
0000
0000
0000
,
1000
0000
0000
0000
,
0001
0000
0001
0000
,
0001
0000
0010
0000
,
0100
0000
0100
0000
,
0100
0000
1000
0000
,
0001
0000
0001
0000
,
0001
0000
0100
0000
,
0010
0000
0010
0000
,
0010
0000
1000
0000
,
0001
0000
0001
0000
,
0001
0000
0000
0000
,
0010
0000
0010
0000
,
0000
0000
0000
0000
,
0100
0000
0100
0000
,
0100
0000
0000
0000
,
1000
0000
1000
0000
,
0000
0000
0000
0000
,
0001
0000
0000
0000
,
1000
0000
0000
0000
,
0010
0000
0010
0000
,
0010
0000
0010
0000
,
0100
0000
0100
0000
,
1001
0000
0000
0000
,
0001
0000
0001
0000
,
0001
0000
0000
0000
,
0010
0000
0000
0000
,
0100
0000
0000
0000
,
1000
0000
1000
0000
,
1000
0000
0000
0000
,
0010
0000
0010
0000
,
0010
0000
1001
0000
;
