#VERSION:0.83;
#TITLE:M@GICAL☆CURE! LOVE ♥ SHOT!;
#SUBTITLE:;
#ARTIST:SAWTOWNE feat. Hatsune Miku;
#TITLETRANSLIT:;
#SUBTITLETRANSLIT:;
#ARTISTTRANSLIT:;
#GENRE:;
#CREDIT:;
#MUSIC:MAGICAL CURE! LOVE SHOT!.ogg;
#BANNER:MAGICAL CURE! LOVE SHOT!.png;
#BACKGROUND:MAGICAL CURE! LOVE SHOT!-bg.png;
#CDTITLE:;
#SAMPLESTART:50.625;
#SAMPLELENGTH:11.875;
#SELECTABLE:YES;
#OFFSET:-0.625;
#BPMS:0.000=192.000;
#STOPS:;
#BGCHANGES:-2.000=MAGICAL CURE! LOVE SHOT!.avi=1.000=1=0=0=StretchNoLoop==CrossFade==,
99999.000=-nosongbg-=1.000=0=0=0=StretchNoLoop====
;
#FGCHANGES:;

//--------------- dance-single - ----------------
#NOTEDATA:;
#STEPSTYPE:dance-single;
#DESCRIPTION:;
#DIFFICULTY:Beginner;
#METER:4;
#RADARVALUES:0,0,0,0,0;
#CREDIT:Kikoia;
#NOTES:
0000
0000
0000
0000
,
0000
0000
0000
0000
,
0000
0000
0000
0000
,
0000
0000
0000
0000
,
0000
0000
0000
0000
,
0000
0000
0000
0000
,
0000
0000
0000
0000
,
0000
0000
0000
0000
,
1000
0000
1000
0000
,
0200
0000
0000
0300
,
1000
0000
0001
0000
,
0010
0000
0001
0000
,
1000
0000
1000
0000
,
0020
0000
0000
0030
,
0001
0000
0100
0000
,
0010
0010
0010
0010
,
0001
0000
1000
0000
,
0001
0000
0100
0000
,
0001
0000
1000
0000
,
0100
0100
0100
0000
,
1000
0000
0001
0000
,
0010
0000
0001
0000
,
1000
0000
0100
0000
,
0010
0010
0010
0000
,
0001
0000
0100
0000
,
0010
0000
1000
0000
,
0100
0000
0010
0000
,
0001
0001
0001
0000
,
1000
0000
0000
0000
,
0001
0000
0000
0000
,
0110
0000
0000
0000
,
1001
0000
0000
0000
,
0001
0000
0000
0000
,
0000
0000
0000
0000
,
0100
0000
0000
0000
,
0000
0000
0000
0000
,
0010
0000
0010
0000
,
1000
0000
2000
0000
,
0002
0000
0000
0000
,
0000
0000
0000
0000
0000
0000
0000
0000
0000
0000
0000
0000
0000
0000
0000
0000
0000
0000
0000
0000
0000
0000
0000
0000
0000
0000
0000
0000
0000
0000
0000
0000
0000
0000
0000
0000
0000
0000
0000
0000
0000
0000
0000
0000
0000
0000
0000
0000
0000
0000
0000
0000
0000
0000
0000
0000
0000
0000
0000
0000
0000
0000
0000
0000
0000
0000
0000
0000
0000
0000
0000
0000
0000
0000
0000
0000
0000
0000
0000
0000
0000
0000
0000
0000
0000
0000
0000
0000
0000
0003
0000
0000
0000
0000
0000
0000
3000
0000
0000
0000
0000
0000
0000
0000
0000
0000
0000
0000
0000
0000
0000
0000
0000
0000
0000
0000
0000
0000
0000
0000
0000
0000
0000
0000
0000
0000
0000
0000
0000
0000
0000
0000
0000
0000
0000
0000
0000
0000
0000
0000
0000
0000
0000
0000
0000
0000
0000
0000
0000
0000
0000
0000
0000
0000
0000
0000
0000
0000
0000
0000
0000
0000
0000
0000
0000
0000
0000
0000
0000
0000
0000
0000
0000
0000
0000
0000
0000
0000
0000
0000
0000
0000
0000
0000
0000
0000
0000
0000
0000
0000
0000
0000
,
1000
0000
0100
0000
,
0010
0000
0001
0000
,
0100
0000
0010
0000
,
1000
1000
1000
0000
,
0001
0000
0010
0000
,
0100
0000
1000
0000
,
0001
0000
1000
0000
,
0001
0001
0001
0000
,
1000
0000
0100
0000
,
0010
0000
0100
0000
,
1000
0000
0001
0000
,
0100
0100
0100
0000
,
0001
0000
0010
0000
,
0100
0000
0010
0000
,
0001
0000
1000
0000
,
2002
0000
3003
0000
,
0100
0000
0010
0000
,
0100
0100
0100
0000
,
1000
0000
0001
0000
,
1000
1000
1000
0000
,
0000
0000
0000
0000
,
0000
0000
0000
0000
,
0000
0000
0000
0000
,
0000
0000
0000
0000
,
0002
0000
0003
0000
,
2000
0000
3000
0000
,
0020
0000
0000
0000
,
0030
0000
0000
0000
,
2002
0000
0000
0000
,
0000
0000
0000
0000
,
0000
0000
0000
0000
,
0000
0000
3003
0000
,
1000
1000
1000
0000
,
0001
0001
0001
0000
,
0100
0000
0100
0000
,
0010
0000
0100
0000
,
1001
0000
0000
0000
,
0000
0000
0000
0000
,
0000
0000
0000
0000
,
0000
0000
0000
0000
,
0000
0000
0000
0000
,
0000
0000
0000
0000
,
0000
0000
0000
0000
,
0100
0100
0100
0000
,
0001
0000
0100
0000
,
0010
0000
0100
0000
,
0001
0000
1000
0000
,
0100
0100
0100
0000
,
1000
0000
0010
0000
,
0100
0000
0010
0000
,
1000
0000
0001
0000
,
2002
0000
3003
0000
,
0100
0000
0010
0000
,
0100
0100
0100
0000
,
0001
0000
1000
0000
,
0001
0001
0001
0000
,
0001
0000
0001
0000
,
0200
0000
0000
0300
,
0001
0000
1000
0000
,
0010
0000
1000
0000
,
0001
0000
0001
0000
,
0020
0000
0000
0030
,
1000
0000
0100
0000
,
0010
0010
0010
0010
,
0000
2002
0000
0000
,
0000
0000
0000
0000
,
0000
0000
0000
0000
,
0000
0000
0000
0000
,
0000
0000
0000
0000
0000
0000
0000
0000
0000
0000
0000
0000
0000
0000
0000
0000
0000
0000
0000
0000
0000
0000
0000
0000
0000
0000
0000
0000
0000
0000
0000
0000
0000
0000
0000
0000
0000
0000
0000
0000
0000
0000
0000
0000
0000
0000
0000
0000
0000
0000
0000
0000
0000
0000
0000
0000
0000
0000
0000
0000
0000
0000
0000
0000
0000
0000
0000
0000
0000
0000
0000
0000
0000
0000
0000
0000
0000
0000
0000
0000
0000
0000
0000
0000
0000
0000
0000
0000
0000
0000
0000
0000
0000
0000
0000
0000
0000
0000
0000
0000
0000
0000
0000
0000
0000
0000
0000
0000
0000
0000
0000
0000
0000
0000
0000
0000
0000
0000
0000
0000
0000
0000
0000
0000
0000
0000
0000
0000
0000
0000
0000
0000
0000
0000
0000
0000
0000
3003
0000
0000
0000
0000
0000
0000
0000
0000
0000
0000
0000
0000
0000
0000
0000
0000
0000
0000
0000
0000
0000
0000
0000
0000
0000
0000
0000
0000
0000
0000
0000
0000
0000
0000
0000
0000
0000
0000
0000
0000
0000
0000
0000
0000
0000
0000
0000
0000
0000
0000
0000
0000
0000
0000
;

//--------------- dance-single - ----------------
#NOTEDATA:;
#STEPSTYPE:dance-single;
#DESCRIPTION:;
#DIFFICULTY:Easy;
#METER:8;
#RADARVALUES:0,0,0,0,0;
#CREDIT:Kikoia;
#NOTES:
0000
0000
0000
0000
,
0000
0000
0000
0000
,
0000
0000
0000
0000
,
0000
0000
0000
0000
,
0000
0000
0000
0000
,
0000
0000
0000
0000
,
0000
0000
0000
0000
,
0000
0000
0000
0000
,
1000
0010
1000
0010
,
2000
0001
0002
3003
,
1000
0100
0010
0001
,
0200
0310
0002
1003
,
0001
0010
0001
0010
,
0200
1000
2300
3001
,
0200
0300
0200
0300
0020
0030
0020
0030
,
0100
0010
0100
0000
0001
0000
1000
0000
,
0001
0100
0010
0100
,
0001
0010
0100
0010
,
0001
0001
1000
1000
,
0010
0100
0002
0000
,
1003
0100
0010
0100
,
1000
0010
0100
MMMM
,
0000
0001
1000
0010
,
0100
0001
0020
0000
,
0130
1000
0001
1000
,
0010
1000
0001
0100
,
0010
0010
0100
0100
,
0010
1000
0200
0000
,
0310
0000
0000
0110
0000
0000
0000
0000
,
1000
0000
0000
1001
0000
0000
0000
0000
,
0001
0000
0100
0000
0010
0000
2000
0002
,
0000
0000
3003
0000
,
2000
0000
0100
0001
,
3002
0000
0100
1000
,
2003
0000
0001
0010
,
3020
0000
0100
1000
,
1030
1001
0000
0110
,
0000
1001
0000
0110
,
0020
0100
0100
0130
,
0010
0002
2000
3003
,
0001
0100
0001
0010
,
0100
0000
1000
0000
0010
0000
0100
0001
,
0000
0000
1000
0100
0000
0000
0010
0000
,
0002
0003
0002
0003
0002
0003
0002
0003
,
1000
0010
1000
0001
,
0100
0010
1000
0100
,
0010
0100
0010
0000
0100
0010
0100
0000
,
1000
0001
0100
0110
,
1001
0001
0010
0100
,
1000
0000
0010
0000
0100
0000
0001
1000
,
0000
0000
0001
0100
0000
0000
0001
0000
,
0020
0030
0020
0030
0020
0030
0020
0030
,
0001
0010
1000
0010
,
0001
1000
0010
0100
,
0110
1000
1001
0100
,
0220
0000
0000
0330
,
1000
0001
1000
0000
0001
1000
0002
0000
,
0023
0230
2300
3020
,
0130
0000
0200
0000
0310
0000
0010
2000
,
0000
0001
3001
0000
,
1001
0000
0000
0000
,
0000
0000
0000
0000
,
0000
0000
0000
0000
,
0000
0000
0000
0000
,
0010
0010
0010
0010
,
0100
0100
0100
0100
,
1001
1001
1001
1001
,
0000
0000
0000
0000
,
4000
0004
0000
0000
,
0000
0000
0000
0000
,
0000
0000
0000
0000
,
0000
0000
3003
0000
,
1000
1000
1000
1000
,
0001
0001
0001
0001
,
0100
0100
0010
0010
,
1000
0000
0001
0000
1000
0000
0001
1000
,
0002
0000
0000
0000
,
0000
0000
0000
0000
,
0000
0000
0000
0000
,
0000
0000
0003
0000
,
2000
0000
0000
0000
,
3200
0000
0000
0000
,
0320
0000
0000
0000
,
0031
0100
0020
0030
,
1001
1000
0010
0100
,
0001
0000
0010
0000
0100
0000
1000
0001
,
0000
0000
0100
0010
0000
0000
0001
0000
,
2000
3000
2000
3000
2000
3000
2000
3000
,
0001
0100
1000
0100
,
0001
0010
0100
1000
,
1001
0001
1001
0100
,
0220
0000
0000
0330
,
0001
1000
0001
0000
1000
0001
2000
0000
,
3020
0230
0302
0023
,
0130
0000
0200
0000
0310
0000
0010
0002
,
0000
1000
1003
0000
,
0001
0010
0001
0010
,
0002
1000
2000
3003
,
0001
0100
0010
1000
,
0200
0310
2000
3001
,
1000
0010
1000
0010
,
0200
0001
0302
1003
,
0200
0300
0200
0300
0020
0030
0020
0030
,
0100
0010
0100
0010
0100
0010
0100
0010
,
0000
2002
0000
0000
,
0000
0000
0000
0000
,
0000
0000
0000
0000
,
0000
0000
0000
0000
,
0000
0000
0000
3003
;

//--------------- dance-single - ----------------
#NOTEDATA:;
#STEPSTYPE:dance-single;
#DESCRIPTION:;
#DIFFICULTY:Medium;
#METER:12;
#RADARVALUES:0,0,0,0,0;
#OFFSET:-0.625;
#BPMS:0.000=192.000;
#STOPS:416.000=0.156;
#SCROLLS:0.000=1.000,
191.000=0.000,
191.750=2.000,
192.000=1.000,
304.000=0.500,
335.000=0.000,
335.750=2.000,
336.000=1.000
;
#CREDIT:Kikoia;
#NOTES:
0000
0000
0000
0000
,
0000
0000
0000
0000
,
0000
0000
0000
0000
,
0000
0000
0000
0000
,
0000
0000
0000
0000
,
0000
0000
0000
0000
,
0000
0000
0000
0000
,
0001
0100
0000
0010
0000
0110
0000
1001
,
1000
0001
0010
0000
0001
1000
0010
0000
,
0100
0001
0100
0001
1000
0001
0002
0000
,
2003
0000
3200
0000
0301
0001
0200
0000
,
1300
0001
1001
0000
0010
0100
0110
0000
,
0001
1000
0010
0000
1000
0001
0010
0000
,
0100
1000
0100
1000
0001
1000
2000
0000
,
3010
0100
0010
0100
0010
0020
0000
1030
,
0002
0203
0320
2030
,
3001
1000
0001
1000
0001
0000
1001
0000
,
1000
0100
1000
0100
1000
0000
1100
0000
,
0001
0100
0001
0000
1000
0010
1000
0000
,
0001
0010
0100
1000
0002
0000
0100
0000
,
1003
0001
1000
0001
1000
0000
1001
0000
,
0001
0100
0001
0100
0001
0000
MMMM
0000
,
1000
0010
1000
0000
0001
0010
0001
0000
,
1000
0010
0100
0010
0002
0000
0023
0000
,
1030
0001
1000
0001
0020
0000
0031
0000
,
0100
0001
0100
0010
2000
0000
0001
0000
,
3100
1000
0100
0000
0010
0001
0010
0000
,
0001
1000
0010
1000
0002
0000
2003
0000
,
3100
0000
0000
1100
0000
0000
0100
0010
,
0001
0000
0000
1010
0000
0000
0001
0100
,
0020
0000
2030
0000
3001
0010
0100
2000
,
0000
3000
1001
1002
,
0103
0000
0010
0000
0100
0002
0000
1003
,
0200
0302
0203
2300
,
3010
0000
0100
0000
0001
2000
0000
3001
,
0200
2300
3200
0302
,
0013
1001
0000
1100
,
0000
0101
0000
1010
,
0002
0203
2300
3020
,
0032
2003
0020
3030
,
0001
1000
0001
0010
0100
1000
0010
0100
,
0001
0010
0100
0002
0000
0103
1000
0002
,
0000
1003
0100
0002
0000
0103
0010
0001
,
1000
0001
1000
0000
0010
0100
0010
0000
,
1000
0001
1000
0010
0100
0001
0010
0100
,
1000
0001
0100
2000
0000
3200
0000
0301
,
1000
0001
1000
0000
0001
0100
0001
0000
,
1000
0000
0100
0000
0010
0000
0001
0000
0200
0000
0000
0000
0020
0000
0000
0330
,
1000
0001
1000
0010
0100
0001
0010
0100
,
1000
0001
0100
2000
0000
3100
0001
2000
,
0000
3001
0100
2000
0000
3100
0010
1000
,
0001
1000
0001
0000
0010
0100
0010
0000
,
0001
0010
0001
0010
0001
1000
0010
0100
,
0001
1000
0100
0020
0000
0030
0011
0000
,
1000
1010
0001
0110
,
2002
0000
0000
3003
,
1000
0100
0010
0000
0010
0001
1000
0000
,
1000
0010
0100
0001
1000
0000
0002
0000
,
0100
0000
2003
0000
0100
0000
3001
1001
,
0000
1000
0001
1000
0001
0000
0000
0000
,
0110
0000
0000
0000
,
0000
0000
0000
0000
,
0000
0000
0000
0000
,
0000
0000
0000
0000
,
1001
0000
0000
0000
,
1100
0000
0000
0000
,
0101
0000
0000
0000
,
0000
0000
0000
0000
,
4000
0004
0000
0000
0000
0000
0000
0000
0000
0000
0000
0000
0000
0000
0000
0000
,
0000
0000
0000
0000
,
0000
0000
0000
0000
,
0000
0000
3003
0000
,
1000
0001
1000
0001
0100
0001
0010
0000
,
0100
1000
0100
1000
0001
1000
0010
0000
,
0100
0001
0100
0001
1000
0100
1000
0100
,
0010
0100
0010
0100
0010
0100
0010
0001
,
2000
0000
0000
0000
,
0000
0000
0000
0000
,
0000
0000
0000
0000
,
0000
0000
0000
3000
,
0002
0000
0203
0000
,
0320
0000
2030
0000
,
3002
0000
0023
0000
,
0130
0000
1000
0000
0100
0000
0010
0000
0001
0000
0000
0000
0220
0000
0000
0330
,
1000
0001
1000
0010
1000
0100
0010
0001
,
1000
0001
0010
2000
0000
3010
0001
2000
,
0000
3001
0010
2000
0000
3010
0100
0010
,
0001
1000
0001
0000
0100
0010
0100
0000
,
0001
1000
0001
0100
0010
1000
0100
0010
,
0001
1000
0100
0002
0000
0003
0110
0000
,
1000
1001
0010
0110
,
2002
0000
3003
0000
,
0001
0100
0010
0000
0010
1000
0001
0000
,
0001
0010
0100
1000
0001
0000
2000
0000
,
0010
0000
3002
0000
0010
0000
1003
1001
,
0000
1000
0001
1000
0001
0000
0000
0000
,
1000
0001
0010
0000
0001
1000
0010
0000
,
0100
0001
0100
0001
1000
0001
0002
0000
,
2003
0000
3200
0000
0301
0001
0200
0000
,
1300
0001
1001
0000
0010
0100
0110
0000
,
0001
1000
0010
0000
1000
0001
0010
0000
,
0100
1000
0100
1000
0001
1000
2000
0000
,
3002
0003
0002
0003
0200
0300
0200
0300
,
0001
1000
0001
0100
0010
1000
0100
0010
,
0000
2002
0000
0000
0000
0000
0000
0000
,
0000
0000
0000
0000
,
0000
0000
0000
0000
,
0000
0000
0000
0000
,
0000
0000
0000
3003
;

//--------------- dance-single - womn ----------------
#NOTEDATA:;
#STEPSTYPE:dance-single;
#DESCRIPTION:womn;
#DIFFICULTY:Hard;
#METER:15;
#RADARVALUES:0,0,0,0,0;
#OFFSET:-0.625;
#BPMS:0.000=192.000;
#STOPS:416.000=0.156;
#SCROLLS:0.000=1.000,
191.000=0.000,
191.750=2.000,
192.000=1.000,
304.000=0.500,
335.000=0.000,
335.750=2.000,
336.000=1.000
;
#CREDIT:Kikoia;
#NOTES:
0000
0000
0000
0000
,
0000
0000
0000
0000
,
0000
0000
0000
0000
,
0000
0000
0000
0000
,
0000
0000
0000
0000
,
0000
0000
0000
0000
,
0000
0000
0000
0000
,
1100
0110
0000
0011
0000
1010
0000
1001
,
0001
0200
0010
0000
0301
0200
0010
0000
,
0301
1000
0001
1000
0002
0010
0013
0000
,
0001
0100
1000
0100
0010
0010
0100
0001
,
0010
0100
0110
0000
1000
0001
1001
0000
,
1000
0200
0010
0000
1300
0200
0010
0000
,
1300
0001
1000
0001
2000
0010
3020
0000
,
0130
0001
0100
0001
0010
0020
0000
0031
,
0100
0010
1000
0100
0010
0001
1000
0010
,
1000
0100
1000
0100
0010
0000
0001
0100
,
0001
1000
0001
1000
0020
0000
0230
0000
,
0301
0100
0001
0100
1000
0100
1000
0100
,
0001
1000
0010
1000
0100
0000
0010
0001
,
1000
0001
1000
0001
0010
0000
0001
0100
,
0010
1000
0010
1000
0100
0000
MMMM
0000
,
0000
0001
0010
1000
0010
0001
1000
0010
,
0001
1000
0100
0001
0020
0000
0230
0000
,
1300
0100
0010
0100
2000
0000
3010
0100
,
0001
1000
0010
1000
0002
0000
0203
0000
,
0301
0010
0001
0010
1000
0010
1000
0010
,
0001
1000
0100
1000
0020
0000
0130
0001
,
1001
0000
0000
1001
0000
0000
1000
0100
,
0011
0000
0000
1010
0000
0000
0001
0100
,
0020
0000
1030
0001
0010
0100
1000
0020
,
0000
0100
0130
0001
0020
0000
0230
0000
,
1300
0000
0001
0001
0100
0000
0101
0000
,
0001
0000
1000
1000
0100
0000
1100
0000
,
1000
0000
0001
0001
0010
0000
0011
0000
,
0001
0000
1000
1000
0010
0000
1010
0000
,
0001
1001
0010
1001
,
0100
1001
0010
1001
,
0002
0203
2300
3020
,
0032
2003
0020
3030
,
1001
0001
0010
0100
1000
0010
0100
0010
,
1000
0100
0001
0100
1000
0001
0100
2000
,
0000
3100
0001
0020
0000
0031
1000
0100
,
0010
0001
0011
0000
1000
0010
1010
0000
,
0001
1000
0010
0100
0001
0010
0100
0010
,
0001
1000
0010
0002
0000
0023
0000
1030
,
0001
0100
0001
0100
0010
1000
0010
1000
,
0001
0000
1000
0000
0100
0000
0001
0000
1000
0000
0000
0000
0220
0000
0000
0330
,
1001
1000
0010
0100
0001
0010
0100
0010
,
0001
0100
1000
0100
0001
1000
0100
0002
,
0000
0103
1000
0020
0000
1030
0100
1000
,
0010
0100
0110
0000
1000
0001
1001
0000
,
1000
0001
0010
0100
1000
0010
0001
0010
,
1000
0001
0010
1000
0010
0100
0210
0000
,
1300
2001
3010
1002
,
0103
0001
0100
0001
0010
0100
1000
0010
,
0100
0001
0010
0000
0010
0002
0100
0000
,
1003
0010
0100
0001
1000
0000
0011
0000
,
0101
0000
1010
0000
1100
0000
0110
1002
,
0000
0010
0010
0010
0020
0000
0033
0000
,
1001
0000
0000
0000
,
0000
0000
0000
0000
,
0000
0000
0000
0000
,
0000
0000
0000
0000
,
2001
0100
0100
3100
,
1002
0100
0100
0103
,
0201
0010
0010
0010
,
0310
0000
0000
0000
,
4000
0004
0000
0000
0000
0000
0000
0000
0000
0000
0000
0000
0000
0000
0000
0000
,
0000
0000
0000
0000
,
0000
0000
0000
0000
,
0000
0000
0000
0000
0000
3003
0000
0000
,
1000
0100
1000
0000
0001
0100
0001
0000
1000
0010
1000
0000
0001
0010
0001
0000
,
1000
0001
1000
0000
0100
0010
0100
0000
1000
0001
1000
0000
0010
0100
0010
0000
,
1000
0100
0010
0000
0001
0100
0010
0000
1000
0100
0010
0000
0001
0100
0010
0000
,
1000
0001
1000
0001
1000
0001
1000
0001
,
0200
0000
0000
0000
,
0000
0000
0000
0000
,
0000
0000
0000
0000
,
0000
0000
0000
0300
,
0002
0000
0023
0000
,
2030
0000
3200
0000
,
0302
0000
1003
0000
,
1000
0000
0001
0000
0100
0000
1000
0000
0001
0000
0000
0000
0220
0000
0000
0330
,
1001
0001
0100
0010
1000
0100
0001
0100
,
1000
0010
0001
1000
0100
0001
0010
0200
,
0000
0301
0100
2000
0000
3010
0100
0001
,
0010
0100
0110
0000
1000
0001
1001
0000
,
1000
0100
0010
0001
0100
1000
0001
0010
,
1000
0001
0010
1000
0010
0001
1002
0000
,
0103
2001
3100
2001
,
3010
0100
0010
0100
0001
0010
0100
1000
,
0010
1000
0100
0000
0100
2000
0010
0000
,
3001
0010
0100
1000
0001
0000
1010
0000
,
0101
0000
0011
0000
1100
0000
0110
2001
,
0000
0001
0001
0001
0002
0000
3003
0000
,
1000
0200
0010
0000
1300
0200
0010
0000
,
1300
0001
1000
0001
2000
0010
3010
0000
,
1000
0100
0001
0100
0010
0010
0100
1000
,
0010
0100
0110
0000
0001
1000
1001
0000
,
0001
0200
0010
0000
0301
0200
0010
0000
,
0301
1000
0001
1000
0002
0010
0013
0000
,
0001
1000
0001
1000
0010
0010
1000
0001
,
0100
1000
0001
0010
1000
0100
0010
0001
,
0000
2002
0000
0000
0000
0000
0000
0000
,
0000
0000
0000
0000
,
0000
0000
0000
0000
,
0000
0000
0000
0000
,
0000
0000
0000
3003
;
