#VERSION:0.83;
#TITLE:M to the B;
#SUBTITLE:;
#ARTIST:Millie B;
#TITLETRANSLIT:;
#SUBTITLETRANSLIT:;
#ARTISTTRANSLIT:;
#GENRE:;
#CREDIT:;
#MUSIC:M to the B.ogg;
#BANNER:M to the B-banner.png;
#BACKGROUND:M to the B-bg.png;
#CDTITLE:cdtitle.png;
#SAMPLESTART:6.857;
#SAMPLELENGTH:13.714;
#SELECTABLE:YES;
#OFFSET:-0.000;
#BPMS:0.000=140.000;
#STOPS:;
#SPEEDS:0.000=1.000=0.000=0;
#SCROLLS:0.000=1.000;
#TICKCOUNTS:0.000=4;
#TIMESIGNATURES:0.000=4=4;
#LABELS:0.000=Song Start;
#COMBOS:0.000=1;
#ORIGIN:;
#PREVIEWVID:;
#JACKET:M to the B-jacket.png;
#CDIMAGE:;
#DISCIMAGE:;
#BGCHANGES:0.000=M to the B.mp4=1.000=0=0=0=StretchNoLoop==CrossFade_Fastest==,
99999.000=-nosongbg-=1.000=0=0=0=StretchNoLoop====
;
#FGCHANGES:;

//--------------- dance-single - ----------------
#NOTEDATA:;
#STEPSTYPE:dance-single;
#DESCRIPTION:;
#DIFFICULTY:Beginner;
#METER:2;
#RADARVALUES:0.093017,0.172012,0.087464,0,0,67,58,9,0,0,0,0,0,0,0.093017,0.172012,0.087464,0,0,67,58,9,0,0,0,0,0,0;
#CHARTNAME:;
#CHARTSTYLE:;
#CREDIT:djfipu;
#NOTES:
0000
0000
0000
0000
,
0000
0000
0000
0000
,
0000
0000
0000
0000
,
0000
0000
0000
0000
,
1000
0000
0000
0000
,
0001
0000
0000
0000
,
0100
0000
0000
0000
,
0001
0000
0000
0000
,
0010
0000
0000
0000
,
0100
0000
0000
0000
,
1000
0000
0000
0000
,
0001
0000
0000
0000
,
1001
0000
0000
0000
,
0001
0000
0000
0000
,
0100
0000
0000
0000
,
0010
0000
0000
0000
,
1000
0000
0000
0000
,
0100
0000
0000
0000
,
0010
0000
0000
0000
,
0100
0000
0000
0000
,
1001
0000
0000
0000
,
1000
0000
0000
0000
,
0001
0000
0000
0000
,
0100
0000
0000
0000
,
0001
0000
0000
0000
,
1000
0000
0000
0000
,
0100
0000
0000
0000
,
0010
0000
0000
0000
,
0110
0000
0000
0000
,
0010
0000
0000
0000
,
0001
0000
0000
0000
,
1000
0000
0000
0000
,
0010
0000
0000
0000
,
0100
0000
0000
0000
,
0010
0000
0000
0000
,
1000
0000
0000
0000
,
1001
0000
0000
0000
,
0001
0000
0000
0000
,
0001
0000
0000
0000
,
1000
0000
0000
0000
,
1000
0000
0000
0000
,
0100
0000
0000
0000
,
0010
0000
0000
0000
,
0100
0000
0000
0000
,
0110
0000
0000
0000
,
0001
0000
0000
0000
,
1000
0000
0000
0000
,
0010
0000
0000
0000
,
0110
0000
0000
0000
,
0010
0000
0010
0000
,
0110
0000
0000
0000
,
0100
0000
0100
0000
,
1001
0000
0000
0000
,
0001
0000
0000
0000
,
1000
0000
0000
0000
,
0001
0000
0000
0000
,
0010
0000
0000
0000
,
0100
0000
0000
0000
,
0010
0000
0000
0000
,
1001
0000
0000
0000
;

//--------------- dance-single - ----------------
#NOTEDATA:;
#STEPSTYPE:dance-single;
#DESCRIPTION:;
#DIFFICULTY:Easy;
#METER:6;
#RADARVALUES:0.276274,0.29033,0.048591,0,0,199,194,5,0,0,0,0,0,0,0.276274,0.29033,0.048591,0,0,199,194,5,0,0,0,0,0,0;
#CHARTNAME:;
#CHARTSTYLE:;
#CREDIT:djfipu;
#NOTES:
0000
0000
0000
0000
,
0000
0000
0000
0000
,
0000
0000
0000
0000
,
0000
0000
0000
0000
,
1000
0000
0001
0001
,
0100
0000
0010
0010
,
0100
0000
0001
0001
,
1000
0000
0100
0100
,
0010
0000
0001
0001
,
1000
0000
1000
1000
,
0010
0000
0100
0100
,
0010
0000
1000
1000
,
0001
1000
0001
0000
,
0100
0010
0100
0000
,
0001
0010
0100
0000
,
1000
0100
0010
0000
,
0001
1000
0010
0000
,
1000
0001
0100
0000
,
0001
1000
0100
0100
,
1000
0000
0001
0000
,
1000
0100
1000
1000
,
0010
0100
0001
0001
,
0100
0010
1000
1000
,
0100
0010
0001
0001
,
0100
0001
0100
0010
,
1000
0010
1000
0001
,
1000
0100
0010
0100
,
1000
0000
0001
0000
,
1000
1000
0010
0100
,
0001
0001
0100
0010
,
1000
0001
1000
0100
,
1000
0001
0100
0100
,
0010
0100
0001
0001
,
1000
0100
0010
0100
,
1000
0001
1000
0010
,
0100
0001
1001
0000
,
0001
1000
0001
0001
,
1000
0100
0010
0100
,
1000
0001
0100
0010
,
0100
0001
1000
1000
,
0001
0001
0010
0010
,
0100
0100
1000
1000
,
0001
1000
0010
0100
,
0010
1000
0001
0001
,
0010
0100
0010
0100
,
1000
0001
0100
0010
,
0100
0110
0000
1001
,
0000
0110
0000
1001
,
1000
0000
0001
1000
,
0010
0100
0010
1000
,
0010
0010
0010
0100
,
0010
1000
0010
0100
,
0001
0000
1000
0000
,
0100
0100
0100
0010
,
0001
0000
1000
0000
,
0001
0001
0100
0001
,
0001
0000
1000
0000
,
0100
0100
1000
0010
,
0100
0000
0010
0010
,
1000
0001
1000
0001
;

//--------------- dance-single - ----------------
#NOTEDATA:;
#STEPSTYPE:dance-single;
#DESCRIPTION:;
#DIFFICULTY:Medium;
#METER:9;
#RADARVALUES:0.417881,0.435496,0.155491,0.573372,0.068027,301,285,16,59,0,0,0,0,0,0.417881,0.435496,0.155491,0.573372,0.068027,301,285,16,59,0,0,0,0,0;
#CHARTNAME:XO-;
#CHARTSTYLE:;
#CREDIT:djfipu;
#NOTES:
0000
0000
0000
0000
,
0000
0000
0000
0000
,
0000
0000
0000
0000
,
0000
0000
0000
0000
,
1000
0010
0100
0000
0001
0000
0020
0000
,
0031
1000
0100
0000
1000
0000
0001
0000
,
0100
0000
0010
0000
1000
0001
2000
0000
,
3001
0001
0100
0000
0010
0000
0200
0000
,
0310
0010
2000
0000
3010
0010
0200
0000
,
0301
0001
0010
0000
0100
0000
1000
0000
,
0100
0100
0020
0000
0130
0100
2000
0000
,
3001
0010
0100
0000
0010
0000
1001
0000
,
0001
0100
0001
0000
1000
0000
0010
0000
,
0100
0010
1000
0000
0001
0000
0100
0000
,
0010
1000
0100
0000
0010
0001
0100
0000
,
0001
1000
0001
0000
1000
1000
0010
0000
,
1000
1000
0100
0000
0010
0000
0200
0000
,
1300
0001
0100
0000
0001
0000
1000
0010
,
0100
0010
1000
0000
0100
0100
0100
0000
,
0010
0001
1000
0100
,
0010
0001
0100
0000
0001
1000
0010
0000
,
0100
0010
1000
0000
0001
0000
1000
0010
,
0100
0002
2003
3200
,
0320
0000
0000
0032
0000
0000
2003
0000
0000
3020
0000
0000
0130
0000
0000
0000
,
0010
1000
0010
0000
0100
0001
0100
0000
,
0001
0010
0001
0000
1000
0100
1000
0000
,
0101
2000
3020
0230
,
0302
0000
0000
2003
0000
0000
3200
0000
0000
0320
0000
0000
0130
0000
0000
0000
,
1000
0001
0100
0000
0001
0000
0001
0000
,
0010
0100
1000
0000
0001
0100
2000
3000
,
1000
0100
0001
0000
0001
1000
0010
0000
,
1000
0001
0010
0100
,
1000
0100
1000
0010
0100
0001
1000
0000
,
0001
0010
0001
0000
1000
0010
1000
0000
,
0101
1001
1100
1001
,
2000
0000
0000
3200
0000
0000
0320
0000
0000
0032
0000
0000
1003
0000
0000
0000
,
1010
0000
0010
0100
0010
0100
0002
0003
,
1000
0001
1000
0000
0100
0000
0010
0000
,
0001
0010
0001
0000
0010
0100
0010
0000
,
0100
1000
0001
0000
0100
0000
0010
0000
,
1000
0100
0001
0000
0100
0000
1000
0000
,
0001
0000
0010
0000
1000
0010
0001
0000
,
1000
0000
0010
0000
0100
0000
0002
0003
,
1000
0000
0001
0000
0100
0010
0100
0000
,
0010
1000
0100
0000
0010
0001
0100
0000
,
0001
1000
0100
0000
0010
0001
1000
0000
,
0001
0101
1000
1100
,
0001
1010
1000
0011
,
1000
0001
0000
0001
1000
0000
0000
0000
,
0000
0001
0100
0010
1000
0100
0010
0001
,
0011
0000
0011
0000
0000
0011
0000
0000
,
0001
1000
0000
1000
0001
0000
0000
0000
,
2000
3200
0320
0230
,
2300
0000
0000
3200
0000
0000
0320
0000
0000
0032
0000
0000
1003
0000
0000
0000
,
1001
0002
0023
0230
,
2300
0000
0000
3020
0000
0000
0230
0000
0000
0302
0000
0000
1003
0000
0000
0000
,
0002
0023
0230
0320
,
0032
0000
0000
0023
0000
0000
0230
0000
0000
2300
0000
0000
3001
0000
0000
0000
,
1001
2000
3200
0320
,
0032
0000
0000
0203
0000
0000
0320
0000
0000
2030
0000
0000
3001
0000
0000
0000
;

//--------------- dance-single - ----------------
#NOTEDATA:;
#STEPSTYPE:dance-single;
#DESCRIPTION:;
#DIFFICULTY:Hard;
#METER:13;
#RADARVALUES:0.581702,0.696793,0.223518,0.748299,0.252672,419,396,23,77,0,0,0,0,2,0.581702,0.696793,0.223518,0.748299,0.252672,419,396,23,77,0,0,0,0,2;
#CHARTNAME:XO;
#CHARTSTYLE:;
#CREDIT:djfipu;
#NOTES:
0000
0000
0000
0000
,
0000
0000
0000
0000
,
0000
0000
0000
0000
,
0000
0000
0000
0000
,
1000
0001
0100
0000
0020
0000
0130
0000
0001
0000
1000
0100
2000
0000
0000
0000
,
3001
0100
0010
0000
1000
0000
0001
0000
1000
0000
0100
0000
0001
0000
0100
0000
,
1000
0000
0001
0010
0001
0000
1000
0000
0100
0000
1000
0000
0020
0000
0000
0000
,
0130
0000
0001
0100
0002
0000
1003
0000
0001
0000
0100
0000
0110
0000
0000
0000
,
0010
1000
0020
0000
0230
0000
0000
0000
0301
0000
0001
0000
2000
0000
0000
0000
,
3100
0000
0010
0100
0000
0100
0010
0000
0001
0000
1000
0000
1001
0000
0000
0000
,
1000
0000
0100
0020
0000
0000
0130
0000
1000
0000
0001
0000
0101
0000
0000
0000
,
0001
1000
0100
1000
0010
0100
0001
0000
,
1000
0000
0001
0000
0100
0000
0010
0100
0020
0000
0000
0000
1030
0000
0000
0000
,
0001
0000
1000
0100
0010
0000
0001
0000
0100
0000
0010
0000
1000
0000
0001
0000
,
1000
0000
0001
0000
0100
0000
0010
1000
0001
0000
0010
0000
0100
0000
0010
0000
,
0001
1000
0001
0100
0010
0100
1001
0000
,
0010
0000
0100
0000
1001
0000
0001
0000
1000
0000
0001
0100
0020
0000
0000
0000
,
1030
0000
0001
0100
0000
0010
1000
0000
0001
0000
0010
0000
0200
0000
0310
0000
,
0001
0000
1000
0000
0100
0000
1000
0000
0002
0003
0002
0003
0002
0003
0000
0000
,
1000
0010
0000
0100
0010
0000
0101
0000
,
1000
0100
1000
0001
1000
0000
0001
0000
0100
0000
0010
0000
2000
0000
0000
3001
,
0100
0000
0010
0100
0001
0000
1000
0100
1000
0000
0001
0000
1000
0000
0001
1000
,
0100
0010
0002
0103
0002
0013
0002
1003
,
2000
0000
0000
3200
0000
0000
0320
0000
0000
0032
0000
0000
1003
0000
0000
0000
,
0001
0000
0100
0000
0010
0000
0100
0000
0001
0000
1000
0100
0000
0010
0000
0000
,
0100
0000
1000
0001
0100
0000
0002
0000
0013
0000
0000
0000
0001
0000
1000
0010
,
0100
0001
2000
3010
2000
3100
2000
3001
,
0002
0000
0000
0023
0000
0000
0230
0000
0000
2300
0000
0000
3001
0000
0000
0000
,
1000
0010
1000
0001
0010
0200
0000
1300
,
0001
0000
1000
0010
0100
0000
0001
0000
1000
0000
0100
0000
0002
0000
0000
0000
,
0103
0000
1000
0000
0010
0000
0100
0010
0100
0000
0001
0000
2000
0000
0000
0000
,
3001
0010
0100
1000
0001
1000
0020
0130
,
0001
0000
0100
0001
0010
0000
0100
0000
0010
0001
1000
0001
0200
0000
0300
0000
,
0110
0000
0010
0000
1010
0000
1000
0000
1001
0000
0001
0000
0011
0000
0010
0100
,
0000
1000
1001
0001
0101
0000
0110
0000
,
0020
0000
0000
0230
0000
0000
0302
0000
0000
2003
0000
0000
3100
0000
0000
0000
,
0011
0000
0001
0100
1000
0100
0002
0003
,
1000
0100
0010
0000
0001
0000
1000
0000
0010
0000
0100
0000
0001
0000
1000
0000
,
0001
0000
1000
0100
2000
0000
0000
0000
3010
0000
0100
0000
0002
0000
1003
0000
,
0001
0010
0100
1000
0001
0100
0101
0000
,
1000
0010
0100
0010
0001
0010
1000
0000
,
0001
0010
0100
0010
1000
0010
0001
0000
,
1000
0001
F00F
1000
0001
0100
0220
0330
,
0010
1000
0100
0010
0100
1000
0001
0000
,
0100
0000
0010
0100
0001
0000
1000
0000
0001
0000
0010
0000
0011
0000
0000
0000
,
1000
0000
0010
0100
0010
0000
1000
0000
0001
0000
0100
0000
0001
0000
1000
0000
,
0100
0010
0110
0000
0001
0000
0011
0000
,
1000
1010
0010
1001
,
1000
0010
0000
0100
0010
0000
1000
0000
,
0001
1000
0100
0001
1000
0010
0001
1000
,
0010
0000
0010
0000
0100
0000
0100
0000
0010
0000
1000
0100
2000
0000
0000
0000
,
3001
0000
0001
0100
0002
0000
0000
0000
1003
0000
1000
0010
2000
0000
0000
0000
,
3002
0203
0320
0230
,
0302
0000
0000
0203
0000
0000
0320
0000
0000
2030
0000
0000
3001
0000
0000
0000
,
1001
2000
3020
0230
,
0302
0000
0000
0023
0000
0000
0230
0000
0000
2300
0000
0000
3001
0000
0000
0000
,
2000
3020
0230
0320
,
2030
0000
0000
3020
0000
0000
0230
0000
0000
0302
0000
0000
1003
0000
0000
0000
,
1001
0002
0203
0320
,
2030
0000
0000
3200
0000
0000
0320
0000
0000
0032
0000
0000
1003
0000
0000
0000
;

//--------------- dance-single - bri'ish national anthem ----------------
#NOTEDATA:;
#STEPSTYPE:dance-single;
#DESCRIPTION:bri'ish national anthem;
#DIFFICULTY:Challenge;
#METER:15;
#RADARVALUES:0.676107,0.696793,0.262391,1.282799,0.670554,487,460,27,132,21,0,0,0,2,0.676107,0.696793,0.262391,1.282799,0.670554,487,460,27,132,21,0,0,0,2;
#CHARTNAME:b-XF+ DS-;
#CHARTSTYLE:;
#CREDIT:djfipu;
#NOTES:
0000
0000
0000
0000
,
0000
0000
0000
0000
,
0000
0000
0000
0000
,
0000
0000
0000
0000
,
0001
1000
0100
0000
0010
0000
0001
1000
0100
0000
1000
0100
0002
0000
0003
0000
,
0200
0000
0300
00M0
0200
0000
0300
0000
0001
0000
0000
0000
0000
0000
0000
0000
1000
0000
0000
0000
0001
0000
0000
0000
0020
0000
0030
0M00
0020
0000
0030
0000
1000
0000
0000
0000
0000
0000
0000
0000
0001
0000
0000
0000
0000
0000
0000
0000
0100
0000
0000
0000
0000
0000
0000
0000
0010
0000
0000
0000
1000
0000
0000
0000
,
0001
0000
0000
0000
0000
0000
0000
0000
0100
0000
0000
0000
0010
0000
0000
0000
0200
0000
0300
00M0
0200
0000
0300
0000
2000
0000
0000
0000
0000
0000
0000
0000
3002
0000
0000
0000
0000
0000
0000
0000
0203
0000
0000
0000
0000
0000
0000
0000
0320
0000
0000
0000
0000
0000
0000
0000
0030
0000
0000
0000
0000
0000
0000
0000
,
0010
0000
1000
0100
0002
0000
0103
0000
2000
0000
0010
0000
3002
0000
0000
0000
,
0203
0000
0300
00M0
0200
0000
0300
0000
1000
0000
0000
0000
0000
0000
0000
0000
0022
0000
0000
0000
0000
0000
0000
0000
0033
0000
0000
0000
0000
0000
0000
0000
1000
0000
0000
0000
0000
0000
0000
0000
0010
0000
0000
0000
0000
0000
0000
0000
2200
0000
0000
0000
0000
0000
0000
0000
3300
0000
0000
0000
0000
0000
0000
0000
,
0001
0000
0000
0000
0000
0000
0000
0000
0001
0000
0000
0000
0200
0000
0000
0000
0300
0000
00M0
0000
0200
0000
0000
0000
1300
0000
0000
0000
0001
0000
0000
0000
0020
0000
0030
0M00
0020
0000
0030
0000
0100
0000
0000
0000
0000
0000
0000
0000
0011
0000
0000
0000
0000
0000
0000
0000
0000
0000
0000
0000
0000
0000
0000
0000
,
1000
0000
0010
0200
0000
0000
0301
1000
0001
0000
0010
0000
0110
0000
0000
0100
,
1000
0000
0000
0000
0000
0000
0000
0000
0010
0000
0000
0000
0000
0000
0000
0000
0100
0000
0000
0000
0000
0000
0000
0000
0001
0000
0000
0000
1000
0000
0000
0000
0020
0000
0030
0M00
0020
0000
0030
0000
0001
0000
0000
0000
0000
0000
0000
0000
1100
0000
0000
0000
0000
0000
0000
0000
0000
0000
0000
0000
0000
0000
0000
0000
,
0001
0000
0010
0000
0100
0000
1000
0010
0200
0000
0300
0000
0110
0000
0000
0000
,
0010
0100
0010
1000
0010
0000
1000
0002
0000
0000
0013
0000
0011
0000
0000
1000
,
0100
0000
0010
0000
0001
0000
1000
0010
0100
0000
0010
0000
1000
0000
0001
0100
,
0010
0000
1000
0100
0010
0000
0001
0000
1000
0000
0010
0000
0110
0000
0000
0000
,
0001
0000
0010
0000
0110
0000
0010
0000
0001
0000
1000
0010
0200
0000
0300
0001
,
0200
0000
0300
00M0
0200
0000
2300
0000
0000
0000
0000
0000
3001
0000
0100
0000
0001
0000
0000
0000
0010
0000
0000
0000
0101
0000
0000
0000
1000
0000
0000
0000
,
0010
0000
0100
0000
0001
0000
1000
0000
0200
0300
0200
0300
0200
0300
0000
0000
,
0010
0000
0001
0000
1000
0000
0001
0010
0100
0000
1000
0000
1001
0000
0000
0000
,
1000
0000
0000
0000
0010
0000
0000
0000
0100
0000
0000
0000
0010
0000
0000
0000
1000
0000
0000
0000
0000
0000
0000
0000
0001
0000
0000
0000
1000
0000
0000
0000
0200
0000
0300
00M0
0200
0000
0300
0000
0002
0000
0000
0000
0000
0000
0000
0000
0013
0000
0000
0000
0000
0000
0000
0000
0000
0000
0000
0000
0100
0000
0000
0000
,
1000
0000
0000
0000
0001
0000
0010
0000
0001
0000
0000
0000
1000
0000
0010
0000
0200
0000
0300
00M0
0200
0000
0300
0000
2000
0000
0000
0000
3010
0000
0100
0000
,
0002
0000
1003
0000
0001
0000
0010
0000
0100
0000
1000
0010
0100
0000
0010
0000
,
1000
0000
0000
0000
0001
0000
0020
0000
0030
0M00
0020
0000
1030
0000
0000
0000
0100
0000
0000
0000
1000
0000
0020
0000
0030
0M00
0020
0000
0031
0000
0000
0000
,
1000
0000
0001
0200
0000
0000
0301
0000
1000
0000
0001
0200
0000
0301
0000
0000
,
0001
0000
0000
0000
0000
0000
0000
0000
0020
0000
0030
0M00
0020
0000
0030
0000
0100
0000
0000
0000
0000
0000
0000
0000
0001
0000
0000
0000
0000
0000
0000
0000
1000
0000
0000
0000
0000
0000
0000
0000
0100
0000
0000
0000
0000
0000
0000
0000
0010
0000
0000
0000
0000
0000
0000
0000
0001
0000
0000
0000
0200
0000
0000
0000
,
0300
0000
0000
00M0
0000
0000
0200
0000
0000
0000
0000
0000
1300
0000
0000
0000
0000
0000
0000
0000
0000
0000
0000
0000
0001
0000
0000
0000
0000
0000
0000
0000
0100
0000
0000
0000
0000
0000
0000
0000
0010
0000
0000
0000
0000
0000
0000
0000
1000
0000
0000
0000
0000
0000
0000
0000
0100
0000
0000
0000
0000
0000
0000
0000
0000
0000
0010
0000
0000
0000
0000
0000
0000
0000
0000
0000
0000
0000
0000
0000
0000
0100
0000
0000
0000
0000
0000
0000
0000
0000
0000
0000
0000
0000
0000
0000
,
2000
0000
0000
3002
0000
0000
0203
0000
0000
0320
0000
0000
1030
0000
0000
0000
,
0001
0000
1000
0100
0010
0000
0001
0000
1000
0000
0002
0000
0000
0000
0103
0000
,
0010
0000
0000
0000
0000
0000
0000
0000
1000
0000
0000
0000
0000
0000
0000
0000
0020
0000
0030
0M00
0020
0000
0030
0000
0001
0000
0000
0000
0000
0000
0000
0000
2000
0000
0000
0000
0000
0000
0000
0000
3020
0000
0000
0000
0000
0000
0000
0000
0032
0000
0000
0000
0000
0000
0000
0000
0003
0000
0000
0000
0000
0000
0000
0000
,
0010
0000
1000
0000
0101
0000
1000
0001
0100
0000
0010
0100
0020
0000
0000
0000
,
2030
0000
0000
0000
0000
0000
3100
0000
0000
0000
0010
0000
0000
0000
0001
0000
0000
0000
1000
0000
0000
0001
0000
0000
0100
0000
0000
0000
0000
0000
0001
0000
0000
1000
0000
0000
0200
0000
0000
0000
0000
0000
0310
0000
0000
0000
0000
0000
,
0001
0000
0000
0000
0000
0000
0000
0000
1000
0000
0000
0000
0001
0000
0000
0000
0100
0000
0000
0000
0000
0000
0000
0000
0010
0000
0000
0000
0000
0000
0000
0000
1000
0000
0000
0000
0200
0000
0300
00M0
0200
0000
0300
0000
0001
0000
0000
0000
1000
0000
0000
0000
0000
0000
0000
0000
0000
0000
0000
0000
0001
0000
0000
0000
,
0010
0000
0100
0000
1000
0000
0001
0000
0100
0000
0010
1000
0001
0000
1000
0200
,
0000
0300
1000
0001
0100
0000
0001
0020
0000
0030
0000
0000
1001
0000
0000
0000
,
0002
0000
0000
0203
0000
0000
2300
0000
0000
3020
0000
0000
0032
0000
1003
0000
,
0101
0000
0000
0000
0000
0000
0000
0000
0000
0000
0000
0000
0000
0000
0000
0000
2000
0000
0000
0000
0000
0000
0000
0000
3020
0000
0030
0M00
0020
0000
0030
0000
0001
0000
0000
0000
0000
0000
0000
0000
1000
0000
0000
0000
0000
0000
0000
0000
0200
0000
0000
0000
0000
0000
0000
0000
0300
0000
0000
0000
0000
0000
0000
0000
,
0020
0000
0000
0030
0M00
0000
0020
0000
0000
0030
0000
0000
1000
0000
0000
0000
0000
0000
0000
0000
0000
0000
0000
0000
0001
0000
0000
0000
0000
0000
0000
0000
0000
0000
0000
0000
0100
0000
0000
0000
0000
0000
0000
0000
0000
0000
0000
0000
0010
0000
0000
0000
0000
0000
1000
0000
0000
0000
0000
0000
0001
0000
0000
0000
0000
0000
0010
0000
0000
0000
0000
0000
0200
0000
0000
0000
0000
0000
0000
0000
0000
0000
0000
0000
0310
0000
0000
0000
0000
0000
0001
0000
0000
0000
0000
0000
,
1000
0000
0000
0000
0000
0000
0000
0000
0200
0000
0300
00M0
0200
0000
0300
0000
0002
0000
0000
0000
0000
0000
0000
0000
0003
0000
0000
0000
0000
0000
0000
0000
1000
0000
0000
0000
0000
0000
0000
0000
0010
0000
0000
0000
0000
0000
0000
0000
0100
0000
0000
0000
0000
0000
0000
0000
0001
0000
0000
0000
0000
0000
0000
0000
,
1000
0000
0000
0000
1000
0000
0000
0000
0000
0000
0010
0000
0000
0000
0000
0000
0000
0000
1000
0000
0000
0001
0000
0000
1000
0000
0000
0000
0100
0000
0000
0000
0010
0000
0000
0000
0001
0000
0000
0000
0000
0000
0000
0000
0000
1000
0000
0000
,
0100
0000
0010
0000
0101
0000
1000
0010
0100
0010
1000
0000
0011
0000
0000
0000
,
0001
0000
0000
0000
0100
0000
0000
0000
0010
0000
0000
0000
0000
0000
0000
0000
1100
0000
0000
0000
0000
0000
0000
0000
0020
0000
0030
0M00
0020
0000
0030
0000
0001
0000
0000
0000
0000
0000
0000
0000
1000
0000
0000
0000
0000
0000
0000
0000
0101
0000
0000
0000
0000
0000
0000
0000
0000
0000
0000
0000
0000
0000
0000
0000
,
0010
0000
0100
0000
F00F
0000
1000
0001
0100
0000
0010
0000
0220
0000
0330
0000
,
1000
0000
0000
0000
0000
0000
0000
0000
0000
0000
0000
0000
0000
0000
0000
0000
0001
0000
0000
0000
0000
0000
0000
0000
0000
0000
0000
0000
0000
0000
0000
0000
0000
0000
0000
0000
0000
0000
0000
0000
0020
0000
0000
0000
0000
0000
0000
0000
0000
0000
0000
0000
0000
0000
0000
0000
0000
0000
0000
0000
0000
0000
0000
0000
0000
0000
0000
0000
0000
0000
0000
0000
0130
0000
0000
0000
0000
0000
0000
0000
0000
0000
0000
0000
0000
0000
0000
0000
0000
0000
0000
0000
0000
0000
0000
0000
1000
0000
0000
0000
0000
0000
0000
0000
0000
0000
0000
0000
0000
0000
0000
0000
0000
0000
0000
0000
0000
0000
0000
0000
0020
0000
0000
0000
0000
0000
0030
0000
0000
0M00
0000
0000
0020
0000
0000
0000
0000
0000
0030
0000
0000
0000
0000
0000
0002
0000
0000
0000
0000
0000
0000
0000
0000
0000
0000
0000
0000
0000
0000
0000
0000
0000
0000
0000
0000
0000
0000
0000
0003
0000
0000
0000
0000
0000
0000
0000
0000
0000
0000
0000
1000
0000
0000
0000
0000
0000
0000
0000
0000
0000
0000
0000
,
0010
0000
0100
0001
0100
0000
0010
1000
0100
0000
0010
0000
0110
0000
0000
0000
,
0100
0000
1000
0001
0100
0000
0010
1000
0000
0000
0001
1000
0100
0000
0010
0000
,
0002
0000
1003
0000
0000
0000
0000
0000
0000
0000
0001
0100
0010
0000
0100
0000
,
0002
1003
0000
0001
0010
0000
0110
0100
,
1000
0001
0000
1000
0010
0100
0002
1003
,
0010
0000
1000
0100
0002
0000
0103
0000
0010
0000
0001
0100
2000
0000
3100
0000
,
0020
0030
0020
0030
0020
0030
0020
0030
0100
0000
0001
0010
2000
0000
3010
0000
,
0100
0000
1000
0010
0002
0000
0013
0000
0100
0000
0001
0010
2000
0000
3000
0000
,
0120
0000
0000
0000
0032
0000
0000
0000
2003
0000
0000
0000
3020
0000
0000
0032
,
0000
0000
0203
0000
0000
2300
0000
0000
3001
0000
0000
0000
0011
0000
0000
0000
,
1100
0000
1000
0000
0002
0000
0000
0003
2000
0000
0000
0000
3200
0000
0000
0000
,
0302
0000
0000
0023
0000
0000
2030
0000
0000
3002
0000
0000
1003
0000
0000
0000
,
0012
0000
0000
0000
2003
0000
0000
0000
3002
0000
0000
0000
0203
0000
0000
2300
,
0000
0000
3020
0000
0000
0032
0000
0000
1003
0000
0000
0000
1100
0000
0000
0000
,
1010
0000
0001
0000
2000
0000
0000
3000
0002
0000
0000
0000
0023
0000
0000
0000
,
2030
0000
0000
3200
0000
0000
0302
0000
0000
2003
0000
0000
3001
0000
0000
0000
;
