#VERSION:0.83;
#TITLE:Luv To Me (AMD Mix) (Hard);
#SUBTITLE:;
#ARTIST:DJ Kazu feat. tiger YAMATO;
#TITLETRANSLIT:;
#SUBTITLETRANSLIT:;
#ARTISTTRANSLIT:;
#GENRE:;
#CREDIT:;
#MUSIC:Luv To Me (HARD).ogg;
#BANNER:bn.png;
#BACKGROUND:bg.png;
#CDTITLE:;
#SAMPLESTART:30.617;
#SAMPLELENGTH:15.002;
#SELECTABLE:YES;
#OFFSET:-0.021;
#BPMS:0.000=210.812;
#STOPS:;
#SPEEDS:0.000=1.000=0.000=0;
#SCROLLS:0.000=1.000;
#TICKCOUNTS:0.000=4;
#TIMESIGNATURES:0.000=4=4;
#LABELS:0.000=Song Start;
#COMBOS:0.000=1;
#ORIGIN:;
#PREVIEWVID:;
#JACKET:jacket.png;
#CDIMAGE:;
#DISCIMAGE:;
#BGCHANGES:;
#FGCHANGES:;

//--------------- dance-single - Venomothim ----------------
#NOTEDATA:;
#STEPSTYPE:dance-single;
#DESCRIPTION:Venomothim;
#DIFFICULTY:Beginner;
#METER:4;
#RADARVALUES:0.172487,0.214104,0.028079,0,0,86,84,2,0,0,0,0,0,0,0.172487,0.214104,0.028079,0,0,86,84,2,0,0,0,0,0,0;
#CHARTNAME:;
#CHARTSTYLE:;
#CREDIT:;
#NOTES:
0000
0000
0000
0000
,
0000
0000
0000
0000
,
0000
0000
0000
0000
,
0000
0000
0000
0000
,
0000
0000
0000
0000
,
1000
0000
0000
0000
,
0001
0000
0000
0000
,
0100
0000
0000
0000
,
0010
0000
0010
0000
,
0010
0000
0000
0000
,
1000
0000
1000
0000
,
0001
0000
0001
0000
,
1000
0000
0000
0000
,
0000
0000
0000
0000
,
0010
0000
0010
0000
,
0100
0000
0100
0000
,
0010
0000
0000
0000
,
1001
0000
0000
0000
,
1000
0000
1000
0000
,
0100
0000
1000
0000
,
0001
0000
0001
0000
,
0100
0000
0001
0000
,
1000
0000
1000
0000
,
0010
0000
1000
0000
,
0001
0000
0001
0000
,
0010
0000
0001
0000
,
0001
0000
0000
0000
,
1000
0000
0000
0000
,
0010
0000
0000
0000
,
0100
0000
0000
0000
,
0001
0000
0000
0000
,
0010
0000
0000
0000
,
0100
0000
0000
0000
,
1000
0000
0000
0000
,
0001
0000
0000
0000
,
1000
0000
1000
0000
,
0001
0000
0000
0000
,
0100
0000
0100
0000
,
0010
0000
0000
0000
,
0100
0000
0100
0000
,
0001
0000
0000
0000
,
1000
0000
1000
0000
,
0100
0000
0000
0000
,
1000
0000
1000
0000
,
0010
0000
1000
0000
,
0001
0000
0001
0000
,
0010
0000
0001
0000
,
0100
0000
0100
0000
,
0001
0000
1000
0000
,
0100
0000
0100
0000
,
1000
0000
0001
0000
,
0000
0000
0000
0000
,
1000
0000
0000
0000
,
0001
0000
0000
0000
,
0100
0000
0000
0000
,
0010
0000
0000
0000
,
0100
0000
0100
0000
,
0001
0000
0001
0000
,
1000
0000
1000
0000
,
0100
0000
0100
0000
,
1000
0000
0000
0000
,
1001
0000
0000
0000
;

//--------------- dance-single - eataninja ----------------
#NOTEDATA:;
#STEPSTYPE:dance-single;
#DESCRIPTION:eataninja;
#DIFFICULTY:Easy;
#METER:8;
#RADARVALUES:0.387092,0.385388,0.140396,0.084238,0,193,183,10,6,0,0,0,0,0,0.387092,0.385388,0.140396,0.084238,0,193,183,10,6,0,0,0,0,0;
#CHARTNAME:;
#CHARTSTYLE:;
#CREDIT:;
#NOTES:
0000
0000
0000
0000
,
0000
0000
0000
0000
,
0000
0000
0000
0000
,
0000
0000
0000
0000
,
0000
0000
0000
0000
,
1000
0001
0100
1000
,
0000
0100
0000
0000
0110
0000
0000
0000
,
2000
0000
3002
0000
,
0013
0010
0100
0100
,
0000
0000
0000
0000
,
1000
0001
0100
0100
,
0010
0010
0100
0001
,
1000
0100
0001
0100
,
1000
0100
0010
0000
,
0001
0001
1000
0010
,
0100
0100
0001
0010
,
1000
0010
0001
0010
,
1000
0010
0001
0000
,
0100
0000
1001
0000
,
1000
0010
0100
0000
,
0010
0000
1001
0000
,
0001
0010
1000
0000
,
0010
0000
1001
0000
,
0001
0010
0100
0000
,
1000
0001
1000
1000
,
0010
0001
0010
0000
,
0100
0100
0100
0000
,
0001
1000
0001
0010
,
0001
1000
0001
0010
,
0001
1000
0010
0100
,
1000
0100
0001
0000
,
1000
0001
1000
0010
,
1000
0001
1000
0010
,
0100
0010
0100
0100
,
0001
0010
1000
0000
,
0010
0000
0100
0000
,
1000
0000
0001
0000
,
2002
3003
0220
0330
,
1000
0001
0100
0000
,
0001
0001
1000
1000
,
0100
0001
0100
0000
,
0010
0001
1000
0010
,
0100
0001
1000
0000
,
0001
0100
0101
0000
,
1000
0001
0010
0000
,
0100
0010
0110
0000
,
0010
1000
0010
0000
,
0100
1000
1100
0000
,
0001
1000
0010
0000
,
0100
0100
0001
1000
,
0100
0001
0100
0000
,
0010
0010
0010
0000
,
0001
1000
0100
1000
,
0001
1000
0010
1000
,
0001
1000
0100
0010
,
0001
0100
1000
0100
,
0001
1000
0010
1000
,
0001
1000
0100
1000
,
0010
0100
0010
0100
,
0001
0010
1000
0010
,
0001
0000
0000
0000
0000
1000
0000
0000
,
1001
0000
0000
0000
;

//--------------- dance-single - Venoninja ----------------
#NOTEDATA:;
#STEPSTYPE:dance-single;
#DESCRIPTION:Venoninja;
#DIFFICULTY:Medium;
#METER:11;
#RADARVALUES:0.557573,0.658107,0.182515,0.449268,0.01404,278,265,13,32,0,0,0,0,0,0.557573,0.658107,0.182515,0.449268,0.01404,278,265,13,32,0,0,0,0,0;
#CHARTNAME:;
#CHARTSTYLE:;
#CREDIT:;
#NOTES:
0000
0000
0000
0000
,
0000
0000
0000
0000
,
0000
0000
0000
0000
,
0000
0000
0000
0000
,
0000
0000
0000
0000
,
1000
0100
0000
0100
0000
0100
0010
0001
,
0000
0100
0000
1000
0000
0100
0010
0100
,
0002
2003
3200
0320
,
0031
0000
0001
0000
0100
0100
0010
0010
,
0000
0000
0000
2000
3002
2003
3000
0000
,
0001
0100
0000
0100
0100
0010
0000
0100
,
0001
1000
0000
1000
0000
0100
0010
0001
,
2000
0000
0010
0000
0000
0001
0000
0000
,
0010
0000
0000
0001
0000
0000
3001
0000
,
1000
0010
0010
0000
0010
0100
0010
0010
,
1000
0001
0000
0001
0000
0010
0100
2000
,
0000
0000
0000
0002
0000
3003
0000
2000
,
0000
3010
0000
0200
0000
0301
0000
0000
,
0000
0001
0000
0001
0000
1000
0000
1000
,
0000
0100
0000
0100
0000
0010
0001
0010
,
0000
0001
0000
0001
0000
0100
0000
0100
,
0000
0010
0000
0010
1000
0100
0000
0010
,
0000
0001
0000
0001
0000
1000
0000
1000
,
0000
0100
0000
0100
0010
0100
1000
0001
,
0000
0100
0000
0100
0000
0010
0000
0100
,
0001
0000
0000
1000
0000
0000
0001
0000
0020
0000
0000
0000
0000
0000
0000
0000
,
0130
0000
0100
0000
0010
0100
0010
0100
,
1000
0000
0001
0100
0000
0100
0000
0010
,
0000
0100
0001
1000
0000
1000
0000
0001
,
0010
0000
0001
0100
0000
0100
0000
0010
,
0000
0100
0001
0010
0000
1001
0000
0001
,
1000
0000
1000
0010
0000
0010
0000
1000
,
0001
0000
0010
0100
0000
0100
0000
0020
,
0000
0031
1000
0010
0000
0010
0000
0200
,
0000
0301
1000
0001
0010
0100
0000
0000
,
2000
0000
0010
0000
0000
0010
0000
3002
,
0000
0200
0000
0000
0000
0303
0000
0002
,
0000
0013
0100
1000
0010
0100
0000
0002
,
0000
1003
0000
0002
0000
1003
0000
0001
,
0100
0010
0100
0010
0000
1000
0000
2000
,
0000
3001
0000
2000
0000
3001
0000
0000
,
0000
0000
0011
0000
0000
1100
0000
0000
,
0100
0100
0010
0010
,
0011
1010
1001
0000
,
0001
0010
0100
2000
0000
3001
0000
1000
,
0010
0100
0010
0100
0001
0000
0000
1000
,
0001
0000
0000
0010
0000
0000
0200
0000
0000
0000
0000
0000
0300
0000
0000
0000
,
1000
0010
0100
0010
0100
0000
0000
0000
,
0001
1000
0100
0010
0000
0010
0000
0000
,
0100
1000
0100
1000
0010
0000
0100
0000
,
0001
0000
0000
0010
0000
0000
1000
0000
0010
0000
0000
0000
0001
0000
0000
0000
,
1001
0000
0110
0000
1000
1000
0001
0001
,
1000
0001
0100
0020
0000
0130
0000
0000
,
0001
1000
0100
0020
0000
0130
0000
0000
,
1000
0001
0100
0020
0000
0130
0000
0000
,
0001
0001
1000
0100
0001
0100
0000
1000
,
0001
0100
0010
0200
0000
0310
0000
1000
,
0001
0010
0100
0020
0000
0031
0000
0100
,
0001
1000
0100
1000
0000
1000
0000
0010
,
0000
1000
0001
1000
0020
0200
0000
0330
,
0001
0002
0000
0000
0000
0100
0000
1000
,
2000
0000
0000
0000
,
0000
0000
3003
0000
;

//--------------- dance-single - eatamothim ----------------
#NOTEDATA:;
#STEPSTYPE:dance-single;
#DESCRIPTION:eatamothim;
#DIFFICULTY:Hard;
#METER:14;
#RADARVALUES:0.742094,0.789729,0.407149,0.37907,0.210594,370,341,29,27,0,0,0,0,0,0.742094,0.789729,0.407149,0.37907,0.210594,370,341,29,27,0,0,0,0,0;
#CHARTNAME:;
#CHARTSTYLE:;
#CREDIT:;
#NOTES:
0000
0000
0000
0000
,
0000
0000
0000
0000
,
0000
0000
0000
0000
,
0000
0000
0000
0000
,
0000
0000
0000
0000
,
1000
0100
0010
0001
0100
0010
0100
0001
,
0000
1010
0000
0001
1000
0002
0000
0013
,
0200
0302
0023
2030
,
3001
0100
0000
0000
0100
0010
0000
0000
0100
0000
0100
0000
0001
0000
0001
0000
,
0000
0000
0000
2000
3200
2300
3000
0000
,
1000
0001
0000
0001
0010
0100
1000
0001
,
0100
0100
0001
0100
0000
1000
0100
1000
,
0100
0100
0001
1000
1000
0001
0100
0100
,
0001
1000
1000
0001
0000
0010
0100
1000
,
0000
0001
0001
0000
1000
1000
0010
0100
,
0001
1000
1000
0001
0000
0010
0001
0100
,
0001
1000
1000
0010
1000
1000
0100
0020
,
0000
0031
0000
2000
0000
3001
0000
0000
,
0000
0000
1000
0100
0000
0000
0010
0001
0000
0000
1000
0100
0000
0000
0010
0000
,
0001
1000
0010
0002
0000
0013
0000
1000
,
0001
0000
1000
0100
0000
0000
0010
0100
0000
0000
1000
0100
0000
0000
0010
0000
,
0001
0000
0000
0100
0000
0000
1000
0000
0200
0000
0000
0000
0301
0000
0000
0000
,
1000
0000
0001
0100
0000
0000
1000
0100
0000
0000
0001
0100
0000
0000
0010
0000
,
0100
0001
1000
0200
0000
0310
0000
0001
,
1000
0000
0100
0000
1000
0000
0010
0000
0100
0000
0000
0200
0000
0000
0301
0000
,
0010
0000
0000
1000
0000
0000
0100
0000
0001
0000
0000
0000
0000
0000
0000
0000
,
1000
0000
1000
0000
0001
0001
1000
1000
,
0001
0010
1000
0010
0000
0210
0000
1300
,
0000
0010
0001
0010
0000
0120
0000
1030
,
0100
0001
0100
1000
0000
0110
0000
1001
,
0000
1000
0010
0200
0000
0302
0000
1003
,
0100
0001
0100
0010
0000
0011
0000
0001
,
0100
1000
0100
0010
0000
1010
0000
0001
,
0100
0010
1000
0010
0000
0010
0000
1001
,
0000
0000
0001
1000
0001
0000
0010
0000
0100
0000
0001
0000
0000
0000
0100
0000
,
1000
0010
1000
0200
0000
0001
0000
0010
,
0000
2000
0000
0000
0000
3300
0000
2000
,
0000
3001
0100
1000
0100
0001
0000
0020
,
0000
0001
0000
1000
0000
0031
0000
2000
,
0000
3010
0001
0010
0000
0100
0000
0002
,
0000
0010
0000
0100
0000
0013
0000
0001
,
1000
0000
1010
0000
0000
0101
0000
0000
,
1001
0000
0000
1000
0002
0000
0100
0000
,
1003
0000
0000
0000
1000
0000
0000
0001
1000
0000
0000
0000
0010
0000
0000
0000
,
0100
0001
0010
0100
0000
0110
0000
0010
,
0001
1000
0001
1000
0010
0000
0000
0100
,
0001
0000
0000
0011
0000
0000
2200
0000
0000
0000
0000
0000
3300
0000
0000
0000
,
1000
0010
0100
0010
1000
0000
0001
0000
,
0010
0001
0100
0010
0000
1001
0000
0000
,
0001
0000
0100
0000
0010
0000
1000
0000
0001
0000
0010
0001
0000
0000
0100
0000
,
1000
0000
0000
0010
0000
0000
0002
0000
2000
0000
0000
0000
0000
0000
3003
0000
,
0110
0000
1001
0000
1000
0010
0100
0001
,
1000
0000
0100
0000
0001
0000
0100
0010
0000
0000
0110
0000
0000
0000
0010
0000
,
0001
0000
0100
0000
1000
0000
0100
0010
0000
0000
0110
0000
0000
0000
0010
0000
,
1000
0000
0100
0000
0010
0000
0001
1000
0000
0000
1100
0000
0000
0000
0000
0000
,
0001
0001
0100
1000
0100
0020
0000
0130
,
0001
0000
0100
0000
1000
0000
0100
0010
0000
0100
0001
0000
0000
0000
0001
0000
,
1000
0000
0100
0000
0001
0000
0100
0010
0000
0100
1000
0000
0000
0000
0000
0000
,
1100
1000
0010
0001
0000
0110
0000
0110
,
0000
0001
0100
1000
0200
0002
0000
0303
,
1000
0000
1000
0000
0001
0100
0001
0000
1000
0000
0100
0000
0010
0000
0001
0000
,
0200
0000
0000
0000
,
0000
0000
0000
0000
,
0300
0000
0000
0000
;
