#VERSION:0.83;
#TITLE:Lupin the 3rd '78;
#SUBTITLE:;
#ARTIST:VENTURA;
#TITLETRANSLIT:;
#SUBTITLETRANSLIT:;
#ARTISTTRANSLIT:;
#GENRE:;
#ORIGIN:;
#CREDIT:;
#BANNER:Lupin the 3rd '78.png;
#BACKGROUND:Lupin the 3rd '78-bg.png;
#PREVIEWVID:;
#JACKET:Lupin the 3rd '78-jacket.png;
#CDIMAGE:;
#DISCIMAGE:;
#LYRICSPATH:;
#CDTITLE:;
#MUSIC:Lupin the 3rd '78.ogg;
#OFFSET:0.000000;
#SAMPLESTART:17.000000;
#SAMPLELENGTH:15.000000;
#SELECTABLE:YES;
#DISPLAYBPM:150.000000;
#BPMS:0.000=149.998;
#STOPS:;
#DELAYS:;
#WARPS:;
#TIMESIGNATURES:0.000=4=4;
#TICKCOUNTS:0.000=4;
#COMBOS:0.000=1;
#SPEEDS:0.000=1.000=0.000=0;
#SCROLLS:0.000=1.000;
#FAKES:;
#LABELS:0.000=Song Start;
#BGCHANGES:;
#KEYSOUNDS:;
#ATTACKS:
;

//---------------dance-single - Highflyer----------------
#NOTEDATA:;
#CHARTNAME:Highflyer;
#STEPSTYPE:dance-single;
#DESCRIPTION:Highflyer;
#CHARTSTYLE:;
#DIFFICULTY:Beginner;
#METER:3;
#RADARVALUES:0.149111,0.180530,0.000000,0.010651,0.000000,98.000000,98.000000,0.000000,1.000000,0.000000,0.000000,0.000000,0.000000,0.000000,0.149111,0.180530,0.000000,0.010651,0.000000,98.000000,98.000000,0.000000,1.000000,0.000000,0.000000,0.000000,0.000000,0.000000;
#CREDIT:Highflyer;
#DISPLAYBPM:150.000000;
#NOTES:
0000
0000
0000
0000
,
0000
0000
0000
0000
,
0000
0000
0000
0000
,
1000
0000
1000
0000
,
0001
0000
0001
0000
,
0100
0000
0100
0000
,
0010
0000
0010
0000
,
0010
0000
0100
0000
,
0001
0000
1000
0000
,
0100
0000
0010
0000
,
0001
0000
0000
0000
,
1000
0000
0000
0000
,
0010
0000
0000
0000
,
0100
0000
0000
0000
,
0001
0000
0000
0010
,
0010
0000
0000
0100
,
0100
0000
0000
1000
,
1000
0000
0000
0000
,
0001
0000
0001
0000
,
0100
0000
0100
0000
,
0010
0000
0000
1000
,
1000
0000
0000
0001
,
0001
0000
0000
0010
,
0010
0000
0000
0100
,
0100
0000
0000
0010
,
0010
0000
0000
0001
,
0001
0000
0000
0000
,
1000
0000
0002
0000
,
1003
0000
0000
0001
,
0001
0000
0000
1000
,
1000
0000
0000
0010
,
0010
0000
0010
0100
,
0100
0000
0000
0010
,
0010
0000
0000
0100
,
0100
0000
0001
0000
,
1000
0000
0000
0001
,
0001
0000
0000
0000
,
1000
0000
0000
0100
,
0100
0000
0000
0010
,
0010
0000
0000
0001
,
0001
0000
0000
1000
,
1000
0000
0000
0010
,
0010
0000
0000
0100
,
0100
0000
0000
0000
,
0010
0000
0000
1000
,
0000
0000
0000
0000
,
0001
0000
0000
0010
,
0000
0000
0000
0000
,
0100
0000
0100
0000
,
0100
0100
0100
0000
,
1000
0000
1000
0000
,
0001
0000
0001
0000
,
0100
0000
0100
0000
,
0010
0000
0010
0000
,
1000
0000
0001
0000
,
1000
0000
0100
0000
,
0010
0000
0100
0000
;

//---------------dance-single - Highflyer----------------
#NOTEDATA:;
#CHARTNAME:Highflyer;
#STEPSTYPE:dance-single;
#DESCRIPTION:Highflyer;
#CHARTSTYLE:;
#DIFFICULTY:Easy;
#METER:6;
#RADARVALUES:0.273877,0.364256,0.127809,0.266269,0.010651,180.000000,168.000000,12.000000,25.000000,0.000000,0.000000,0.000000,0.000000,0.000000,0.273877,0.364256,0.127809,0.266269,0.010651,180.000000,168.000000,12.000000,25.000000,0.000000,0.000000,0.000000,0.000000,0.000000;
#CREDIT:Highflyer;
#DISPLAYBPM:150.000000;
#NOTES:
0000
0000
0000
0000
,
0000
0000
0000
0000
,
0000
0000
0000
0000
,
1000
0010
0100
0000
,
0100
0000
0010
0000
,
0100
0001
1000
0000
,
0100
0000
0100
0000
,
0100
0010
0001
0000
,
0001
1000
0010
0000
,
0100
0000
0100
0000
,
1001
0000
0000
1000
,
2000
0000
3010
0100
,
0020
0000
1030
0100
,
0020
0000
0130
1000
,
0002
0000
0103
0010
,
0020
0000
0130
0001
,
1000
2000
0000
3100
,
0020
0030
0010
0001
,
1000
0000
0010
0000
,
0100
0010
1000
0100
,
0010
0000
0000
0110
0000
0000
0010
0000
,
0001
1000
1000
0010
,
0100
0000
0000
0110
0000
0000
0100
0000
,
0001
1000
0001
1000
,
2000
3000
0100
0010
,
0100
0200
0300
1000
,
0002
0003
0200
0300
,
0010
0000
0000
0010
0000
0000
0020
0000
0000
0000
0000
0000
0000
0000
0000
0000
,
2030
0000
0000
3001
,
0020
0000
0000
0130
,
0020
0000
0000
0031
,
2000
3000
0010
0100
,
0010
0020
0030
0100
,
0001
0002
0003
1000
,
0200
0300
0200
0300
,
0011
0000
0000
1010
0000
0000
0110
0000
,
2002
0000
3003
1000
,
1000
0000
0000
0100
0000
0000
0010
0000
,
0001
1000
1000
0010
,
0100
0000
0000
0010
0000
0000
0100
0000
,
0001
1000
0100
0010
,
0001
1000
1000
0010
,
0100
0100
0010
1000
,
1000
0100
0010
0001
,
1000
2000
0000
3010
,
0100
0010
1000
0100
,
0010
0020
0000
0130
,
0010
0001
1000
0010
,
1010
0000
0011
0000
,
1100
0101
0110
0000
,
0010
1000
0100
0100
,
0010
0001
1000
1000
,
0010
0100
0010
0010
,
0100
0001
0010
0100
,
1000
0001
1000
1000
,
0010
0100
0010
0010
,
0100
0000
0000
0000
0100
0000
0000
0100
0000
0000
0200
0000
0000
0000
0000
0000
,
0310
0000
0000
0000
;

//---------------dance-single - Highflyer----------------
#NOTEDATA:;
#CHARTNAME:Highflyer;
#STEPSTYPE:dance-single;
#DESCRIPTION:Highflyer;
#CHARTSTYLE:;
#DIFFICULTY:Medium;
#METER:9;
#RADARVALUES:0.435160,0.426829,0.042603,0.415380,0.047928,286.000000,282.000000,4.000000,39.000000,1.000000,0.000000,0.000000,0.000000,0.000000,0.435160,0.426829,0.042603,0.415380,0.047928,286.000000,282.000000,4.000000,39.000000,1.000000,0.000000,0.000000,0.000000,0.000000;
#CREDIT:Highflyer;
#DISPLAYBPM:150.000000;
#NOTES:
0000
0000
0000
0000
,
0000
0000
0000
0000
,
0000
0000
0000
0000
,
1000
0000
0010
0000
1000
0001
1000
0000
,
0100
0000
0010
0000
0001
0000
0001
1000
,
0010
0000
0100
0000
0001
0010
0001
0000
,
1000
0010
1000
0000
0100
0010
0001
0000
,
1000
0000
0010
0000
0100
0001
0010
0000
,
0100
0000
0010
0000
0010
0001
1000
0000
,
0010
0000
0000
0000
0010
0000
0000
0010
0000
0000
1000
0000
0001
0000
0000
0000
,
1000
0000
0000
0000
0000
0001
1000
0000
,
1001
0000
0000
0000
1000
0000
0000
0000
0010
0000
0100
0000
0000
0001
0000
0000
,
2000
0000
0100
0000
3001
0000
1000
0100
,
0010
0000
0001
0000
1000
0010
0100
0001
,
2000
0000
0010
0000
3001
0000
0010
0100
,
0020
0000
0100
0000
0031
1000
1000
0010
,
0200
0000
0320
0000
1030
0000
0001
0010
,
0200
0000
1000
0000
0310
0002
0000
1003
,
0010
0100
0010
0000
1000
0000
1000
0000
,
0001
0000
0010
0100
1000
0000
0000
0000
,
0001
0000
0000
0000
1000
0000
0020
0000
0030
0000
0100
0000
0000
0001
0000
0000
,
2000
0000
3100
0010
0001
0010
0100
0000
,
1000
0000
0001
0200
0300
0010
0100
0001
,
0020
0000
0130
1000
0001
0000
0100
0010
,
0200
0000
0010
0000
0301
1000
0001
1000
,
0200
0000
0320
0000
0001
0000
0130
1000
,
0002
0000
2003
0000
,
3001
0000
0000
0001
0000
0000
0001
0000
1000
0000
0100
0000
0010
0000
0100
0000
,
2000
0000
0010
0000
3001
0000
0010
0100
,
2000
0000
0010
0000
3001
0000
1000
0001
,
0200
0000
0010
0000
0301
0000
1000
0100
,
0020
0000
0130
1000
0001
0000
1000
0010
,
1000
0010
0200
0000
0301
0000
1000
0100
,
1000
0100
0020
0000
0031
0000
1000
0001
,
0200
0000
0310
0000
1000
0001
1000
0001
,
0200
0300
0000
0000
0000
0000
0200
0300
0000
0000
0100
0000
0001
0000
0000
1000
,
0200
0000
0000
0000
0300
1000
0001
0000
,
1001
0000
0000
0000
0001
0000
0020
0000
0030
0000
0100
0000
0000
1000
0000
0000
,
0002
0000
0103
0001
1000
0000
0001
0100
,
0010
0000
1000
0002
0003
0010
0100
1000
,
0002
0000
0013
0001
1000
0000
0010
0100
,
0020
0000
0000
0000
0130
0000
0010
0000
1000
0000
0001
0000
0000
0010
0000
0000
,
0200
0000
0320
0000
0031
0000
1000
0010
,
0200
0000
0001
0000
0310
2000
0000
3001
,
0010
0100
0010
0000
0001
0000
0001
1000
,
0020
0000
1030
0100
0010
0000
0001
0000
,
1000
0001
0200
0000
0310
0000
1000
0100
,
0020
0000
0031
1000
0100
0010
0001
0000
,
1010
0000
0011
0000
,
1000
0000
0001
0000
1000
0000
0001
0200
0000
0000
0000
0000
0000
0000
0000
0000
,
0301
0000
0010
0000
0001
1000
0001
0000
,
0100
0000
0010
0000
1000
0000
1000
0001
,
0010
0000
0100
0000
1000
0010
1000
0000
,
0001
0010
0001
0000
0100
0010
1000
0000
,
0001
0000
0010
0000
0100
1000
0010
0000
,
0100
0000
0010
0000
0010
1000
0001
0000
,
0010
0000
0000
0000
0010
0000
0000
0010
0000
0000
0001
0000
1000
0000
0010
0000
,
0100
0M00
0000
0000
;

//---------------dance-single - XO----------------
#NOTEDATA:;
#CHARTNAME:XO;
#STEPSTYPE:dance-single;
#DESCRIPTION:XO;
#CHARTSTYLE:;
#DIFFICULTY:Hard;
#METER:13;
#RADARVALUES:0.672520,0.640244,0.138460,0.351475,0.628395,442.000000,429.000000,13.000000,33.000000,8.000000,0.000000,1.000000,0.000000,0.000000,0.672520,0.640244,0.138460,0.351475,0.628395,442.000000,429.000000,13.000000,33.000000,8.000000,0.000000,1.000000,0.000000,0.000000;
#CREDIT:Highflyer;
#DISPLAYBPM:150.000000;
#NOTES:
0000
0000
0000
0000
,
0000
0000
0000
0000
,
0000
0000
0000
0000
,
1000
0000
0100
0000
0010
0001
0000
1000
0000
0010
0000
0001
0000
0010
0100
0000
,
0001
0000
1000
0000
0100
0010
0000
0000
0001
0100
0000
0000
0010
1000
0010
0000
,
1000
0000
0001
0000
0010
0001
0000
1000
0000
0100
0000
0001
0000
0100
0010
0000
,
0001
0000
1000
0000
0010
1000
0010
0000
1000
0100
1000
0000
0001
0100
0001
0000
,
1000
0000
0010
0000
1000
0001
0000
1000
0000
0010
0000
0001
0000
0010
0000
1000
,
0000
0001
0010
0000
0100
0000
1000
0100
0000
0010
0000
1000
0000
0010
0001
0000
,
1000
0010
0000
1000
0001
0000
1000
0100
0000
1000
0010
0000
0100
0000
0001
0000
,
1000
0000
0000
0000
MMMM
0000
0000
0000
0000
0000
1000
0000
0001
0000
0000
0100
,
0010
0000
1000
0000
0100
0000
0010
0000
0001
0000
2000
0000
0000
3020
0000
0000
,
0230
0000
0301
0000
1000
0000
0001
0000
1000
0000
0001
0000
0010
0100
0000
0010
,
0001
0000
1000
0000
0010
0000
0100
0000
0001
0000
1000
0000
0001
0100
0000
0010
,
0100
0000
0001
0000
0100
0000
0001
0000
0100
0000
0001
1000
0001
0000
0010
0000
,
1002
0000
1003
0100
0010
0001
0001
0010
,
0200
0000
0000
0000
2300
0000
0000
0000
3001
0000
0100
0010
0100
0000
0001
0000
,
2001
0000
3100
0010
0001
2000
0000
3010
,
0100
0000
0001
0000
0010
0000
0000
0001
0000
0100
0000
1000
0000
0100
0000
0010
,
0000
1000
0001
0000
1000
0100
0000
0000
0110
0000
1000
0000
0001
0100
0000
0010
,
0100
0000
0001
0000
0100
0000
1000
0000
0100
0000
0020
0000
0000
2030
0000
0000
,
3200
0000
1300
0000
0001
0000
0100
0000
0010
1000
0010
0000
1000
0100
0000
0010
,
0001
0000
1000
0000
0100
0000
0001
0000
0100
0000
0010
0000
0001
1000
0000
0001
,
0100
0000
0010
0000
1000
0000
0001
0000
1000
0010
0000
0100
0001
0000
0010
0000
,
0210
0000
0000
0000
1300
0000
0010
0100
0000
0001
0010
0000
0100
0000
1000
0000
,
0020
0000
0000
0000
0130
0000
0001
1000
0000
0001
0010
0000
0100
0000
1000
0000
,
1020
0130
2001
3100
,
0110
0000
0000
0011
0000
0000
1001
0000
0001
0000
0100
0000
1000
0000
0100
0000
,
0002
0000
0010
0000
1003
0100
0001
0100
,
2000
0000
0010
0000
3001
0100
1000
0100
,
0002
0000
0100
0000
1003
0100
0001
0100
,
2000
0000
3010
0100
0001
1000
0100
0001
,
1000
0010
0002
0000
1003
0001
0100
1000
,
0001
0010
2000
0000
3001
0010
1000
0010
,
0001
1000
0001
0000
0100
0000
0010
0100
0010
0000
1000
0000
0100
0000
0010
0000
,
1001
0000
0000
0000
0000
0000
0110
0000
0000
0000
0001
0000
0010
0100
0000
0100
,
4000
0000
0000
0000
3010
0000
0100
0000
1001
0000
0001
0000
0100
0010
0000
0100
,
0001
0000
1000
0000
0100
0000
0001
0000
0100
0000
2000
0000
0000
3002
0000
0000
,
0203
0000
0000
0300
0010
0000
1000
0100
0010
0000
0001
0000
0100
0010
0000
0100
,
0001
0000
1000
0000
0010
0000
0001
0000
0010
0000
0100
0000
0001
1000
0000
0001
,
0010
0000
0100
0000
1000
0000
0001
0100
0001
0000
1000
0000
0010
0000
0100
0000
,
1000
0000
0100
0000
0001
1000
0001
0000
0010
0000
0200
0000
0000
2300
0000
0000
,
3020
0000
0000
0000
0130
0000
0001
1000
0001
0000
0010
0000
0100
0000
1000
0000
,
2010
0000
0001
0000
3010
0200
0000
0000
,
0301
0100
2000
0000
3100
0010
1000
1000
,
0200
0000
0000
0000
0310
0001
0000
0100
0000
0000
0100
0000
0000
0010
0000
0000
,
1000
0100
0002
0000
0103
1000
0010
0010
,
0200
0000
0000
0000
0301
0000
1000
0100
0000
0000
0010
0000
0001
0100
0000
0000
,
0010
0000
1000
0001
0000
1000
0001
0000
0010
0000
0100
1000
0000
0100
1000
0000
,
0001
0000
0100
0000
1000
0000
0100
0001
0000
0000
0000
0000
0000
0000
0000
0000
,
0001
0000
0100
0000
0010
1000
0000
0001
0000
0010
0000
1000
0000
0010
0100
0000
,
1000
0000
0001
0000
0100
0010
0000
0000
1000
0100
0000
0000
0010
0001
0010
0000
,
0001
0000
1000
0000
0010
1000
0000
0001
0000
0100
0000
1000
0000
0100
0010
0000
,
1000
0000
0001
0000
0010
0001
0010
0000
0001
0100
0001
0000
1000
0100
1000
0000
,
0001
0000
0010
0000
0001
1000
0000
0001
0000
0010
0000
1000
0000
0010
0000
0001
,
0000
1000
0010
0000
0100
0000
0001
0100
0000
0010
0000
0001
0000
0010
1000
0000
,
0001
0010
0000
0001
1000
0000
0001
0100
0000
0001
0010
0000
0100
0000
1000
0000
,
0001
MMMM
0000
0000
;

//---------------dance-single - DS XO- HS- BU-----------------
#NOTEDATA:;
#CHARTNAME:A master thief stole the GLOW;
#STEPSTYPE:dance-single;
#DESCRIPTION:DS XO- HS- BU-;
#CHARTSTYLE:;
#DIFFICULTY:Challenge;
#METER:16;
#RADARVALUES:0.931181,1.006098,0.117158,0.575141,1.357972,612.000000,601.000000,11.000000,54.000000,8.000000,0.000000,0.000000,0.000000,0.000000,0.931181,1.006098,0.117158,0.575141,1.357972,612.000000,601.000000,11.000000,54.000000,8.000000,0.000000,0.000000,0.000000,0.000000;
#CREDIT:Highflyer;
#DISPLAYBPM:150.000000;
#NOTES:
// measure 0
0000
0000
0000
0000
,  // measure 1
0000
0000
0000
0000
,  // measure 2
1000
0000
0000
0001
0000
0000
0000
0000
0000
1000
0000
0000
0010
0000
0000
0100
0000
0000
0010
0000
0000
1000
0000
0000
0001
0000
0000
0010
0000
0000
0100
0000
0000
1000
0000
0000
0100
0000
0000
0010
0000
0000
0001
0000
0100
0000
0001
0000
,  // measure 3
1000
0100
0010
0001
0100
0020
0000
0100
0000
1000
0000
0130
0000
0001
1000
0100
,  // measure 4
0000
0000
0010
0000
0100
0000
1000
0000
0001
0000
0100
0000
0000
0000
0010
1000
0010
0000
0100
0000
0000
0000
0001
0000
0010
0000
0001
0000
1000
0000
0000
0000
,  // measure 5
0010
0100
0001
1000
0100
0020
0000
0001
0000
0100
0000
0031
0000
0010
0100
0001
,  // measure 6
0000
0100
1000
0001
0100
0010
1000
0100
1000
0010
0100
0001
0010
0001
0100
0010
,  // measure 7
1000
0001
0010
0001
1000
0002
0000
0010
0000
1000
0000
0103
0000
0010
1000
0100
,  // measure 8
0000
0010
0001
0000
0001
0000
1000
0010
0000
0010
0000
0100
0001
1000
0100
0010
,  // measure 9
0001
0100
0000
1000
0100
0000
0001
0100
0000
0010
1000
0100
1000
0010
1000
0100
,  // measure 10
0010
0000
0000
0000
MMMM
0000
0000
0000
0000
0000
0001
0000
1000
0010
0000
0100
,  // measure 11
0001
0000
0010
0000
0100
0000
0010
0000
0001
0000
1000
0000
0000
0010
0000
0000
,  // measure 12
1000
0000
0001
0000
0100
0000
1000
0000
0100
0000
0001
1000
0010
0100
0000
0001
,  // measure 13
0010
0000
0100
0000
0010
0000
0001
0000
1000
0000
0010
0000
0100
0001
0000
0001
,  // measure 14
1000
0000
0100
0000
0001
0000
0100
0000
1000
0000
0010
0100
0001
0000
0010
0100
,  // measure 15
1000
0000
0010
0000
0100
0000
0001
0000
0010
0000
0100
1000
0001
0000
0100
0000
,  // measure 16
0020
0000
1000
0000
0230
0000
0010
0000
0301
0000
1000
0001
0010
0000
0100
0000
,  // measure 17
1100
1000
0001
0100
0010
2000
0010
3001
,  // measure 18
0010
0100
1000
0001
0100
0002
0000
0010
0000
1000
0000
0013
0000
0100
1000
0010
,  // measure 19
0000
0100
0001
1000
0001
0020
0000
0030
1001
0000
1000
0000
0010
0100
0010
0100
,  // measure 20
0001
0000
0020
0000
0100
0000
0031
0000
1000
0000
0010
0000
0000
0100
0000
0000
,  // measure 21
0001
0000
1000
0000
0100
0010
0100
0010
0001
1000
0010
0100
0001
0010
0000
0100
,  // measure 22
1000
0000
0020
0000
0100
0000
1030
0000
0001
0000
0010
0000
0100
1000
0000
1000
,  // measure 23
0001
0000
0100
0000
0001
1000
0001
1000
0100
0010
0001
0000
1000
0000
0010
0000
,  // measure 24
0110
0000
0100
0000
0001
1000
0100
0010
0000
0010
0001
1000
0010
0000
0100
0000
,  // measure 25
0002
0000
0010
0000
1003
0010
0100
0001
0000
0001
1000
0100
0010
0000
0001
0000
,  // measure 26
1000
0010
0100
0000
0010
1000
0000
0001
0010
0100
1000
0001
0100
0010
0100
0010
,  // measure 27
1010
0000
0000
1100
0000
0000
1001
0000
0001
0100
0010
1000
0001
0010
0100
1000
,  // measure 28
0020
0000
1000
0001
0000
0000
0001
1000
0000
0000
2030
0000
3200
0000
0302
0000
,  // measure 29
0203
0000
1000
0001
0000
0000
0001
1000
0000
0000
2300
0000
3020
0000
0032
0000
,  // measure 30
0023
0000
1000
0100
0000
0000
0001
0100
0000
0000
2030
0000
3200
0000
0302
0000
,  // measure 31
0203
0000
0010
0001
0000
0000
0010
1000
0000
0000
2300
0000
3020
0000
0032
0000
,  // measure 32
2003
3200
0302
0013
0100
2000
3200
0302
,  // measure 33
2003
3020
0032
0103
0002
0023
2030
3002
,  // measure 34
0103
1000
0001
0000
0001
0000
0100
0010
1000
0001
0010
0100
1000
0001
0100
0010
,  // measure 35
1000
0000
0000
0000
0000
0000
1001
0000
0000
0000
0001
0000
0100
0010
0000
0010
,  // measure 36
0100
0000
0001
0000
1000
0000
0100
0000
1000
0000
0001
0000
0100
0000
0000
0010
0000
0000
1000
0000
0000
0001
0000
0000
0010
0000
0000
0000
0000
0000
0100
0000
0000
0000
0000
0000
1000
0000
0000
0001
0000
0000
0000
0000
0000
0001
0000
0000
,  // measure 37
0100
0000
0020
0000
0100
0000
1030
0000
0001
0000
0010
0000
0000
0100
0000
0000
,  // measure 38
1000
0000
0001
0000
0100
0010
1000
0010
0100
0001
0010
0100
1000
0001
0000
0100
,  // measure 39
0010
0000
2000
0000
0001
0000
3100
0000
0010
0000
0100
0000
1000
0001
0000
0100
,  // measure 40
0010
0000
0100
0000
0010
1000
0010
1000
0001
0010
0100
1000
0001
0000
1000
0010
,  // measure 41
0100
0000
0001
0000
1000
0100
0010
0001
0000
0001
0010
0100
1000
0001
0100
0010
,  // measure 42
0100
0000
0010
0000
1000
0010
0100
0001
0000
0001
0100
0010
1000
0000
0001
0000
,  // measure 43
1000
0010
0100
0000
0010
1000
0000
1000
0000
1000
0000
0100
0010
0001
0100
0010
,  // measure 44
2000
3200
0302
0103
1000
0010
0110
0101
,  // measure 45
2000
0000
0100
0000
3001
0100
0010
1000
0000
0001
0010
0100
1000
0001
0000
0100
,  // measure 46
0002
0203
2300
3100
0010
1000
1001
0011
,  // measure 47
0020
0000
0100
0000
0031
1000
0010
0100
0000
0010
1000
0001
0010
0100
0000
0000
,  // measure 48
0010
0001
0010
0001
0000
1000
0010
0100
0001
1000
0001
1000
0000
0100
0010
0001
,  // measure 49
1000
0000
0000
0010
0000
0000
1000
0000
0000
0100
0000
0000
1000
0000
0000
0010
0000
0000
1000
0000
0000
0100
0000
0000
0010
0000
0000
0001
0000
0000
1000
0000
0010
0000
1000
0000
0001
0000
0000
0010
0000
0000
0100
0000
0000
1000
0000
0000
,  // measure 50
0001
0100
0010
1000
0100
0020
0000
0100
0000
0001
0000
0130
0000
1000
0001
0100
,  // measure 51
0000
0000
0010
0000
0100
0000
0001
0000
1000
0000
0100
0000
0000
0000
0010
0001
0010
0000
0100
0000
0000
0000
1000
0000
0001
0000
0100
0000
0010
0000
0000
0000
,  // measure 52
0100
0001
1000
0100
1000
0002
0000
0010
0000
1000
0000
0103
0000
0001
0100
2000
,  // measure 53
0000
3100
0010
1000
0001
0010
0001
0010
0100
1000
0100
1000
0010
0100
0010
0100
,  // measure 54
0001
1000
0010
0100
0001
0200
0000
0001
0000
0010
0000
1300
0000
0100
0001
1000
,  // measure 55
0000
0100
0010
0000
0010
0000
0001
1000
0000
1000
0000
0100
0010
0001
1000
0001
,  // measure 56
0100
0010
0000
0010
1000
0000
1000
0100
0000
0100
0010
0001
0100
0001
0010
0100
,  // measure 57
1000
MMMM
0000
0000
;
