#TITLE:Lollipop;
#SUBTITLE:(Candyman);
#ARTIST:Aqua;
#TITLETRANSLIT:;
#SUBTITLETRANSLIT:;
#ARTISTTRANSLIT:;
#GENRE:;
#CREDIT:;
#MUSIC:Lollipop-Edit.ogg;
#BANNER:lollipop-banner.png;
#BACKGROUND:lollipop-bg.png;
#CDTITLE:;
#SAMPLESTART:0.000;
#SAMPLELENGTH:0.000;
#SELECTABLE:YES;
#OFFSET:-0.028;
#BPMS:0.000=139.000;
#STOPS:;
#BGCHANGES:;
#FGCHANGES:;

//--------------- dance-single - Evergreen ----------------
#NOTES:
     dance-single:
     Evergreen:
     Hard:
     13:
     0,0,0,0,0:
0000
0000
0000
0000
,
0000
0000
0000
0000
,
0000
0000
0000
0000
,
0000
0000
0000
0000
,
0000
0000
0000
0000
,
1000
0100
1000
0100
1000
0001
1000
0010
,
0100
0000
0001
0000
0100
0000
0001
0000
1000
0000
0001
0000
1000
0100
1000
0001
,
0010
0001
0100
0001
1000
0001
1000
0010
,
1010
0000
0000
0000
,
1000
0010
1000
0010
0100
0010
0001
0010
,
0100
0000
0010
0000
0100
0000
0010
0000
1000
0000
0010
0000
1000
0001
0010
0100
,
1000
0100
1000
0100
0010
0100
0001
0100
,
0010
0000
0100
0000
0010
0000
0100
0000
1000
0000
0010
0000
1000
0000
0001
0100
,
0001
0100
0001
0100
0010
0100
1000
0100
,
0010
0000
0100
0000
0010
0000
0100
0000
0001
0000
0100
0000
0001
1000
0100
0010
,
0001
0010
0001
0010
0100
0010
1000
0010
,
0100
0010
0100
1000
0001
0100
0001
1000
,
0001
0000
1000
0001
0100
0000
0001
1000
,
0100
0000
0000
0000
0100
0000
0000
1000
0100
0000
1000
0000
0010
0000
0100
0000
,
0001
0000
1000
0001
0010
0000
0001
1000
,
0010
0000
0000
0000
0010
0000
0000
1000
0010
0000
0100
0000
0001
0000
1000
0000
,
0001
0000
0010
0001
0100
0000
0010
1000
,
0100
0000
0000
0000
0100
0000
0000
1000
0100
0000
0010
0000
0100
0000
1000
0000
,
0001
0000
0100
0001
0010
0000
0100
1000
,
0010
0000
0000
0000
0010
0000
0000
1000
0010
0000
0010
0000
0100
0000
0001
0010
,
0001
0010
1000
0001
0100
1000
0001
0100
,
0101
0000
0000
0000
0001
0000
0010
0000
0001
0000
1000
0000
0100
0000
1000
0010
,
1000
0010
0001
1000
0100
0001
1000
0100
,
1100
0000
1000
0001
0010
0001
0100
0000
,
0001
0000
0001
1000
0100
0000
0100
1000
,
0010
0000
0010
0100
0001
1000
0100
0010
,
0000
0001
0000
1000
0100
1000
0001
0100
,
0101
0000
0000
0000
0001
0000
1000
0000
0100
0000
1000
0001
0100
0000
0001
0000
,
0101
0000
0000
0000
1010
0000
0000
0000
0011
0000
1000
0100
1000
0000
0001
0000
,
0100
0001
1000
0100
0010
0001
0100
0010
,
0110
0000
0000
0000
1001
0000
0000
0000
0110
0000
0010
0100
0010
0000
0100
0000
,
1000
0000
0001
0000
0100
0000
0010
0000
1000
0000
0100
0010
0100
0000
1000
0000
,
1100
0000
0000
0000
0011
0000
0000
0000
1010
0000
0001
0100
0001
0000
1000
0000
,
0100
1000
0001
0100
0010
1000
0100
0010
,
0110
0000
0000
0000
1001
0000
0000
0000
0110
0000
0010
0100
0010
0000
0100
0000
,
0001
0000
1000
0000
0010
0000
0100
0000
0001
0010
0100
1000
0001
0100
0010
1000
,
0001
0100
0001
0100
0001
1000
0001
0010
,
0100
0000
1000
0000
0100
0000
1000
0000
0001
0000
1000
0000
0001
0100
0001
1000
,
0010
1000
0100
1000
0001
1000
0001
0010
,
0001
0100
0001
1000
0010
1000
0100
1000
,
0010
0100
0010
1000
0010
0100
0001
0100
,
0001
0000
0010
0000
0001
0000
1000
0000
0010
0000
1000
0000
0001
1000
0100
0010
,
0001
0100
0010
1000
0100
0010
0001
1000
,
1001
0000
0000
0000
,
0001
0100
1000
0100
0001
0100
1000
0100
,
0010
0000
0100
0000
1000
0000
0100
0000
0010
0000
1000
0000
0001
1000
0100
0010
,
0001
0010
1000
0010
0001
0010
1000
0010
,
0001
0000
0010
0000
0100
0000
0010
0000
0001
0000
0010
0000
0100
1000
0001
0100
,
0010
1000
0100
1000
0010
1000
0100
1000
,
0010
0000
0100
0000
0001
0000
0010
0000
0100
0000
1000
0000
0001
0100
0010
1000
,
0001
0010
0001
0100
0001
0010
0001
0100
,
0001
1000
0100
0001
1000
0010
0001
1000
,
0001
0000
0000
0000
;

//--------------- dance-single - Evergreen (stamina ver.) ----------------
#NOTES:
     dance-single:
     Evergreen (stamina ver.):
     Edit:
     17:
     0,0,0,0,0:
0000
0000
0000
0000
,
1000
0100
1000
0001
1000
0100
0010
0001
,
0100
0000
0001
0000
0010
0000
0001
0000
0100
0000
0001
0000
0010
0001
1000
0010
,
0100
0001
1000
0001
0100
0001
0010
0100
,
1000
0001
1000
0010
1000
0001
0100
0001
,
0010
0001
0100
0001
1000
0001
0010
0100
,
1000
0000
0010
0000
1000
0000
0100
0000
1000
0000
0001
0000
1000
0010
0100
0001
,
1000
0100
0010
0001
1000
0010
0100
0001
,
1000
0100
0100
0010
0001
1000
0001
0000
,
1000
0010
0100
0001
1000
0100
0010
0001
1000
0010
0100
0010
1000
0001
0010
0100
,
1000
0001
0010
0001
1000
0010
0100
0001
1000
0100
0010
0100
1000
0001
0100
0010
,
1000
0001
0010
0100
1000
0001
0100
0010
1000
0001
0010
0100
0010
0001
1000
0010
,
0100
0001
1000
0100
0010
0001
1000
0001
0010
0100
1000
0010
0100
0001
0100
0010
,
1000
0100
0010
0001
1000
0010
0100
0001
1000
0100
0010
0100
1000
0001
0100
0010
,
1000
0001
0100
0001
1000
0100
0010
0001
1000
0010
0100
0010
1000
0001
0010
0100
,
1000
0001
0100
0010
1000
0001
0010
0100
1000
0001
0100
0010
0100
0001
1000
0100
,
0010
0001
0010
0001
1000
0010
1000
0010
0100
0001
0100
0001
1000
0100
1000
0100
,
0010
0001
1000
0010
0100
0001
1000
0100
1000
0001
0100
0010
1000
0010
0100
0001
,
1000
0100
0010
0001
1000
0010
0100
0001
1000
0100
1000
0010
0100
0001
0010
0100
,
1000
0010
1000
0001
0010
0100
1000
0001
0100
0001
1000
0100
0010
0001
0010
0100
,
1000
0001
0100
0010
1000
0001
0010
0100
1000
0001
0100
0001
0010
0100
1000
0010
,
0100
0001
1000
0100
0010
0001
1000
0010
1000
0001
0010
0100
1000
0100
0010
0001
,
1000
0010
0100
0001
1000
0100
0010
0001
1000
0010
1000
0100
0010
0001
0100
0010
,
1000
0100
1000
0001
0100
0010
1000
0001
0010
0001
1000
0010
0100
0001
0100
0010
,
1000
0001
0010
0100
1000
0001
0100
0010
1000
0001
1000
0001
0100
0010
1000
0100
,
0010
0001
1000
0010
0100
0001
0010
0100
1000
0010
0100
0001
1000
0100
1000
0010
,
0100
0001
0010
0001
1000
0100
0010
0001
1000
0010
1000
0001
1000
0100
1000
0001
,
0010
0100
1000
0010
0100
0001
0010
0100
1000
0010
0100
0001
0010
0001
0100
0010
,
1000
0100
1000
0010
0100
0001
0010
0001
1000
0001
0100
0001
1000
0100
0010
0001
,
1000
0010
0100
0010
1000
0001
0010
0100
1000
0100
0010
0001
1000
0010
1000
0100
,
0010
0001
0100
0001
1000
0100
0010
0001
1000
0010
0100
0001
1000
0100
0010
0100
,
1000
0001
0010
0001
1000
0010
0100
0001
1000
0100
0010
0001
0100
0010
1000
0100
,
0010
0000
0000
0000
0001
0000
1000
0000
0010
0000
1000
0001
1000
0000
0001
1000
,
0001
0100
0010
1000
0001
0010
0100
1000
0001
0100
0010
1000
0100
0010
0001
1000
,
0100
1000
0001
0100
0001
0010
0001
1000
0010
1000
0001
0100
0001
1000
0100
1000
,
0001
0010
0100
1000
0001
0100
0010
1000
0001
0010
0100
1000
0010
0100
0001
1000
,
0100
0010
0001
1000
0001
0010
0100
1000
0001
0100
0010
1000
0001
1000
0010
0100
,
0001
0010
0100
1000
0001
0100
0010
1000
0001
0010
0100
1000
0010
0100
0001
1000
,
0010
1000
0001
0010
0001
0100
0001
1000
0100
1000
0001
0010
0001
1000
0010
1000
,
0001
0100
0010
1000
0001
0010
0100
1000
0001
0100
0010
1000
0100
0010
0001
1000
,
0010
0100
0010
0100
0001
1000
0001
1000
0100
0010
0100
0010
0001
1000
0001
1000
,
0001
0100
0001
1000
0001
0100
0010
1000
,
0100
0000
1000
0000
0010
0000
1000
0000
0100
0000
1000
0000
0010
1000
0001
0010
,
0100
1000
0001
1000
0100
1000
0010
0100
,
0001
1000
0001
0010
0001
1000
0100
1000
,
0010
1000
0010
1000
0100
1000
0100
1000
0001
1000
0001
1000
0001
0100
0001
0100
,
0001
0010
0001
0010
0001
1000
0001
1000
0010
1000
0010
1000
0100
0010
0001
1000
,
0010
0100
0001
1000
0100
0010
0001
1000
0100
1000
0001
0100
0001
1000
0010
0100
,
0001
0000
0000
0100
0000
0000
0100
0000
0000
0010
0000
0000
1000
0000
0000
0001
0000
0000
1000
0000
0000
0100
0010
0001
,
1000
0010
0100
0001
1000
0100
1000
0010
0100
0001
0010
0001
0100
0001
1000
0010
,
1000
0001
1000
0100
1000
0010
0100
0001
1000
0100
0010
0100
1000
0001
0100
0010
,
1000
0001
0010
0100
1000
0001
0100
0001
0010
0100
1000
0010
1000
0100
1000
0001
,
0010
0001
1000
0100
0010
0001
1000
0001
0010
0100
1000
0010
0100
0001
0100
0010
,
1000
0100
0010
0001
1000
0010
1000
0100
0010
0001
0100
0001
0010
0001
1000
0100
,
1000
0001
0100
0001
1000
0100
0010
0001
1000
0010
0100
0010
1000
0001
0010
0100
,
1000
0001
0100
0010
1000
0001
0010
0001
0100
0010
1000
0100
1000
0010
1000
0001
,
0100
0001
0100
0001
1000
0100
1000
0100
0010
0001
0010
0001
1000
0001
1000
0001
,
1000
0100
0010
0001
1000
0010
0100
0001
,
1000
0000
0100
0000
1000
0000
0001
0000
0100
0000
0001
0000
1000
0100
0010
0001
,
1000
0010
0100
0001
1000
0100
0010
0001
,
1000
0100
1000
0001
0010
0100
1000
0001
;
