#VERSION:0.83;
#TITLE:Living Island;
#SUBTITLE:;
#ARTIST:Pogo;
#TITLETRANSLIT:;
#SUBTITLETRANSLIT:;
#ARTISTTRANSLIT:;
#GENRE:RETRO TV REMIX;
#ORIGIN:;
#CREDIT:;
#BANNER:Living Island.png;
#BACKGROUND:Living Island-bg.png;
#PREVIEWVID:;
#JACKET:Living Island-jacket.png;
#CDIMAGE:;
#DISCIMAGE:;
#LYRICSPATH:;
#CDTITLE:;
#MUSIC:Living Island.ogg;
#OFFSET:1.862700;
#SAMPLESTART:29.530020;
#SAMPLELENGTH:12.000000;
#SELECTABLE:YES;
#BPMS:0.000=130.000;
#STOPS:;
#DELAYS:;
#WARPS:;
#TIMESIGNATURES:0.000=4=4;
#TICKCOUNTS:0.000=4;
#COMBOS:0.000=1;
#SPEEDS:0.000=1.000=0.000=0;
#SCROLLS:0.000=1.000;
#FAKES:;
#LABELS:0.000=Song Start;
#BGCHANGES:2.667=Living Island.mp4=1.000=1=0=1===CrossFade==,
99999=-nosongbg-=1.000=0=0=0 // don't automatically add -songbackground-
;
#KEYSOUNDS:;
#ATTACKS:
;

//---------------dance-single - ----------------
#NOTEDATA:;
#CHARTNAME:;
#STEPSTYPE:dance-single;
#DESCRIPTION:;
#CHARTSTYLE:;
#DIFFICULTY:Hard;
#METER:13;
#RADARVALUES:0.516045,0.507504,0.084796,0.559654,0.962435,426.000000,416.000000,10.000000,66.000000,0.000000,0.000000,0.000000,0.000000,0.000000,0.516045,0.507504,0.084796,0.559654,0.962435,426.000000,416.000000,10.000000,66.000000,0.000000,0.000000,0.000000,0.000000,0.000000;
#CREDIT:BlindedVanguard573;
#NOTES:
// measure 0
0000
0000
0000
0000
,  // measure 1
0000
0000
0000
0000
,  // measure 2
0000
0000
0000
0000
,  // measure 3
0000
0000
0000
0000
,  // measure 4
0000
0000
0000
0000
,  // measure 5
0000
0000
0001
0100
0000
0001
0000
0000
1000
0100
0000
1000
,  // measure 6
0000
0000
0001
0010
0000
0001
0000
0000
1000
0010
0000
1000
,  // measure 7
0000
0000
0001
1000
0000
0001
0000
0000
0100
0010
0000
0100
,  // measure 8
0001
0000
1000
0000
,  // measure 9
0102
0000
0000
1003
0000
0002
0010
0000
2003
0010
0000
3001
,  // measure 10
0000
1000
0010
0100
0000
0001
0100
0000
0001
1000
0100
0000
,  // measure 11
2100
0000
0000
3001
0000
2000
0010
0000
3002
0010
0000
1003
,  // measure 12
0000
0001
0010
0100
0000
1000
0100
0000
1000
0001
0100
0000
,  // measure 13
2010
0000
0000
3001
0000
2000
0100
0000
3002
0100
0000
1003
,  // measure 14
0000
0001
0100
0010
0000
1000
0010
0000
1000
0001
0010
0000
,  // measure 15
0012
0000
0000
1003
0000
0002
0100
0000
2003
0100
0000
3001
,  // measure 16
1000
0000
0100
0001
0000
0000
0100
0000
1000
0010
0000
0000
,  // measure 17
2010
0000
0000
3001
0000
2000
0010
0000
3002
0100
0000
1003
,  // measure 18
0001
0010
0100
1000
0000
0100
0010
0000
0001
1000
0010
0000
,  // measure 19
0102
0000
0000
1003
0000
0002
0100
0000
2003
0010
0000
3001
,  // measure 20
1000
0100
0010
0001
0000
0010
0100
0000
1000
0001
0100
0000
,  // measure 21
0012
0000
0000
1003
0000
0002
0010
0000
2003
0100
0000
3001
,  // measure 22
1000
0010
0100
0001
0000
0100
0010
0000
1000
0001
0010
0000
,  // measure 23
0102
0000
0000
1003
0000
0002
0100
0000
2003
0010
0000
3001
,  // measure 24
1000
0000
0100
0001
0000
0100
0010
0000
0100
1000
0000
0001
,  // measure 25
1000
0010
0100
0001
0000
1000
0020
0100
0000
1030
0000
0000
,  // measure 26
0001
0010
0100
1000
0000
0001
2000
0100
0000
3002
0100
0000
,  // measure 27
1003
0100
0010
0001
0000
1000
0200
0010
0000
1300
0000
0000
,  // measure 28
0001
0100
0010
1000
0000
0001
2000
0010
0000
3002
0010
0000
,  // measure 29
1003
0001
0100
0001
0000
1000
0002
0100
0000
0013
0000
0000
,  // measure 30
0001
1000
0100
1000
0000
0001
2000
0010
0000
3002
0100
0000
,  // measure 31
1003
0001
0010
0001
0000
1000
0002
0010
0000
0103
0000
0000
,  // measure 32
0001
1000
0010
1000
0000
0001
2000
0100
0000
3002
0010
0000
,  // measure 33
0003
1000
0100
0000
0010
0100
0000
0001
0100
1000
0000
0001
,  // measure 34
0000
1000
0010
0000
0100
0010
2000
0000
0100
3002
0000
0103
,  // measure 35
0000
0001
0100
0000
0010
0100
0000
1000
0100
0001
0000
1000
,  // measure 36
0000
0001
0010
0000
0100
0010
0002
0000
0100
2003
0000
3100
,  // measure 37
0000
1000
0010
0000
0100
0010
0000
0001
0010
1000
0000
0001
,  // measure 38
0000
1000
0100
0000
0010
0100
2000
0000
0010
3002
0000
0013
,  // measure 39
0000
0001
0010
0000
0100
0010
0000
1000
0010
0001
0000
1000
,  // measure 40
0000
0001
0100
0000
0010
0100
0002
0000
0010
2003
0000
3010
,  // measure 41
1000
0000
0001
0100
0000
0010
0100
0000
0001
0010
0000
0000
,  // measure 42
2000
0000
0000
3010
0000
0010
0001
0100
0010
1000
0001
0010
,  // measure 43
0001
0000
1000
0010
0000
0000
1000
0000
0002
0100
0000
2003
,  // measure 44
0010
0000
3002
0010
0000
1003
0001
0100
0010
1000
0001
0010
,  // measure 45
0001
0000
1000
0100
0000
0010
0100
0000
1000
0010
0000
0000
,  // measure 46
0002
0000
0000
0013
0000
0010
1000
0100
0010
0001
1000
0010
,  // measure 47
1000
0000
0001
0010
0000
0000
0001
0000
2000
0100
0000
3002
,  // measure 48
0010
0000
2003
0010
0000
3001
1000
0100
0010
0001
1000
0010
,  // measure 49
0200
0301
2000
3100
,  // measure 50
0020
0031
2000
3010
,  // measure 51
1000
0000
0100
0010
0000
0001
1000
0010
0100
0001
0100
0010
,  // measure 52
1000
0000
0001
0000
,  // measure 53
1002
0000
0000
0103
0000
0010
0000
0001
0000
0020
0000
0000
,  // measure 54
1030
0100
1000
0001
0000
2000
0010
0000
3002
0100
0000
1003
,  // measure 55
0020
0000
0000
1030
0000
0100
0001
0000
0000
0100
0000
1000
,  // measure 56
0001
0000
0000
0100
0000
0010
0001
0000
0010
0100
0000
0000
,  // measure 57
0001
0000
0010
0000
0100
0000
0001
0100
0001
0200
0000
0300
,  // measure 58
1000
1000
0001
1000
0000
0002
0010
0000
2003
0100
0000
3001
,  // measure 59
1000
0000
0010
0000
0100
0000
0201
0000
0000
1300
0000
0000
,  // measure 60
0100
0001
0010
0001
0000
0010
1000
0010
0001
1000
0000
0000
,  // measure 61
0002
0000
0000
0000
,  // measure 62
0000
0000
0000
0000
,  // measure 63
0003
0000
0000
0000
;

//---------------dance-single - ----------------
#NOTEDATA:;
#CHARTNAME:;
#STEPSTYPE:dance-single;
#DESCRIPTION:;
#CHARTSTYLE:;
#DIFFICULTY:Medium;
#METER:11;
#RADARVALUES:0.410655,0.427372,0.152633,0.008480,0.500297,339.000000,321.000000,18.000000,1.000000,0.000000,0.000000,0.000000,0.000000,0.000000,0.410655,0.427372,0.152633,0.008480,0.500297,339.000000,321.000000,18.000000,1.000000,0.000000,0.000000,0.000000,0.000000,0.000000;
#CREDIT:BlindedVanguard573;
#NOTES:
0000
0000
0000
0000
,
0000
0000
0000
0000
,
0000
0000
0000
0000
,
0000
0000
0000
0000
,
0000
0000
0000
0000
,
0000
0001
0000
0010
,
0000
0100
0000
1000
,
0000
0001
0000
1000
,
1001
0000
0000
0000
,
0001
0000
0000
1000
0000
1000
0010
0000
0010
0100
0000
0100
,
0001
0000
0010
0001
0000
0000
1000
0000
0010
1000
0000
0000
,
0001
0000
0000
1000
0000
1000
0100
0000
0100
0010
0000
0010
,
0001
0000
0100
0001
0000
0000
1000
0000
0100
1000
0000
0000
,
0001
0000
0000
0010
0000
0010
0100
0000
0100
1000
0000
1000
,
0001
0000
0100
0001
0000
0000
1000
0000
0100
1000
0000
0000
,
0001
0000
0000
0100
0000
0100
0010
0000
0010
1000
0000
1000
,
0001
0000
0010
0001
0000
0000
1000
0000
0000
0010
0100
0000
,
0001
0000
0000
1000
0000
0100
0010
0000
0010
0001
0000
0001
,
1000
0000
0010
0100
0000
0000
0001
0000
0100
0010
0000
0000
,
1000
0000
0000
0001
0000
0010
0100
0000
0100
1000
0000
1000
,
0001
0000
0100
0010
0000
0000
1000
0000
0010
0100
0000
0000
,
0001
0000
0000
1000
0000
0010
0100
0000
0100
0001
0000
0001
,
1000
0000
0100
0010
0000
0000
0001
0000
0010
0100
0000
0000
,
1000
0000
0000
0010
0000
0010
0100
0000
0100
0001
0000
0001
,
1000
0000
0100
1000
0000
0001
0100
0000
0010
0100
0000
0001
,
1000
0000
1000
0000
0000
1000
0100
0000
0000
0011
0000
0000
,
0001
0000
0001
0000
0000
1000
0010
1000
0000
0010
1000
0000
,
0001
0000
0001
0000
0000
0001
0010
0000
0000
1100
0000
0000
,
1000
0000
1000
0000
0000
0001
0100
0001
0000
0100
0001
0000
,
1000
0000
1000
0000
0000
1000
0010
0000
0000
0101
0000
0000
,
0001
0000
0001
0000
0000
1000
0100
1000
0000
0100
1000
0000
,
0001
1000
0000
0010
,
0000
0000
0000
0100
0000
0000
0001
1000
0000
0001
1000
0000
,
0001
0000
0000
0101
0000
0000
1000
0000
0100
1000
0000
0001
,
1000
0000
0000
1010
0000
0000
0001
0000
0010
0001
0000
1000
,
0001
0000
0000
0011
0000
0000
1000
0000
0010
1000
0000
0001
,
1000
0000
0000
1100
0000
0000
0001
0000
0100
0001
0000
1000
,
0001
0000
0000
1001
0000
0000
0001
0000
0010
0100
0000
1000
,
0001
0000
0000
1001
0000
0000
1000
0000
0010
0100
0000
0001
,
1000
0000
0000
1100
0000
0000
1000
0000
0010
0100
0000
0001
,
0010
0000
0000
0011
0000
0000
0001
0000
0100
0010
0000
1000
,
0001
0000
0000
0101
0000
0000
1000
0000
0010
0100
0000
0000
,
0001
0000
0000
1001
0000
0000
1000
0000
0100
0010
0000
0001
,
1000
0000
0010
1000
0000
0000
0001
0000
0010
0100
0000
0000
,
1000
0000
0010
0100
0000
0001
1000
0000
0100
0010
0000
0000
,
0001
0000
0000
0011
0000
0000
1000
0000
0100
0010
0000
0000
,
0001
0000
0000
1001
0000
0000
1000
0000
0010
0100
0000
0001
,
1000
0000
0100
1000
0000
0000
0001
0000
0100
0010
0000
0000
,
1000
0000
0100
0010
0000
0001
1000
0000
0010
0100
0000
0000
,
0001
0001
1000
1000
,
0010
0010
0100
0100
,
0001
0000
0001
0010
0000
0010
0100
0000
0100
1000
0000
1000
,
0001
0000
1000
0000
,
0001
0000
0000
1000
0000
0010
0000
0100
0000
0001
0000
0000
,
1000
0000
1000
0100
0000
0100
0010
0000
0010
0001
0000
0001
,
1000
0000
0000
0010
0000
0100
1000
0000
0000
0100
0000
0001
,
0010
0000
0000
0001
0000
0010
1000
0000
0010
0100
0000
0000
,
1000
0000
0100
0000
0010
0000
0001
0000
0000
1001
0000
0000
,
0001
0000
0001
0100
0000
0100
0010
0000
0010
1000
0000
1000
,
0001
0000
0010
0000
0100
0000
0001
0000
0000
0101
0000
0000
,
0001
0000
0001
0100
0000
0100
1000
0000
0000
0001
0000
0000
,
2000
0000
0000
0000
,
0000
0000
0000
0000
,
3000
0000
0000
0000
;

//---------------dance-single - ----------------
#NOTEDATA:;
#CHARTNAME:;
#STEPSTYPE:dance-single;
#DESCRIPTION:;
#CHARTSTYLE:;
#DIFFICULTY:Easy;
#METER:5;
#RADARVALUES:0.255600,0.267108,0.016959,0.008480,0.000000,211.000000,209.000000,2.000000,1.000000,0.000000,0.000000,0.000000,0.000000,0.000000,0.255600,0.267108,0.016959,0.008480,0.000000,211.000000,209.000000,2.000000,1.000000,0.000000,0.000000,0.000000,0.000000,0.000000;
#CREDIT:BlindedVanguard573;
#NOTES:
0000
0000
0000
0000
,
0000
0000
0000
0000
,
0000
0000
0000
0000
,
0000
0000
0000
0000
,
0000
0000
0000
0000
,
0000
0010
0000
0100
,
0000
0001
0000
0010
,
0000
0100
0000
1000
,
0001
0000
0000
0000
,
1000
0010
0100
0010
,
1000
0100
0010
0001
,
1000
0100
0010
0100
,
1000
0010
0100
0001
,
1000
0100
0010
0001
,
0100
0001
0010
0100
,
1000
0010
0100
0001
,
0010
0010
0100
1001
,
0001
0100
0010
1000
,
0001
0010
1000
0010
,
0001
0010
0100
1000
,
0001
0100
1000
0100
,
0001
0010
0100
1000
,
0001
0100
1000
0100
,
0001
0100
0010
1000
,
0001
0010
1000
0010
,
0001
0001
0010
0100
,
1000
1000
0001
0001
,
0100
0100
0010
1000
,
0001
0001
1000
1000
,
0100
0100
0010
0001
,
1000
1000
0001
0001
,
0010
0010
0100
1000
,
0010
0010
0100
0100
,
0001
0100
0010
0100
,
0001
0010
1000
1000
,
0010
0001
0100
0001
,
1000
0100
0001
0001
,
0100
1000
0010
1000
,
0001
0010
1000
1000
,
0010
0001
0100
0001
,
1000
0100
0001
0001
,
0100
1000
0010
0100
,
0001
1000
0100
0100
,
1000
0010
0100
0001
,
1000
0100
0010
0010
,
0100
1000
0010
0100
,
0001
1000
0010
0010
,
1000
0100
0010
0001
,
0100
0010
1000
1000
,
0001
0000
0010
0000
,
0100
0000
1000
0000
,
0001
0001
1000
1000
,
1001
0000
0000
0000
,
0001
0100
0010
0001
,
0010
0100
0001
1000
,
0100
0010
1000
0010
,
0100
1000
0001
1000
,
0010
0100
1000
0100
,
0010
1000
0001
1000
,
0010
0100
1000
0100
,
0010
1000
0100
0010
,
0002
0000
0000
0000
,
0000
0000
0000
0000
,
0003
0000
0000
0000
;

//---------------dance-single - ----------------
#NOTEDATA:;
#CHARTNAME:;
#STEPSTYPE:dance-single;
#DESCRIPTION:;
#CHARTSTYLE:;
#DIFFICULTY:Beginner;
#METER:2;
#RADARVALUES:0.164747,0.181040,0.000000,0.000000,0.000000,136.000000,136.000000,0.000000,0.000000,0.000000,0.000000,0.000000,0.000000,0.000000,0.164747,0.181040,0.000000,0.000000,0.000000,136.000000,136.000000,0.000000,0.000000,0.000000,0.000000,0.000000,0.000000,0.000000;
#CREDIT:BlindedVanguard573;
#NOTES:
0000
0000
0000
0000
,
0000
0000
0000
0000
,
0000
0000
0000
0000
,
0000
0000
0000
0000
,
0000
0000
0000
0000
,
0000
0001
0000
0001
,
0000
1000
0000
1000
,
0000
0010
0000
0100
,
0100
0000
0000
0000
,
0001
0000
0010
0000
,
0100
0100
0100
0000
,
1000
0000
0010
0000
,
0100
0100
0100
0000
,
0001
0000
0100
0000
,
0010
0010
0010
0000
,
1000
0000
0100
0000
,
0010
0010
0010
0000
,
0001
0000
1000
0000
,
0010
0010
0010
0000
,
1000
0000
0001
0000
,
0010
0010
0010
0000
,
0001
0000
1000
0000
,
0100
0100
0100
0000
,
1000
0000
0001
0000
,
0100
0100
0100
0100
,
0100
0000
0010
0000
,
1000
0000
0001
0001
,
0001
0000
0010
0000
,
0100
0000
1000
1000
,
1000
0000
0001
0000
,
0100
0000
0010
0010
,
0010
0000
0100
0000
,
0001
0000
1000
1000
,
1000
0000
0100
0000
,
0010
0000
0001
0001
,
0001
0000
0100
0000
,
0010
0000
1000
1000
,
1000
0000
0001
0000
,
0010
0000
0100
0100
,
0100
0000
0010
0000
,
0001
0000
1000
1000
,
1000
0000
0010
0000
,
0100
0000
0001
0001
,
0001
0000
0100
0000
,
0010
0000
1000
1000
,
1000
0000
0100
0000
,
0010
0000
0001
0001
,
0001
0000
0010
0000
,
0100
0000
1000
1000
,
1000
0000
0000
0000
,
0001
0000
0000
0000
,
0100
0100
0100
0100
,
0100
0000
0000
0000
,
0010
0010
0010
0000
,
0100
0000
0001
0000
,
1000
1000
1000
0000
,
0100
0000
0010
0000
,
0001
0001
0001
0000
,
0010
0000
0100
0000
,
1000
1000
1000
0000
,
0010
0000
0100
0000
,
0001
0000
0000
0000
;
