#TITLE:Little Lies;
#SUBTITLE:JPL Remix;
#ARTIST:Fleetwood Mac;
#TITLETRANSLIT:;
#SUBTITLETRANSLIT:;
#ARTISTTRANSLIT:;
#GENRE:;
#CREDIT:;
#MUSIC:Little Lies (JPL Remix).ogg;
#BANNER:Little Lies (JPL Remix).png;
#BACKGROUND:Little Lies (JPL Remix)-bg.png;
#CDTITLE:;
#SAMPLESTART:45.477;
#SAMPLELENGTH:14.524;
#SELECTABLE:YES;
#OFFSET:1.904;
#BPMS:0.000=126.000;
#STOPS:;
#BGCHANGES:4.000=Little Lies (JPL Remix).mp4=1.000=0=0=1,
99999.000=-nosongbg-=1.000=0=0=0=StretchNoLoop====
;
#FGCHANGES:;

//--------------- dance-single - OrangeRight ----------------
#NOTES:
     dance-single:
     OrangeRight:
     Beginner:
     2:
     0,0,0,0,0:
0000
0000
0000
0000
,
0000
0000
0000
0000
,
0000
0000
0000
0000
,
0000
0000
0000
0000
,
0000
0000
0000
0000
,
2000
0000
0000
0000
,
3000
0000
0000
0000
,
0002
0000
0000
0000
,
0003
0000
0000
0000
,
1000
0000
0000
0000
,
1000
0000
0000
0000
,
0001
0000
0000
0000
,
0001
0000
0000
0000
,
0100
0000
0000
0000
,
0100
0000
0000
0000
,
0001
0000
1000
0000
,
0001
0000
0000
0000
,
1000
0000
0000
0000
,
1000
0000
0000
0000
,
0001
0000
0000
0000
,
0001
0000
0000
0000
,
0010
0000
0000
0000
,
0010
0000
0000
0000
,
0001
0000
1000
0000
,
0002
0000
0003
0000
,
1000
0000
0000
0000
,
0010
0000
0000
0000
,
0100
0000
0001
0000
,
0100
0000
0000
0000
,
0001
0000
0000
0000
,
0010
0000
0000
0000
,
0100
0000
1000
0000
,
0100
0000
0000
0000
,
1000
0000
0000
0000
,
0001
0000
0000
0000
,
0100
0000
0010
0000
,
0100
0000
0000
0000
,
0001
0000
0000
0000
,
1000
0000
0000
0000
,
0100
0000
0010
0000
,
0200
0000
0300
0000
,
1000
0000
1000
0000
,
1000
0000
0000
0000
,
0001
0000
0001
0000
,
0001
0000
0000
0000
,
1000
0000
1000
0000
,
1000
0000
0000
0000
,
0002
0000
0003
0000
,
2000
0000
3000
0000
,
0002
0000
0000
0000
,
0003
0000
0000
0000
,
2000
0000
0000
0000
,
3000
0000
0000
0000
,
0020
0000
0000
0000
,
0030
0000
0000
0000
,
0200
0000
0000
0000
,
0300
0000
0000
0000
,
0001
0000
0000
0000
,
1000
0000
0100
0000
,
1000
0000
0001
0000
,
1000
0000
0000
0000
,
1000
0000
0000
0000
,
0001
0000
0010
0000
,
0100
0000
1000
0000
,
0001
0000
1000
0000
,
1001
0000
0000
0000
;

//--------------- dance-single - OrangeRight ----------------
#NOTES:
     dance-single:
     OrangeRight:
     Easy:
     3:
     0,0,0,0,0:
0000
0000
0000
0000
,
0000
0000
0000
0000
,
0000
0000
0000
0000
,
0000
0000
0000
0000
,
0000
0000
0000
0000
,
2000
0000
0000
3000
,
0002
0000
0000
0003
,
0200
0300
0020
0030
,
2002
0000
0000
3003
,
1000
0100
1000
0010
,
0200
0300
0002
0003
,
0001
0010
0001
0100
,
0020
0030
2000
3000
,
1000
0001
2000
3000
,
0001
1000
0001
0100
,
0001
0010
0100
1000
,
0002
0000
0003
1001
,
0001
0100
0001
0010
,
0200
0300
2000
3000
,
1000
0010
1000
0100
,
0020
0030
0002
0003
,
0001
1000
0002
0003
,
1000
0001
1000
0100
,
1000
0010
0100
0001
,
2000
0000
0000
3000
,
1000
0010
0100
0001
,
1000
0001
2002
3003
,
1000
0100
0010
0001
,
1000
0001
2000
3000
,
0001
0010
0100
1000
,
0001
1000
2002
3003
,
1000
0100
0010
0100
,
1000
0001
2000
3000
,
0001
0100
0010
0100
,
0001
0010
0220
0330
,
0100
1000
0001
0100
,
0010
1000
0002
0003
,
1000
0100
0010
0001
,
1000
0010
0220
0330
,
0100
0001
0010
0100
,
2000
0000
3002
0000
,
0203
0000
0320
2030
,
3200
0000
0300
0000
,
0020
0000
0032
0203
,
0320
0000
2030
0000
,
3200
0000
0320
0230
,
2300
0000
3001
0000
,
0002
1000
0000
1003
,
2000
0001
0002
3003
,
2000
0000
3100
1000
,
0002
0000
0103
0000
,
0002
0000
0013
0001
,
2000
0000
3010
0000
,
2000
0000
3002
0000
,
2003
0000
3001
0010
,
0100
1000
0010
0100
,
0220
0000
0000
0330
,
0010
1000
0100
0010
,
0001
1000
2002
3003
,
1000
0100
0001
0100
,
1000
0001
0100
0010
,
1000
0001
0010
0100
,
1000
0010
0220
0330
,
0100
0001
0010
1000
,
0010
0000
0001
0000
1000
0001
1000
0000
,
2002
0000
0000
0000
,
3003
0000
0000
0000
;

//--------------- dance-single - OrangeRight ----------------
#NOTES:
     dance-single:
     OrangeRight:
     Medium:
     8:
     0,0,0,0,0:
0000
0000
0000
0000
,
0000
0000
0000
0000
,
0000
0000
0000
0000
,
0000
0000
0000
0000
,
0000
0000
0000
0000
,
2000
0001
0000
3001
,
0002
1000
0000
1003
,
2000
3200
0320
0032
,
2000
0000
0000
3003
,
1000
0000
0010
0000
0100
0001
0100
0000
,
0001
0000
0010
0000
0100
0000
1000
0001
,
0100
0000
0010
0000
1000
0000
0100
0010
,
0100
0000
1000
0001
0100
0000
0010
0000
,
1000
0001
1000
0000
0100
0000
0010
0000
,
0001
0000
0100
0010
0000
1000
0000
0100
,
0000
0001
0000
0100
0000
1000
0000
0010
,
0100
0000
0001
0000
0010
0100
0010
0000
,
0001
0000
0100
0000
0010
1000
0010
0000
,
1000
0000
0001
0000
0010
0000
0001
1000
,
0100
0000
0010
0000
0001
1000
0001
0000
,
1000
0010
0000
0100
0000
0001
0010
0000
,
0001
1000
0001
0000
0100
0000
0010
0000
,
1000
0000
0100
0010
0000
0001
0000
0100
,
0000
1000
0000
0100
0000
0001
0000
2002
,
0000
0000
0000
3003
,
1000
0001
1000
0002
0000
0000
0013
0000
,
0001
1000
0001
2000
0000
0000
3100
0000
,
1000
0000
0000
0010
0000
0000
0100
0000
0001
0000
1000
0000
0001
0000
0000
0000
,
1000
0100
1000
0100
0010
0000
0001
0000
,
1000
0020
0000
0230
0000
0302
0000
0013
,
0100
0020
0000
0032
0000
0000
1003
0000
,
0001
0000
0000
0100
0000
0000
0010
0000
1000
0000
0200
0000
0000
0000
0320
0000
,
0000
0031
0100
0010
1000
0001
1000
0000
,
0001
0010
0001
0020
0000
0000
0130
0000
,
1000
0010
1000
0020
0000
0000
0130
0000
,
0001
0000
0000
1000
0000
0000
0100
0000
0010
0000
0001
0000
0010
0000
0000
0000
,
0001
0100
0001
0100
0010
0000
1000
0000
,
0100
1000
0100
2000
0000
0000
3001
0000
,
0100
0001
0100
0002
0000
0000
1003
0000
,
0001
0000
0000
0010
0000
0000
0100
0000
0000
1000
0000
0000
0010
0000
0100
0000
,
0002
2003
3002
1003
,
2000
0001
3020
0100
,
2030
0001
0000
0001
,
3002
0010
0203
0010
,
0302
1000
0023
0230
,
2300
0010
3200
0320
,
0032
1000
0000
1000
,
2003
0000
0010
0000
0001
0000
3100
0010
,
0002
1000
2003
3002
,
2003
0000
0010
0010
,
3020
0000
0100
0100
,
0230
0000
0001
0001
,
0302
0000
1000
1000
,
2003
3100
0200
0310
,
0020
0000
0031
2000
0000
3020
0000
0230
,
0000
0302
0000
2003
0000
3002
0000
2000
,
0000
0000
0000
3003
,
1000
0010
1000
0002
0000
0000
0013
0000
,
0001
0010
0001
2000
0000
0000
3001
0000
,
1000
0000
0000
0100
0000
0000
0010
0000
0000
0001
0000
0000
0100
0000
0010
0000
,
0100
0000
0000
0001
0000
0000
0010
0000
0000
0100
0000
0000
1000
0000
0001
0000
,
1000
0020
0000
0230
0000
0302
0000
0013
,
0100
1000
0000
2000
0000
0000
3001
0000
,
0001
0000
0000
0100
0000
0000
0010
0000
0000
1000
0000
0000
0100
0000
0010
0000
,
0100
0000
0000
1000
0000
0000
0010
0000
0100
0000
0001
0000
1000
0000
0000
0000
,
2002
0000
0000
0000
,
3003
0000
0000
0000
;

//--------------- dance-single - OrangeRight ----------------
#NOTES:
     dance-single:
     OrangeRight:
     Hard:
     11:
     0,0,0,0,0:
0000
0000
0000
0000
,
0000
0000
0000
0000
,
0000
0000
0000
0000
,
0000
0000
0000
0000
,
0000
0000
0000
0000
,
2000
0100
0001
0010
,
3002
0010
1000
0100
,
2003
0010
3002
0100
,
2003
3002
2000
3003
,
1000
0000
0000
1000
0010
0000
0100
0000
0001
0000
1000
0000
0100
0000
0020
0000
,
0000
0031
0100
0020
0000
1030
0000
1000
,
0001
0000
0000
0001
0010
0000
0100
0000
2000
0000
0000
0000
3001
0000
0100
0000
,
0020
0000
1030
0200
0000
1300
0010
0100
,
0001
0010
0011
0000
1000
0010
1010
0000
,
1000
0100
0010
0012
0000
0103
0000
2010
,
0000
3100
0000
0210
0000
1300
0000
2010
,
0000
0001
0000
0100
0000
0001
3001
0000
,
0001
0000
0000
0001
0010
0000
0100
0000
1000
0000
0001
0000
0100
0000
0020
0000
,
0000
1030
0100
0020
0000
0031
0000
0001
,
1000
0000
0000
1000
0010
0000
0100
0000
0001
0000
0010
0000
0100
0000
2000
0000
,
0000
3002
0000
0203
0000
0301
0010
0100
,
1000
0010
1010
0000
0001
0010
0011
0000
,
0001
0100
0010
2010
0000
3100
0000
0012
,
0000
0103
0000
0210
0000
0301
0000
2002
,
0000
0000
0000
3003
,
1000
0100
1000
1200
0000
0310
0001
0100
,
0010
0100
0001
0021
0000
0130
1000
0001
,
0100
0000
0000
0100
0010
0000
1000
0000
0100
0010
0000
0000
0001
0000
1000
0000
,
0010
0000
0100
0001
0000
0100
0001
0000
1000
0000
0100
0000
0010
0000
0000
0000
,
0001
0011
0000
0110
0000
1100
0000
1000
,
0010
0100
0010
2010
0000
3001
1000
0001
,
0010
0000
0000
0010
0100
0000
1000
0000
0010
0100
0000
0000
0001
0000
1000
0000
,
0100
0000
1000
0010
0000
1000
0010
0000
0100
0000
0001
0000
1001
0000
0000
0000
,
0001
0100
0001
0201
0000
0310
1000
0100
,
0010
0100
1000
1020
0000
0130
0001
1000
,
0100
0000
0000
0100
0010
0000
0001
0000
0100
0010
0000
0000
1000
0000
0001
0000
,
0010
0000
0100
1000
0000
1000
0010
0000
0100
0000
0001
0000
1001
0000
0000
0000
,
1000
0001
1000
1002
0000
0013
0100
1000
,
0010
0001
0010
2010
0000
3100
1000
0001
,
0100
0000
0000
0100
0010
0000
1000
0000
0100
0010
0000
0000
0001
0000
1000
0000
,
0002
0000
0203
0000
0320
0000
1030
0100
,
1200
0001
2300
3020
,
0130
0000
0000
0100
0001
0000
0010
0000
0100
0000
1000
0000
0001
0000
0100
0000
,
0201
0000
1300
0100
0002
0000
0023
0000
,
0130
0000
0000
1000
0010
0000
0100
0000
0001
0000
1000
0000
0001
0000
0000
0000
,
0201
1000
0302
0023
,
0130
0000
0000
0100
1000
0000
0010
0000
0100
0000
0001
0000
1000
0000
0001
0000
,
2001
0000
0010
0000
0100
0000
3001
1000
,
1002
0000
0010
0000
1003
1000
0001
0001
,
2000
0100
0001
0010
,
3002
0010
2000
3003
,
0201
0010
1000
0010
,
0302
1000
0020
0033
,
0001
0000
0000
0010
0000
0000
0100
0000
0000
1000
0000
0000
0001
0000
1000
0000
,
0001
0000
0000
0100
0000
0000
0102
0000
0000
0000
0013
0000
0000
0000
2100
0000
,
0000
3010
0000
1020
0000
0130
0000
0100
,
0002
2003
0002
3003
,
0001
1000
0001
1002
0000
0103
0001
0010
,
1000
0010
0001
0201
0000
0310
1000
0100
,
1000
0000
0010
0100
0000
0000
0001
0000
0010
0100
0000
0000
1000
0000
0001
0000
,
1000
0000
0010
0100
0000
0100
0001
0000
0010
0000
0100
0000
1000
0000
0001
0000
,
1000
1010
0000
0110
0000
0101
0000
0001
,
1000
0100
0001
0100
1000
0010
0100
0001
,
0010
0000
0000
0010
0001
0000
1000
0000
0010
1000
0000
0000
0100
0000
0010
0000
,
0001
0000
0100
0010
0000
0010
1000
0000
0001
0000
1000
0000
1001
0000
0000
0000
,
0220
0000
0000
0000
,
0330
0000
0000
0000
;

//--------------- dance-single - OrangeRight ----------------
#NOTES:
     dance-single:
     OrangeRight:
     Challenge:
     13:
     0,0,0,0,0:
0000
0000
0000
0000
,
0000
0000
0000
0000
,
0000
0000
0000
0000
,
0000
0000
0000
0000
,
0000
0000
0000
0000
,
2000
0100
0000
0001
0000
0010
0000
0001
,
3002
0100
0000
1000
0000
0010
0000
1003
,
1000
0000
0000
0001
0000
0000
0010
0000
0000
0100
0000
0000
1000
0000
0001
0000
,
2000
3002
2000
3003
,
1000
0000
0000
0001
0100
0000
0010
0000
1000
0000
0100
0000
0001
0000
0100
1000
,
0001
0000
1000
0000
0010
0000
0100
0000
0010
0000
0001
0000
0010
0000
1000
0100
,
0010
0000
0000
0001
1000
0000
0010
0000
0100
0000
0001
0000
0010
0000
0001
1000
,
0010
1000
0100
0010
0100
0001
0100
0010
,
0001
0100
0102
0000
0013
0100
2100
0000
,
3010
1000
0100
2100
0000
3010
0100
0102
,
0000
0013
0100
2100
0000
3001
0100
0201
,
0000
0010
0000
1000
0000
0310
1001
0000
,
0001
0000
0000
1000
0100
0000
0010
0000
0001
0000
0100
0000
1000
0000
0100
0001
,
1000
0000
0001
0000
0010
0000
0100
0000
0010
0000
1000
0000
0010
0000
0001
0100
,
0010
0000
0000
1000
0001
0000
0010
0000
0100
0000
1000
0000
0010
0000
0100
0001
,
0010
0001
0100
0010
0100
1000
0100
0010
,
1000
0100
2100
0000
3010
0100
0102
0000
,
0013
0001
0100
0102
0000
0013
0100
2100
,
0000
3010
0100
0102
0000
1003
0001
2002
,
0000
0000
0000
3003
,
1000
0000
0010
1000
0010
0000
1020
0000
0000
0000
0130
0000
0001
0010
0001
0000
,
0100
0000
0001
1000
0001
0000
2001
0000
0000
0000
3100
0000
0010
0000
0001
0000
,
1000
0000
1000
0010
0000
0010
0100
0000
0001
0100
0001
0000
2000
0000
0010
0000
,
3010
0000
1000
0100
1000
0000
0001
0100
0001
0000
1000
0000
0100
0000
0010
0000
,
0001
0000
0100
0001
0100
0000
0010
0100
0010
0000
1000
0010
1000
0000
0001
0000
,
0010
0000
0001
0100
0001
0000
0102
0000
0000
0000
1003
0000
0100
0000
0010
0000
,
0001
0000
0001
0010
0000
0010
0100
0000
1000
0001
1000
0000
0010
0000
0210
0000
,
0000
0000
0301
0010
0100
0000
1000
0010
0100
0000
0001
0000
0010
0000
0001
0000
,
1000
0000
0100
1000
0100
0000
1200
0000
0000
0000
0310
0000
0001
0100
0001
0000
,
0010
0000
0001
1000
0001
0000
2001
0000
0000
0000
3010
0000
0100
0000
0001
0000
,
1000
0000
1000
0100
0000
0100
0010
0000
0001
0010
0001
0000
2000
0000
0100
0000
,
3100
0000
1000
0010
1000
0000
0001
0010
0001
0000
1000
0000
0010
0000
0100
0000
,
0001
0000
0010
0001
0010
0000
0012
0000
0000
0000
0103
0000
0001
1000
0001
0000
,
1000
0000
0100
0010
0001
0000
0102
0000
0000
0000
0013
0000
0001
0000
0100
0000
,
0010
0000
0010
1000
0000
1000
0100
0000
0100
0010
0000
0010
0001
0000
1000
0000
,
0010
0010
0100
0100
0001
0001
1000
0001
,
0101
0000
0000
0100
0010
0000
1000
0000
0100
0000
0010
0000
0100
0000
1000
0001
,
0010
0000
0000
0010
0100
0000
1000
0000
0010
0000
0100
0000
0001
0000
1000
0000
,
0001
0000
0000
0001
0100
0000
0010
0000
1000
0000
0100
0000
0010
0000
0100
1000
,
0010
0000
0000
0010
0100
0000
0001
0000
0010
0000
1000
0000
0010
0000
0001
0000
,
1000
0000
0000
0001
0100
0000
0010
0000
1000
0000
0100
0000
0010
0000
0100
1000
,
0001
0000
0000
1000
0100
0000
0010
0000
0001
0000
0100
0000
0010
0000
0100
0000
,
0101
0000
0000
0100
0010
0000
1000
0000
0100
0000
0001
0000
0100
0000
1000
0000
,
1010
0000
0000
0010
0100
0000
0001
0000
1000
0000
1000
0000
0001
0000
0001
0000
,
2000
0010
0000
0010
0000
0001
0000
0001
,
0000
0100
0000
0100
0000
0010
0000
3001
,
0002
0010
0000
0010
0000
1000
0000
1000
,
0000
0100
0000
0100
0000
0010
0000
1000
,
2003
0000
0000
3020
0000
0000
0032
0000
0000
0023
0000
0000
2030
0000
3200
0000
,
0302
0000
0000
0103
0000
0000
2100
0000
0000
0000
3010
0000
0000
0000
0102
0000
,
0000
0013
0000
0021
0000
0130
0000
0010
,
0002
2003
0002
3003
,
1000
0000
0001
0010
0001
0000
0102
0000
0000
0000
0013
0000
0001
0100
0010
0000
,
1000
0000
0100
0010
0001
0000
2001
0000
0000
0000
3001
0000
0100
0000
1000
0000
,
0100
0000
0001
0010
0000
0010
0100
0000
1000
0010
0000
0010
0100
0000
0001
0000
,
0010
0000
0010
0100
0000
0100
1000
0000
1000
0001
0000
0001
0100
0000
0010
0000
,
1000
0000
0100
1000
0100
0000
0010
0100
0010
0000
0001
0010
0001
0000
1000
0000
,
0010
0000
0100
0001
0010
0000
0012
0000
0000
0000
0103
0000
1000
0000
0100
0000
,
0001
0000
0001
0010
0000
0010
0100
0000
0100
1000
0000
1000
0010
0000
0100
0000
,
0001
0000
1000
0100
0000
0010
0001
0000
1000
0010
0000
0100
0001
1000
0001
2000
,
0002
0000
0000
0000
,
3003
0000
0000
0000
;

//--------------- dance-double - OrangeRight ----------------
#NOTES:
     dance-double:
     OrangeRight:
     Easy:
     4:
     0,0,0,0,0:
00000000
00000000
00000000
00000000
,
00000000
00000000
00000000
00000000
,
00000000
00000000
00000000
00000000
,
00000000
00000000
00000000
00000000
,
00000000
00000000
00000000
00000000
,
20000000
00000000
30000000
00000000
,
00020000
00000000
00030000
00000000
,
10000000
00010000
10000000
00010000
,
02000000
00000000
00000000
03000000
,
01000000
00010000
00100000
00001000
,
00020000
00000000
00032000
00000000
,
00013000
00000010
00001000
00000100
,
00000020
00000000
00000032
00000000
,
00001003
00000001
00002000
00003000
,
00000001
00001000
00000001
00000100
,
00000010
00001000
00000100
00010000
,
00002000
00000000
00000000
00013000
,
00001000
00100000
00010000
01000000
,
00200000
00000000
02300000
00000000
,
03010000
00100000
00001000
00010000
,
00000200
00000000
00002300
00000000
,
00003010
00000100
00000020
00000030
,
00000100
00000010
00000100
00000001
,
00000010
00000100
00001000
00000001
,
00002002
00000000
00000000
00003003
,
00000001
00000100
00000020
00000030
,
00001000
00000100
00020000
00030000
,
00000010
00001000
00000100
00000010
,
00000001
00001000
00000020
00000030
,
00010000
00001000
00100000
00010000
,
01000000
00100000
20000000
30000000
,
00010000
00100000
01000000
00100000
,
00010000
10000000
20020000
30030000
,
10000000
01000000
00200000
00300000
,
00010000
01000000
00002000
00003000
,
00010000
00000100
00001000
00000010
,
00000100
00000001
00002000
00003000
,
00000001
00000010
00000200
00000300
,
00001000
00000010
00020000
00030000
,
00001000
00100000
00010000
01000000
,
00020000
00000000
20030000
00000000
,
30020000
00000000
00230000
02300000
,
03200000
00000000
00010000
00000000
,
00320000
00000000
00230000
00302000
,
00023000
00000000
00030200
00020300
,
00032000
00000000
00023000
00030020
,
00020030
00000000
00001000
00000000
,
00030200
00000000
00002300
00003020
,
00000230
00000000
00000302
00002003
,
00003002
00000000
00000003
00000000
,
00002000
00000000
00003000
00000000
,
00000200
00000000
00000300
00000000
,
00020000
00000000
00030000
00000000
,
00002000
00003000
00200000
00300000
,
00020000
00030000
20000000
30000000
,
00200000
00300000
02000000
03000000
,
00020000
00000000
00000000
00030000
,
10000000
00010000
20020000
30030000
,
00010000
10000000
20020000
30030000
,
10000000
00010000
01000000
00010000
,
00100000
00001000
00010000
00000100
,
00001000
00000010
00000100
00000001
,
00000010
00001000
00000020
00000030
,
00000001
00001000
00000010
00010000
,
00001000
00000000
00100000
00000000
00001000
00010000
00001000
00000000
,
00022000
00000000
00000000
00000000
,
00033000
00000000
00000000
00000000
;

//--------------- dance-double - OrangeRight ----------------
#NOTES:
     dance-double:
     OrangeRight:
     Medium:
     8:
     0,0,0,0,0:
00000000
00000000
00000000
00000000
,
00000000
00000000
00000000
00000000
,
00000000
00000000
00000000
00000000
,
00000000
00000000
00000000
00000000
,
00000000
00000000
00000000
00000000
,
20000000
00010000
00000000
30010000
,
00020000
01000000
00000000
01030000
,
02000000
03002000
00023000
00030200
,
00002300
00000000
00000000
00003000
,
00000001
00000000
00000010
00000000
00000100
00001000
00000100
00000000
,
00001000
00000000
00000010
00000000
00000100
00000000
00000001
00001000
,
00000100
00000000
00010000
00000000
00001000
00010000
00001000
00000000
,
00010000
00001000
00100000
00000000
00010000
00000000
01000000
00000000
,
00100000
10000000
00100000
00000000
01000000
00000000
00010000
00000000
,
00100000
00000000
00010000
00100000
00000000
00001000
00000000
00010000
,
00000000
00001000
00000000
01000000
00000000
00010000
00000000
00100000
,
01000000
00000000
10000000
00000000
00010000
10000000
00010000
00000000
,
10000000
00000000
00100000
00000000
01000000
00010000
01000000
00000000
,
00010000
00000000
00100000
00000000
01000000
00000000
10000000
00010000
,
01000000
00000000
00001000
00000000
00010000
00001000
00010000
00000000
,
00001000
00010000
00000000
00000010
00000000
00001000
00000100
00000000
,
00000010
00000001
00000010
00000000
00000100
00000000
00001000
00000000
,
00000010
00000000
00001000
00000010
00000000
00010000
00000000
00001000
,
00000000
01000000
00000000
00001000
00000000
00010000
00000000
00022000
,
00000000
00000000
00000000
00033000
,
00001000
00100000
00001000
00200000
00000000
00000000
00310000
00000000
,
01000000
00010000
01000000
00020000
00000000
00000000
00130000
00000000
,
00001000
00000000
00000000
00010000
00000000
00000000
00000100
00000000
00001000
00000000
00000010
00000000
00001000
00000000
00000000
00000000
,
00000100
00010000
00000100
00010000
00001000
00100000
00010000
00000000
,
01000000
00200000
00000000
20300000
00000000
30020000
00000000
00130000
,
01000000
20000000
00000000
30020000
00000000
00000000
01030000
00000000
,
00010000
00000000
00000000
01000000
00000000
00000000
00100000
00000000
10000000
00000000
00020000
00000000
00000000
00000000
00230000
00000000
,
00000000
00301000
00010000
00000100
00010000
00001000
00010000
00000000
,
00010000
00000010
00010000
00000020
00000000
00000000
00001030
00000000
,
00000100
00001000
00000100
00002000
00000000
00000000
00003010
00000000
,
00010000
00000000
00000000
00001000
00000000
00000000
01000000
00000000
00010000
00000000
00100000
00000000
00010000
00000000
00000000
00000000
,
01000000
00001000
01000000
00001000
00010000
00000010
00001000
00000000
,
00000001
00000010
00000001
00000020
00000000
00000000
00000130
00000000
,
00001000
00000010
00001000
00000020
00000000
00000000
00000130
00000000
,
00000001
00000000
00000000
00000010
00000000
00000000
00000100
00000000
00000000
00001000
00000000
00000000
00000100
00000000
00010000
00000000
,
00002000
00203000
00320000
02030000
,
03200000
10000000
02300000
03020000
,
00230000
00001000
00320000
01000000
,
00230000
00001000
00320000
02030000
,
03002000
00100000
00023000
00030200
,
00002300
00000010
00003002
00000203
,
00000320
00000000
00001000
00000000
00000230
00000000
00000301
00001000
,
00000002
00000000
00000023
00000000
00000230
00000000
00001300
00000001
,
00002000
00000000
00003020
00000000
00000130
00000001
00000100
00000001
,
00002000
00000100
00000000
00000100
,
00003200
00020300
00030200
00000000
,
00020300
00001000
00000000
00001000
,
00032000
00203000
00302000
00000000
,
00203000
00010000
00000000
00310000
,
00010000
00000000
01000000
00100000
00000000
10000000
00000000
01000000
,
00000000
00010000
00000000
01000000
00000000
10000000
00000000
00100000
,
02000000
00000000
00000000
03000000
,
01000000
00010000
00100000
00002000
00000000
00000000
00013000
00000000
,
00001000
00010000
00000100
00002000
00000000
00000000
00003010
00000000
,
00000010
00000000
00000000
00001000
00000000
00000000
00000100
00000000
00000000
00000010
00000000
00000000
00000001
00000000
00000100
00000000
,
00000010
00000000
00000000
00001000
00000000
00000000
00000100
00000000
00000000
00010000
00000000
00000000
00001000
00000000
00010000
00000000
,
00000100
00002000
00000000
00003020
00000000
00020030
00000000
00031000
,
00100000
00020000
00000000
02030000
00000000
03100000
10000000
00010000
,
10000000
00000000
00000000
01000000
00000000
00000000
00100000
00000000
00000000
00010000
00000000
00000000
01000000
00000000
00001000
00000000
,
00010000
00000000
00000000
00000100
00000000
00000000
00001000
00000000
00000010
00000000
00000100
00000000
00000001
00000000
00000000
00000000
,
00002002
00000000
00000000
00000000
,
00003003
00000000
00000000
00000000
;

//--------------- dance-double - OrangeRight ----------------
#NOTES:
     dance-double:
     OrangeRight:
     Hard:
     12:
     0,0,0,0,0:
00000000
00000000
00000000
00000000
,
00000000
00000000
00000000
00000000
,
00000000
00000000
00000000
00000000
,
00000000
00000000
00000000
00000000
,
00000000
00000000
00000000
00000000
,
00012000
00100000
00010000
01000000
,
00023000
00000010
00001000
00000100
,
00032000
00100000
02003000
00010000
,
03200000
20300000
00020000
30030000
,
10000000
00000000
00000000
00100000
10000000
00000000
00010000
00000000
01000000
00000000
00001000
00000000
00010000
00000000
00000100
00000000
,
00001000
00000000
00000000
00000010
00001000
00000000
00000100
00000000
00000010
00000000
00000001
00000000
00000100
00000000
00000000
00000000
,
00000001
00000000
00000000
00000010
00000001
00000000
00001000
00000000
00000100
00000000
00010000
00000000
00001000
00000000
00100000
00000000
,
00010000
00000000
00000000
01000000
00100000
00000000
10000000
00000000
01000000
00000000
00100000
00000000
00010000
00000000
01000000
00000000
,
00100000
01000000
00020000
00000000
00130000
00001000
00020000
00000000
,
00030100
00001000
00000010
00000200
00000000
00000302
00000000
00002003
,
00000000
00003200
00000000
00000302
00000000
00000203
00000000
00002300
,
00000010
00000000
00000100
00000000
00003001
00001000
00001001
00000000
,
00000001
00000000
00000000
00000010
00000001
00000000
00001000
00000000
00000100
00000000
00010000
00000000
00001000
00000000
01000000
00000000
,
00010000
00000000
00000000
00100000
00010000
00000000
01000000
00000000
00100000
00000000
10000000
00000000
01000000
00000000
00000000
00000000
,
10000000
00000000
00000000
00100000
10000000
00000000
00010000
00000000
01000000
00000000
00001000
00000000
00010000
00000000
00001000
00000000
,
00100000
00000000
00000000
00001000
00010000
00000000
00000100
00000000
00001000
00000000
00000010
00000000
00000100
00000000
00000001
00000000
,
00001000
00000001
00002000
00000000
00003010
00000100
00000020
00000000
,
00001030
00000100
00010000
00012000
00000000
00103000
00000000
00120000
,
00000000
01030000
00000000
01002000
00000000
00023000
00000000
00002000
,
00000000
00000000
00000000
00033000
,
00001000
00100000
00010000
02010000
00000000
03100000
01000000
00010000
,
00100000
00001000
00010000
00010200
00000000
00001300
00000100
00000001
,
00000100
00000000
00001000
00000010
00000000
00001000
00000010
00000000
00000100
00000000
00000001
00000000
00000020
00000000
00000000
00000000
,
00001030
00000010
00000001
00000100
00000010
00001000
00000100
00000000
,
00000100
00010100
00000000
00011000
00000000
00101000
00000000
00100000
,
00010000
01000000
00100000
01200000
00000000
10300000
01000000
00010000
,
01000000
00000000
10000000
00100000
00000000
10000000
00100000
00000000
01000000
00000000
00010000
00000000
00100000
00000000
00020000
00000000
,
00000000
10030000
00100000
01000000
00010000
00100000
00010000
00000000
,
10000000
00100000
10000000
10200000
00000000
01300000
00010000
00100000
,
00001000
00010000
00000100
00020100
00000000
00031000
00010000
00100000
,
00010000
00000000
00001000
00100000
00000000
00001000
00100000
00000000
00010000
00000000
01000000
00000000
00001000
00000000
00000000
00000000
,
00010000
00000100
00001000
00000010
00000100
00000010
00001000
00000000
,
00000001
00000010
00000001
00000021
00000000
00000130
00001000
00000010
,
00010000
00001000
01000000
01002000
00000000
00013000
00001000
00000010
,
00001000
00000000
00010000
00000010
00000000
00010000
00000010
00000000
00001000
00000000
00000100
00000000
00010000
00000000
00000000
00000000
,
00002000
00000000
00023000
00000000
00032000
00000000
00013000
00001000
,
00201000
00000000
00010000
00000000
00301000
00010000
00001000
00100000
,
00010000
00000000
00000000
00010000
01000000
00000000
00100000
00000000
10000000
00000000
01000000
00000000
00100000
00000000
00000000
00000000
,
00210000
00000000
01300000
10000000
10200000
00000000
01300000
00010000
,
00100000
00000000
00000000
00100000
00001000
00000000
00010000
00000000
00000010
00000000
00001000
00000000
00000100
00000000
00000000
00000000
,
00010200
00000000
00001000
00000000
00010300
00001000
00010000
00000100
,
00001000
00000000
00000000
00001000
00000010
00000000
00000100
00000000
00000001
00000000
00000010
00000000
00000100
00000000
00000000
00000000
,
00001200
00000000
00010000
00000000
00001000
00000000
00010300
00001000
,
00201000
00000000
00010000
00000000
00310000
00010000
10000000
10000000
,
20010000
01000000
00010000
00100000
,
30020000
01000000
00230000
00001000
,
00320000
01000000
10000000
00100000
,
20030000
01000000
30020000
00100000
,
02030000
03002000
00023000
00030200
,
00002300
00000000
00003010
00002000
00000000
00003200
00000000
00000302
,
00000000
00000203
00000000
00002300
00000000
00003002
00000000
00002000
,
00000000
00000000
00000000
00003003
,
00000001
00000100
00000010
00002010
00000000
00003100
00010000
00001000
,
00100000
00001000
00010000
00010200
00000000
00001300
00000010
00000001
,
00000010
00000000
00001000
00000100
00000000
00001000
00000100
00000000
00010000
00000000
00001000
00000000
00100000
00000000
00010000
00000000
,
01000000
00000000
00100000
10000000
00000000
10000000
01000000
00000000
00100000
00000000
00010000
00000000
10000000
00000000
00010000
00000000
,
01000000
01010000
00000000
00110000
00000000
00101000
00000000
00001000
,
00010000
00000100
00001000
00002100
00000000
00003010
00000001
00000010
,
00001000
00000000
00000100
00001000
00000000
00000100
00001000
00000000
00000100
00000000
00010000
00000000
00001000
00000000
00100000
00000000
,
00010000
00000000
01000000
00010000
00000000
01000000
00010000
00000000
01000000
00000000
00001000
00000000
00010000
00000000
00000000
00000000
,
00022000
00000000
00000000
00000000
,
00033000
00000000
00000000
00000000
;

//--------------- dance-double - OrangeRight ----------------
#NOTES:
     dance-double:
     OrangeRight:
     Challenge:
     13:
     0,0,0,0,0:
00000000
00000000
00000000
00000000
,
00000000
00000000
00000000
00000000
,
00000000
00000000
00000000
00000000
,
00000000
00000000
00000000
00000000
,
00000000
00000000
00000000
00000000
,
00002000
00100000
00000000
00010000
00000000
01000000
00000000
00010000
,
00023000
00000010
00000000
00001000
00000000
00000100
00000000
00001000
,
00031000
00000000
00000000
00100000
00000000
00000000
00010000
00000000
00000000
01000000
00000000
00000000
00001000
00000000
00010000
00000000
,
00000200
00002300
00000020
00003030
,
00001100
00000000
00000000
00000100
00010000
00000000
00001000
00000000
00100000
00000000
00010000
00000000
01000000
00000000
00010000
00100000
,
00001000
00000000
00010000
00000000
01000000
00000000
00010000
00000000
00001000
00000000
01000000
00000000
00010000
00000000
00100000
00010000
,
10000000
00000000
00000000
10000000
00100000
00000000
01000000
00000000
00010000
00000000
00100000
00000000
01000000
00000000
10000000
00010000
,
00100000
10000000
00100000
01000000
00100000
00010000
01000000
00001000
,
00010000
00000100
00010200
00000000
00001300
00000010
00001020
00000000
,
00010030
00000010
00010000
00012000
00000000
00103000
00010000
00120000
,
00000000
01030000
00100000
20100000
00000000
31000000
00100000
00120000
,
00000000
10000000
00000000
01000000
00000000
10030000
01100000
00000000
,
01010000
00000000
00000000
01000000
00001000
00000000
00010000
00000000
00000010
00000000
00001000
00000000
00000100
00000000
00001000
00000010
,
00010000
00000000
00001000
00000000
00000100
00000000
00001000
00000000
00010000
00000000
00000100
00000000
00001000
00000000
00000010
00001000
,
00000001
00000000
00000000
00000001
00000010
00000000
00000100
00000000
00001000
00000000
00000001
00000000
00000100
00000000
00000001
00000010
,
00000100
00001000
00000100
00000010
00000100
00000001
00000100
00001000
,
00000100
00010000
00020100
00000000
00031000
00100000
00201000
00000000
,
00310000
01000000
00001000
00021000
00000000
00030010
00001000
00001200
,
00000000
00000310
00000001
00000201
00000000
00000310
00001000
00002002
,
00000000
00000000
00000000
00003003
,
00000001
00000000
00000100
00000010
00001000
00000000
00001200
00000000
00000000
00000000
00010300
00000000
00000100
00010000
00001000
00000000
,
00100000
00000000
00010000
01000000
00010000
00000000
02010000
00000000
00000000
00000000
03100000
00000000
01000000
00000000
00010000
00000000
,
00100000
00000000
00010000
00100000
00000000
00100000
00001000
00000000
00010000
00000100
00010000
00000000
00002000
00000000
00010000
00000000
,
00013000
00000000
00001000
01000000
00001000
00000000
00010000
00000100
00010000
00000000
00001000
00000000
00010000
00000000
00000010
00000000
,
00001000
00001100
00000000
00000110
00000000
00000011
00000000
00000001
,
00000100
00000000
00000010
00001000
00000010
00000000
00002010
00000000
00000000
00000000
00003100
00000000
00010000
00000000
00001000
00000000
,
00100000
00000000
00010000
01000000
00000000
00100000
10000000
00000000
01000000
00100000
01000000
00000000
10000000
00000000
00010000
00000000
,
01000000
10000000
01000000
00100000
01000000
00010000
10010000
00000000
,
10000000
00000000
01000000
00100000
00010000
00000000
02010000
00000000
00000000
00000000
03001000
00000000
01000000
00001000
00010000
00000000
,
00000010
00000000
00001000
00000100
00001000
00000000
00001200
00000000
00000000
00000000
00000310
00000000
00000100
00000000
00001000
00000000
,
00000010
00000000
00001000
00000010
00000000
00000010
00010000
00000000
00001000
01000000
00001000
00000000
00020000
00000000
00001000
00000000
,
00031000
00000000
00010000
00000100
00010000
00000000
00001000
01000000
00001000
00000000
00010000
00000000
00001000
00000000
00100000
00000000
,
00010000
00000000
01000000
00100000
10000000
00000000
20100000
00000000
00000000
00000000
31000000
00000000
01000000
10000000
00010000
00000000
,
01000000
00000000
00001000
00100000
00010000
00000000
00210000
00000000
00000000
00000000
00301000
00000000
00010000
00000000
00000100
00000000
,
00001000
00000000
00001000
00000010
00000000
00000010
00010000
00000000
00010000
00001000
00000000
00001000
00100000
00000000
00010000
00000000
,
01000000
01000000
00100000
00100000
10000000
10000000
00010000
00010000
,
20000000
00000000
00000000
31000000
10000000
00000000
00100000
00000000
01000000
00000000
00010000
00000000
01000000
00000000
00100000
10000000
,
00020000
00000000
00000000
00130000
00001000
00000000
00010000
00000000
00000100
00000000
00001000
00000000
00000010
00000000
00000100
00000000
,
00000020
00000000
00000000
00001030
00000100
00000000
00000010
00000000
00000001
00000000
00001000
00000000
00000001
00000000
00000100
00000010
,
00000200
00000000
00000000
00000310
00001000
00000000
00000100
00000000
00010000
00000000
00001000
00000000
00100000
00000000
00010000
00000000
,
02000000
00000000
00000000
03100000
01000000
00000000
00010000
00000000
00100000
00000000
00001000
00000000
00010000
00000000
00000100
00001000
,
00000200
00000000
00000000
00000310
00000100
00000000
00001000
00000000
00000010
00000000
00010000
00000000
00001000
00000000
00100000
00000000
,
00110000
00000000
00000000
00100000
00001000
00000000
00010000
00000000
00000010
00000000
00001000
00000000
00000100
00000000
00001000
00000000
,
00001100
00000000
00000000
00000100
00010000
00000000
00001000
00000000
00010000
00000000
00010000
00000000
00001000
00000000
00001000
00000000
,
00020000
00001000
00000000
00001000
00000000
00000100
00000000
00000100
,
00000000
00000010
00000000
00000010
00000000
00000100
00000000
00001000
,
00032000
00010000
00000000
00010000
00000000
00100000
00000000
00100000
,
00000000
01000000
00000000
01000000
00000000
00010000
00000000
00010000
,
00013000
00000000
00000000
00001000
00000000
00000000
00100000
00000000
00000000
00010000
00000000
00000000
01000000
00000000
00100000
00000000
,
10000000
00000000
00000000
01000000
00000000
00000000
21000000
00000000
00000000
00000000
30100000
00000000
00000000
00000000
02100000
00000000
,
00000000
03010000
00000000
00210000
00000000
00301000
00000000
00010000
,
00002000
00023000
00002000
00033000
,
00001000
00000000
01000000
00010000
01000000
00000000
02010000
00000000
00000000
00000000
03100000
00000000
10000000
00000000
01000000
00000000
,
00010000
00000000
01000000
10000000
00100000
00000000
02100000
00000000
00000000
00000000
03010000
00000000
00100000
00000000
10000000
00000000
,
00100000
00000000
00010000
01000000
00000000
01000000
00001000
00000000
00001000
00010000
00000000
00010000
00000100
00000000
00001000
00000000
,
00000010
00000000
00001000
00000100
00000000
00000010
00000001
00000000
00000100
00000010
00000000
00001000
00000100
00010000
00001000
00000000
,
00010000
00000000
00000010
00001000
00000010
00000000
00001000
00000100
00001000
00000000
00000100
00000010
00000100
00000000
00001000
00000000
,
00000010
00000000
00000100
00000001
00000010
00000000
00000210
00000000
00000000
00000000
00001300
00000000
00000010
00000000
00000001
00000000
,
00000010
00000000
00001000
00000100
00000000
00000100
00010000
00000000
00010000
00001000
00000000
00001000
00100000
00000000
00010000
00000000
,
01000000
00000000
00100000
10000000
00000000
00010000
00100000
00000000
01000000
10000000
00000000
00100000
10000000
00010000
10000000
00020000
,
20000000
00000000
00000000
00000000
,
30030000
00000000
00000000
00000000
;
