#VERSION:0.83;
#TITLE:Linear Accelerator;
#SUBTITLE:;
#ARTIST:THE SHAFT;
#TITLETRANSLIT:;
#SUBTITLETRANSLIT:;
#ARTISTTRANSLIT:;
#GENRE:PROGRESSIVE BREAKCORE;
#ORIGIN:;
#CREDIT:;
#BANNER:Linear Accelerator.png;
#BACKGROUND:Linear Accelerator-bg.png;
#PREVIEWVID:;
#JACKET:Linear-Accelerator-jacket.png;
#CDIMAGE:;
#DISCIMAGE:;
#LYRICSPATH:;
#CDTITLE:cdtitle.png;
#MUSIC:Linear Accelerator.ogg;
#OFFSET:-0.020000;
#SAMPLESTART:51.619999;
#SAMPLELENGTH:15.000000;
#SELECTABLE:YES;
#DISPLAYBPM:100.000000:212.000000;
#BPMS:0.000=200.000,
32.000=100.000,
38.000=200.000,
253.000=211.900,
254.000=105.950,
286.000=211.900;
#STOPS:;
#DELAYS:;
#WARPS:;
#TIMESIGNATURES:0.000=4=4;
#TICKCOUNTS:0.000=4;
#COMBOS:0.000=1;
#SPEEDS:0.000=1.000=0.000=0;
#SCROLLS:0.000=1.000;
#FAKES:;
#LABELS:0.000=Song Start;
#BGCHANGES:;
#KEYSOUNDS:;
#ATTACKS:
;

//---------------dance-single - THE DAFF----------------
#NOTEDATA:;
#CHARTNAME:THE DAFF;
#STEPSTYPE:dance-single;
#DESCRIPTION:THE DAFF;
#CHARTSTYLE:;
#DIFFICULTY:Beginner;
#METER:2;
#RADARVALUES:0.074124,0.141878,0.024322,0.000000,0.000000,64.000000,61.000000,3.000000,0.000000,0.000000,0.000000,0.000000,0.000000,0.000000,0.074124,0.141878,0.024322,0.000000,0.000000,64.000000,61.000000,3.000000,0.000000,0.000000,0.000000,0.000000,0.000000,0.000000;
#CREDIT:THE DAFF;
#DISPLAYBPM:100.000000:212.000000;
#NOTES:
0000
0000
0000
0000
,
0000
0000
0000
0000
,
0000
0000
0000
0000
,
0000
0000
0000
0000
,
0000
0000
0000
0000
,
0000
0000
0000
0000
,
0000
0000
0000
0000
,
0000
0000
0000
0000
,
0000
0000
0000
0000
,
0000
0000
0001
0000
,
0000
0000
0000
0000
,
0000
0000
1000
0000
,
0000
0000
0000
0000
,
0010
0000
0010
0000
,
0000
0000
0000
0000
,
0000
0000
0100
0000
,
0000
0000
0001
0000
,
0000
0000
1000
0000
,
0000
0000
0000
0000
,
0000
0000
0001
0000
,
0000
0000
0000
0000
,
0010
0000
0010
0000
,
0000
0000
0000
0000
,
0000
0000
0100
0000
,
0000
0000
1000
0000
,
0000
0000
0001
0000
,
0001
0000
0000
0000
,
0000
0000
0100
0000
,
0000
0000
0000
0000
,
0000
0000
0010
0000
,
0010
0000
0000
0000
,
0000
0000
1000
0000
,
0000
0000
0001
0000
,
0000
0000
1000
0000
,
1000
0000
0000
0000
,
0000
0000
0100
0000
,
0000
0000
0000
0000
,
0000
0000
0010
0000
,
0000
0000
0000
0000
,
0000
0000
0001
0000
,
0000
0000
1001
0000
,
0000
0000
1000
0000
,
0000
0000
0000
0000
,
0000
0000
0001
0000
,
0000
0000
0100
0000
,
0100
0000
0100
0000
,
0000
0000
0000
0000
,
0000
0000
0010
0000
,
0000
0000
1000
0000
,
0000
0000
0001
0000
,
0000
0000
0000
0000
,
0000
0000
1000
0000
,
0000
0000
0100
0000
,
0100
0000
0100
0000
,
0000
0000
0000
0000
,
0000
0000
0010
0000
,
0000
0000
0001
0000
,
0000
0000
1001
0000
,
0000
0000
0000
0000
,
0000
0000
0000
0000
,
0000
0000
0000
0000
,
0000
0000
0000
0000
,
0000
0000
0000
0000
,
0000
0000
1000
0000
,
0000
0000
1000
0000
,
0000
0000
0001
0000
,
0000
0000
0001
0000
,
0000
0000
0010
0000
,
0000
0000
0010
0000
,
0000
0000
0100
0000
,
0000
0000
0100
0000
,
0000
0000
1000
0000
,
0000
0000
0000
0000
,
0000
0000
0001
0000
,
0000
0000
0000
0000
,
0000
0000
0100
0000
,
0000
0000
0000
0000
,
0000
0000
0010
0000
,
0000
0000
0000
0000
,
0000
0000
1000
0000
,
0000
0000
1000
0000
,
0000
0000
0001
0000
,
0000
0000
0001
0000
,
0000
0000
0010
0000
,
0000
0000
0100
0000
,
0000
0000
1000
0000
,
0000
0000
0001
0000
,
0000
0000
1001
0000
;

//---------------dance-single - THE DAFF----------------
#NOTEDATA:;
#CHARTNAME:THE DAFF;
#STEPSTYPE:dance-single;
#DESCRIPTION:THE DAFF;
#CHARTSTYLE:;
#DIFFICULTY:Easy;
#METER:5;
#RADARVALUES:0.201525,0.287000,0.024322,0.129717,0.000000,174.000000,171.000000,3.000000,16.000000,0.000000,0.000000,0.000000,0.000000,0.000000,0.201525,0.287000,0.024322,0.129717,0.000000,174.000000,171.000000,3.000000,16.000000,0.000000,0.000000,0.000000,0.000000,0.000000;
#CREDIT:THE DAFF;
#DISPLAYBPM:100.000000:212.000000;
#NOTES:
0000
0000
0000
0000
,
0000
0000
0000
0000
,
0000
0000
0000
0000
,
0000
0000
0000
0000
,
0000
0000
0000
0000
,
0000
0000
0000
0000
,
0000
0000
0000
0000
,
0000
0000
0000
0000
,
0000
0000
0000
0000
,
0000
0000
1000
0000
,
0010
0000
1000
0000
,
0001
0000
1000
0000
,
0100
0000
0010
0100
,
0010
0000
0001
0000
,
1000
0000
0010
0000
,
0100
0000
0010
0000
,
1000
0000
0100
0010
,
0100
0010
0001
0000
,
0010
0000
0001
0000
,
1000
0000
0001
0000
,
0100
0000
0010
0100
,
0010
0000
1000
0000
,
0001
0000
0010
0000
,
0100
0000
0010
0000
,
0001
0000
0100
0010
,
1000
0001
2000
0000
,
3200
0000
0301
0000
,
0100
0000
1000
0001
,
1000
0000
0010
0000
,
0100
0000
0002
0000
,
0023
0000
1030
0000
,
0010
0000
0001
0000
,
1000
0000
0010
0100
,
0010
0100
0002
0000
,
0203
0000
1300
0000
,
0100
0000
0001
1000
,
0001
0000
0010
0000
,
0100
0000
1000
0001
,
1000
0000
0010
0000
,
0100
0000
0001
0000
,
1000
0000
1001
0000
,
0000
0000
0002
0000
,
0010
0000
1000
0000
,
1000
0000
0100
0000
,
0103
0000
0010
0100
,
0010
0000
2000
0000
,
0100
0000
0001
0000
,
0001
0000
0010
0000
,
3010
0000
1000
0001
,
1000
0000
2000
0000
,
0010
0000
0001
0000
,
0001
0000
0100
0000
,
3100
0000
0010
0100
,
0010
0000
0002
0000
,
0100
0000
1000
0000
,
1000
0000
0010
0000
,
0013
0000
0001
1000
,
0001
1001
0000
0000
,
0000
0000
0000
0000
,
0000
0000
0000
0000
,
0000
0000
0000
0000
,
0000
0000
0000
0000
,
0000
0000
0000
0000
,
0000
0000
0002
0000
,
0000
0100
0103
0010
,
1000
0001
2000
0000
,
0000
0100
3100
0010
,
0001
1000
0020
0000
,
0000
0100
0130
0001
,
1000
0001
0020
0000
,
0100
0130
1000
0001
,
0100
0010
1000
0000
,
0100
0000
1000
0000
,
0100
0000
0001
0000
,
0100
0000
0001
0000
,
0100
0000
1000
0000
,
0010
0000
1000
0000
,
0010
0000
0001
0000
,
0010
0000
0001
0000
,
0010
0000
1000
0000
,
0001
0000
1000
0000
,
0100
0000
0010
0000
,
0001
0000
1000
0000
,
0001
0000
0100
0000
,
0100
0000
0010
0000
,
0010
0000
1000
0000
,
0001
0000
1000
0001
,
1000
0001
2002
0000
,
0000
0000
3003
0000
;

//---------------dance-single - THE DAFF----------------
#NOTEDATA:;
#CHARTNAME:THE DAFF;
#STEPSTYPE:dance-single;
#DESCRIPTION:THE DAFF;
#CHARTSTYLE:;
#DIFFICULTY:Medium;
#METER:12;
#RADARVALUES:0.451695,0.681625,0.218898,0.308079,0.028376,390.000000,363.000000,27.000000,38.000000,0.000000,0.000000,0.000000,0.000000,0.000000,0.451695,0.681625,0.218898,0.308079,0.028376,390.000000,363.000000,27.000000,38.000000,0.000000,0.000000,0.000000,0.000000,0.000000;
#CREDIT:THE DAFF;
#DISPLAYBPM:100.000000:212.000000;
#NOTES:
0000
0000
0000
0000
,
0000
0000
0000
0000
,
0000
0000
0000
0000
,
0000
0000
0000
0000
,
0000
0000
0000
0000
,
0000
0000
0000
0000
,
0000
0000
0000
0000
,
0000
0000
0000
0000
,
2002
0000
0000
0000
,
0000
3003
0001
1000
,
0100
1001
0001
1000
,
0010
0100
0010
0000
1000
0000
0001
0000
,
0010
0000
0100
0000
0010
0001
1000
0000
,
0010
0110
0100
0001
,
1000
0001
1000
0000
0100
0000
0010
0000
,
0001
1000
0001
0000
1000
0000
0010
0000
,
0001
0000
0010
0000
1000
0001
1000
0001
,
0020
0230
1300
0001
,
0100
1001
1000
0001
,
0010
0100
0010
0000
0001
0000
1000
0000
,
0010
0000
0100
0000
0010
1000
0001
0000
,
0010
0000
0110
0000
0100
1000
0000
0001
,
1000
0010
0100
0010
,
1000
0001
1000
0000
0001
0000
0010
0000
,
1000
0000
0010
0000
0001
1000
0001
1000
,
0020
0230
0302
0010
,
2003
0100
3001
1000
,
0010
0100
0110
1002
,
0013
0100
0010
0000
0001
0000
0100
0000
,
0010
1000
0200
0010
,
2300
0001
3010
0100
,
0001
1000
0001
0000
1000
0000
0100
0000
,
0001
0000
0100
0000
1000
0001
1000
0001
,
0100
0010
0100
0010
2000
0000
0010
0000
,
3002
0100
1003
0001
,
0010
0100
0110
2001
,
3010
0100
0010
0000
1000
0000
0001
0000
,
0010
0200
1300
0001
,
0100
0000
0020
0000
1030
0000
0001
1000
,
0000
0001
0010
0000
1000
0000
0010
0000
,
0001
1000
2002
0000
,
0000
3003
0002
0010
,
1000
0000
0103
0000
0001
1000
0001
0000
,
0010
0000
0100
0000
1000
0000
0000
0000
0010
0000
0000
0010
0000
0000
0010
0000
,
0000
0100
0001
0000
1001
0000
0110
0000
,
1001
0000
2000
0100
,
0001
0000
3010
0000
1000
0001
1000
0000
,
0001
0000
0000
0000
0010
0000
0000
0000
0100
0000
0000
0100
0000
0000
0100
0000
,
0000
1000
0001
0000
0101
0000
1010
0000
,
1001
0000
2000
0010
,
0001
0000
3100
0000
1000
0001
1000
0000
,
0010
0000
0100
0000
0001
0000
0000
0000
0010
0000
0000
0010
0000
0000
0010
0000
,
0000
0100
1000
0000
1001
0000
0110
0000
,
1001
0000
0002
0100
,
1000
0000
0013
0000
0001
1000
0001
0000
,
1000
0000
0000
0000
0010
0000
0000
0000
0100
0000
0000
0100
0000
0000
0100
0000
,
0000
0001
1000
0000
1100
0000
0011
0000
,
1001
0220
0000
0000
,
0000
0000
0000
0000
,
0000
0000
0000
0000
,
0330
0000
0000
0000
,
0000
0000
0000
0000
,
0000
0000
0000
0000
,
0000
0000
1002
0100
,
1000
0000
0013
0200
0000
2300
0000
3010
,
0200
0301
0021
1000
,
0100
0000
0031
2000
0000
3020
0000
0130
,
0002
1003
2001
0100
,
0001
0000
3010
0200
0000
0302
0000
0013
,
0200
1300
1020
0001
,
0100
0000
1030
0001
0010
0010
0100
0100
,
1000
0001
1000
0001
1000
0001
1000
0000
0001
0000
0010
0000
0001
0000
0000
0000
,
1000
0010
1000
0000
0001
0100
0001
0000
,
1000
0100
1000
0000
0001
1000
0010
0000
,
1000
0001
0010
0000
0001
1000
0100
0000
,
1000
0001
0100
0000
0001
1000
0100
0000
,
0100
0010
0001
0000
1000
0010
0100
0000
,
0001
0010
0100
0000
1000
0001
0100
0000
,
0100
0010
1000
0000
0001
0010
0100
0000
,
1000
0010
0100
0000
0001
0100
0010
0100
,
0001
0000
1000
0000
0001
0010
0100
0000
,
0100
1000
0010
0000
1000
0100
0010
0100
,
1000
0000
0001
0000
1000
0010
0100
0000
,
0100
0001
0010
0000
0001
0100
0001
0100
,
0010
1000
0001
0000
1000
0100
1000
0100
,
0010
0001
1000
0000
0001
0100
0001
0100
,
0010
1000
0010
1000
0100
0010
0100
0010
,
0001
0100
0010
1000
0200
0000
0000
0000
,
0000
0000
0300
0000
;

//---------------dance-single - THE DAFF----------------
#NOTEDATA:;
#CHARTNAME:THE DAFF;
#STEPSTYPE:dance-single;
#DESCRIPTION:THE DAFF;
#CHARTSTYLE:;
#DIFFICULTY:Hard;
#METER:15;
#RADARVALUES:0.637005,0.968625,0.502655,0.316186,0.141878,550.000000,488.000000,62.000000,39.000000,0.000000,0.000000,0.000000,0.000000,0.000000,0.637005,0.968625,0.502655,0.316186,0.141878,550.000000,488.000000,62.000000,39.000000,0.000000,0.000000,0.000000,0.000000,0.000000;
#CREDIT:THE DAFF;
#DISPLAYBPM:100.000000:212.000000;
#NOTES:
0000
0000
0000
0000
,
0000
0000
0000
0000
,
0000
0000
0000
0000
,
0000
0000
0000
0000
,
0000
0000
0000
0000
,
0000
0000
0000
0000
,
0000
0000
0000
0000
,
0000
0000
0000
0000
,
0200
0000
0000
0000
,
0000
0000
0300
1001
0101
0000
1010
0000
,
1000
0001
0010
0000
1000
0010
0001
0000
,
1000
0001
0100
0000
0110
0000
1001
0000
,
1000
0100
0001
0000
0100
0010
0100
1000
,
0002
0000
0000
0000
0103
0010
0100
0000
0010
0000
0000
0000
1001
0000
0000
0000
,
1000
0001
0010
0000
0100
1000
0002
0000
,
0103
0010
1000
0000
1100
0000
0011
0000
,
0001
1000
0010
0100
0001
1000
0001
1000
,
0100
0010
0001
1000
1100
0000
0011
0000
,
0001
1000
0010
0000
0001
0010
1000
0000
,
0001
1000
0100
0000
0110
0000
1001
0000
,
0001
0100
1000
0000
0100
0010
0100
0001
,
1000
0001
1000
0000
0200
0000
0000
0000
0310
0000
0001
0000
0000
0000
0100
0000
,
0010
0100
0001
0000
1001
0000
1000
0100
,
0010
0001
0100
0000
0101
0000
1010
0000
,
1000
0001
0010
0100
1000
0001
1000
0001
,
0100
0010
1000
0001
0012
0000
1003
0000
,
2010
0000
0000
0000
3001
0000
0000
0000
1000
0000
0001
1000
0001
0000
0010
0000
,
0100
1001
0101
1010
,
1000
0001
0010
0000
0001
0100
0010
1000
,
0200
0310
2001
3100
,
1002
0000
0103
0000
0001
1000
0100
0010
,
0100
0000
1001
0000
0001
1000
0010
0000
,
0100
0001
1000
0000
0100
0010
0100
0010
,
0001
0100
0010
1000
2010
0000
3001
0000
,
0012
0000
0000
0000
1003
0000
0000
0000
0001
0000
1000
0001
1000
0000
0010
0000
,
0100
1001
1100
0011
,
0001
1000
0010
0000
1000
0001
0010
0000
,
0110
1001
1010
0101
,
0001
0010
1000
0000
0010
0100
0010
0001
,
0000
1000
0001
0100
0010
0000
1001
0000
,
1000
0000
0100
0000
0010
0000
0001
0000
0200
0000
0000
0010
0000
0000
0310
0000
,
1000
0001
1000
0000
0001
0000
0000
0000
2001
0000
0000
0000
3020
0000
0000
0100
,
0000
0130
0001
1000
0000
1000
0001
0010
,
1000
0000
0010
0000
0001
0000
1000
0000
0010
0000
0100
0010
0000
0100
0010
0000
,
1000
0001
0010
0000
0011
0000
1100
0000
,
1001
0000
0000
0000
0001
0000
1000
0001
1000
0000
0010
0000
0100
0000
0002
0000
,
0000
0010
0000
0000
0013
0000
0100
0000
0000
0000
1000
0001
1000
0000
0010
0000
,
0100
0000
0010
0000
1000
0000
0001
0000
1000
0000
0100
0010
0000
0100
0010
0000
,
0001
1000
0010
0000
0101
0000
1010
0000
,
2002
0000
0000
0000
3003
0000
0000
0000
1002
0000
0000
0000
0023
0000
0000
0100
,
0000
0130
1000
0001
0000
0001
1000
0010
,
0001
0000
0010
0000
1000
0000
0001
0000
0010
0000
0100
0010
0000
0100
0010
0000
,
0001
1000
0010
0000
1010
0000
0101
0000
,
1001
0000
0000
0000
1000
0000
0001
1000
0001
0000
0010
0000
0100
0000
2000
0000
,
0000
0010
0000
0000
3010
0000
0100
0000
0000
0000
0001
1000
0001
0000
0010
0000
,
0100
0000
0010
0000
0001
0000
1000
0000
0001
0000
0100
0010
0000
0100
0010
0000
,
1000
0001
0010
0000
1100
0000
0011
0000
,
1001
0220
0000
0000
,
0000
0000
0000
0000
,
0000
0000
0000
0000
,
0330
0000
0000
0000
,
0000
0000
0000
0000
,
0000
0000
0000
0000
,
0000
0000
2001
0010
,
0001
0000
3100
0120
0031
2001
3010
0210
,
0302
1003
1200
0001
,
0010
0000
1300
1002
0103
0120
1030
1002
,
0023
0130
1002
0010
,
1000
0000
0103
0120
1030
1002
0013
0210
,
2300
3001
0201
1000
,
0010
0000
0000
0000
0301
0000
1001
0000
1000
0100
1000
0001
0100
0001
0010
0100
,
1000
0000
0010
0000
0100
0000
0001
0000
0010
0100
0010
0100
0010
0000
0000
0000
0001
0000
0000
0000
0100
0000
0000
0000
0010
0000
0000
0000
0100
0000
0000
0000
,
0001
0100
0010
0100
0001
0010
0100
1000
,
0001
0100
0010
1000
0100
0010
0100
1000
,
0100
0010
0100
1000
0010
0100
0001
1000
,
0100
0010
0001
1000
0001
0100
0010
0100
,
0001
1000
0001
0010
0100
1000
0010
0100
,
0001
1000
0100
0010
0001
1000
0100
0010
,
0100
1000
0001
1000
0010
0100
0001
0010
,
0100
1000
0001
0100
0010
1000
0100
0001
,
0100
1000
0010
0100
0001
0010
0001
0100
,
1000
0100
0001
0010
0100
1000
0010
0001
,
0010
1000
0001
0010
1000
0010
0001
0100
,
0010
1000
0100
0010
0001
0100
0001
0100
,
1000
0100
1000
0100
0001
0010
0001
0010
,
1000
0010
1000
0010
0001
0100
1000
0001
,
0010
1000
0100
0001
1000
0010
0001
1000
,
0010
0100
0010
0100
0010
0100
0010
0100
0020
0000
0000
0000
0000
0000
0000
0000
,
0000
0000
0030
0000
;

//---------------dance-single - THE DAFF -SPHERICAL-----------------
#NOTEDATA:;
#CHARTNAME:THE DAFF -SPHERICAL-;
#STEPSTYPE:dance-single;
#DESCRIPTION:THE DAFF -SPHERICAL-;
#CHARTSTYLE:;
#DIFFICULTY:Challenge;
#METER:16;
#RADARVALUES:0.696073,1.076249,0.405367,0.186469,0.308079,601.000000,551.000000,50.000000,23.000000,0.000000,0.000000,0.000000,0.000000,0.000000,0.696073,1.076249,0.405367,0.186469,0.308079,601.000000,551.000000,50.000000,23.000000,0.000000,0.000000,0.000000,0.000000,0.000000;
#CREDIT:THE DAFF -SPHERICAL-;
#DISPLAYBPM:100.000000:212.000000;
#NOTES:
// measure 0
0000
0000
0000
0000
,  // measure 1
0000
0000
0000
0000
,  // measure 2
0000
0000
0000
0000
,  // measure 3
0000
0000
0000
0000
,  // measure 4
0000
0000
0000
0000
,  // measure 5
0000
0000
0000
0000
,  // measure 6
0000
0000
0000
0000
,  // measure 7
0000
0000
0000
0000
,  // measure 8
0200
0000
0000
0000
,  // measure 9
0000
0000
0000
0000
0000
0000
0310
0000
1001
0000
0000
0001
0200
0000
0000
0000
,  // measure 10
0310
0000
1000
0000
0100
0000
0000
0000
0110
0000
0000
0000
0010
0001
0000
0000
,  // measure 11
0001
0000
0100
0000
1001
0000
0000
0000
1000
0100
0000
0000
0110
0000
0000
0000
,  // measure 12
0010
0001
1000
0000
0001
0100
0010
1000
,  // measure 13
0200
0000
0000
0000
0310
0100
0010
0000
0001
0000
0000
0001
2000
0000
0000
0000
,  // measure 14
3010
0000
0100
0000
0110
0000
0000
0000
1001
0000
0000
0000
1000
0001
1000
0000
,  // measure 15
0100
0010
0001
0000
0101
0000
1010
0000
,  // measure 16
1000
0100
0010
0001
0100
0100
0010
0010
,  // measure 17
1000
0000
0100
0000
0010
0000
0001
0000
1001
0000
0000
1000
0200
0000
0000
0000
,  // measure 18
0310
0000
0001
0000
0100
0000
0000
0000
0110
0000
0000
0000
0010
1000
0000
0000
,  // measure 19
1000
0000
0100
0000
1001
0000
0000
0000
0001
0100
0000
0000
0110
0000
0000
0000
,  // measure 20
0010
1000
0001
0000
1000
0100
0010
0001
,  // measure 21
0100
0010
0100
0000
0010
0000
1000
0000
0100
0000
0010
0000
0000
0000
0100
0000
,  // measure 22
0001
0100
1000
0000
1001
0000
0001
0100
,  // measure 23
0010
0100
0010
0000
1000
0000
0000
0000
1100
0000
0000
0000
0011
0000
0000
0000
,  // measure 24
0001
0100
0010
1000
0100
0100
0010
0010
,  // measure 25
0001
1000
0001
1000
0002
0100
0103
0000
,  // measure 26
0020
0000
1000
0000
1030
0000
0000
0000
0100
0000
0010
0001
0010
0000
0001
0000
,  // measure 27
0100
0000
0000
0000
0101
0000
0000
0000
1010
0000
0000
1000
0002
0000
0000
0000
,  // measure 28
1003
0100
0001
0000
0100
0010
0100
1000
,  // measure 29
0001
0000
0100
0010
0100
0000
0010
0000
2000
0000
0001
0000
3001
0000
0000
0000
,  // measure 30
0020
0000
0100
0000
0130
0000
0000
0000
1000
0000
0001
1000
0001
0000
0100
0000
,  // measure 31
0010
0000
1001
0000
1000
0100
0001
0000
,  // measure 32
0100
0000
1000
0001
1000
0000
0001
0000
0100
0000
0100
0000
0010
0000
0010
0000
,  // measure 33
1000
0001
0010
0100
2000
0100
3100
0000
,  // measure 34
0020
0000
0001
0000
0031
0000
0000
0000
0100
0000
0010
1000
0010
0000
1000
0000
,  // measure 35
0100
0000
0000
0000
1100
0000
0000
0000
0011
0000
0000
0001
2000
0000
0000
0000
,  // measure 36
3001
0000
0100
0000
1000
0000
0000
0000
0100
0000
0010
0100
0010
0000
1000
0000
,  // measure 37
0001
0000
0000
0000
1001
0000
0000
0000
1010
0000
0000
1000
0002
0000
0000
0000
,  // measure 38
1003
0000
0100
0000
0001
0000
0000
0000
0100
0000
0010
0100
0010
0000
0001
0000
,  // measure 39
0000
1000
0001
0100
0010
1000
0100
0000
,  // measure 40
0010
0000
0001
0000
0100
0000
0000
0000
0010
0000
1000
0001
0000
1000
0001
0000
,  // measure 41
0010
0000
0100
0010
0100
0000
1000
0000
0001
0000
0000
0100
0010
0000
0100
0001
,  // measure 42
0000
0100
0010
0000
1000
0000
0001
0000
0000
0000
1000
0000
0100
0000
0001
0000
,  // measure 43
1000
0000
0010
0000
0001
0000
1000
0000
0010
0000
0100
0010
0000
1000
0001
0000
,  // measure 44
1000
0000
0100
0010
0100
0000
0010
0000
0011
0000
0000
0000
1100
0000
0000
0000
,  // measure 45
1001
0000
0000
0000
0001
1000
0001
0000
0100
0000
0010
0000
1000
0000
0001
0000
,  // measure 46
0000
0001
1000
0000
0100
0010
0100
0000
0000
0000
0001
0000
0100
0000
1000
0000
,  // measure 47
0010
0000
0001
0000
0010
0000
1000
0000
0100
0000
0010
0100
0000
0010
0001
0000
,  // measure 48
0100
0000
0010
1000
0010
0000
1000
0000
1100
0000
0000
0000
0011
0000
0000
0000
,  // measure 49
1001
0000
0000
0000
0001
1000
0001
0000
1000
0000
0000
0100
0010
0000
0100
1000
,  // measure 50
0000
0100
0010
0000
0001
0000
1000
0000
0000
0000
0001
0000
0100
0000
1000
0000
,  // measure 51
0001
0000
0010
0000
1000
0000
0001
0000
0010
0000
0100
0010
0000
0001
1000
0000
,  // measure 52
0001
0000
0100
0010
0100
0000
0010
0000
1010
0000
0000
0000
0101
0000
0000
0000
,  // measure 53
1001
0000
0000
0000
1000
0001
1000
0000
0100
0000
0010
0000
0001
0000
1000
0000
,  // measure 54
0000
1000
0001
0000
0100
0010
0100
0000
0000
0000
1000
0000
0100
0000
0001
0000
,  // measure 55
0010
0000
1000
0000
0010
0000
0001
0000
0100
0000
0010
0100
0000
0010
1000
0000
,  // measure 56
0100
0000
0010
0001
0010
0000
0001
0000
0101
0000
0000
0000
1010
0000
0000
0000
,  // measure 57
1001
0000
0000
0000
0100
0010
0200
0000
0000
0000
0000
0000
0000
0000
0000
0000
,  // measure 58
0000
0000
0000
0000
,  // measure 59
0000
0000
0000
0000
,  // measure 60
0300
0000
0000
0000
,  // measure 61
0000
0000
0000
0000
,  // measure 62
0000
0000
0000
0000
,  // measure 63
0000
0000
2010
0001
,  // measure 64
0100
0000
3010
1100
0010
0101
1000
0011
,  // measure 65
2100
3001
0201
1000
,  // measure 66
0010
0000
0301
1010
0100
0011
1000
0101
,  // measure 67
2010
3100
0012
1000
,  // measure 68
0100
0000
0013
0101
0010
1100
0001
1010
,  // measure 69
0102
1003
1200
0001
,  // measure 70
0010
0000
0000
0000
1300
0000
0001
0000
0100
0010
1000
0001
0010
0100
1000
0001
,  // measure 71
0100
0010
0100
0010
0100
0010
0100
0010
1000
0001
1000
0001
1000
0000
0000
0000
0001
0000
0000
0000
0010
0000
0000
0000
0100
0000
0000
0000
0010
0000
0000
0000
,  // measure 72
0001
1000
0001
0100
0010
1000
0001
1000
,  // measure 73
0100
0000
0010
0000
0001
1000
0001
0000
1000
0000
0010
0000
0100
0000
0010
0000
,  // measure 74
1000
0001
1000
0100
0010
0001
1000
0001
,  // measure 75
0100
0000
0010
0000
1000
0001
1000
0000
0001
0000
0010
0000
0100
0000
1000
0000
,  // measure 76
0001
0100
1000
0100
0001
1000
0100
0010
,  // measure 77
0001
0000
0100
0000
0010
0100
0010
0000
1000
0000
0010
0000
0100
0000
0001
0000
,  // measure 78
1000
0100
0001
0100
1000
0001
0100
0010
,  // measure 79
1000
0000
0100
0000
0010
0100
0010
0000
0001
0000
0100
0000
0010
0000
0100
0000
,  // measure 80
0001
0000
0010
0000
0100
0010
0100
0000
1000
0000
0010
0000
0100
0000
0010
0000
,  // measure 81
1000
0000
0100
0000
0010
0100
0010
0000
0001
0000
0100
0000
1000
0000
0100
0000
,  // measure 82
0001
0000
1000
0000
0100
0010
0100
0010
0100
0000
1000
0000
0010
0000
0100
0000
,  // measure 83
0001
0000
0010
0000
0100
0010
0100
0000
1000
0000
1000
0000
0001
0000
0001
0000
,  // measure 84
0100
0100
0010
0010
1000
1000
0001
0001
,  // measure 85
0010
0010
0100
0100
1000
1000
0001
0001
,  // measure 86
0100
0100
0010
0010
0100
0100
0100
0100
,  // measure 87
0001
1000
0001
1000
0001
1000
0001
1000
0200
0000
0000
0000
0000
0000
0000
0000
,  // measure 88
0000
0000
0300
0000
;
