#TITLE:Last Trip;
#SUBTITLE:(Ultra Shortcut);
#ARTIST:Mergel vs Yaminahua vs OmniPresence (orig. mix by Asamori);
#TITLETRANSLIT:;
#SUBTITLETRANSLIT:;
#ARTISTTRANSLIT:;
#GENRE:;
#CREDIT:;
#MUSIC:Last-Trip-Shortcut.ogg;
#BANNER:last-banner.png;
#BACKGROUND:last-bg.png;
#CDTITLE:;
#SAMPLESTART:0.000;
#SAMPLELENGTH:0.000;
#SELECTABLE:YES;
#OFFSET:0.043;
#BPMS:0.000=200.000
,84.000=200.100
,85.000=200.200
,86.000=200.300
,87.000=200.400
,88.000=200.500
,89.000=200.600
,90.000=200.700
,91.000=200.800
,100.000=200.900
,101.000=201.000
,102.000=201.100
,103.000=201.200
,104.000=201.300
,105.000=201.400
,106.000=201.500
,107.000=201.600
,120.000=202.702
,124.000=201.700
,125.000=201.800
,126.000=201.900
,127.000=202.000
,128.000=202.100
,129.000=202.200
,130.000=202.300
,131.000=202.400
,140.000=202.500
,141.000=202.600
,142.000=202.700
,143.000=202.800
,144.000=202.900
,145.000=203.000
,146.000=203.100
,147.000=203.200
,156.000=203.300
,157.000=203.400
,158.000=203.500
,159.000=203.600
,160.000=203.700
,161.000=203.800
,162.000=203.900
,163.000=204.000
,171.000=217.391
,172.000=204.100
,173.000=204.200
,174.000=204.300
,175.000=204.400
,176.000=204.500
,177.000=204.600
,178.000=204.700
,179.000=204.800
,236.000=204.900
,237.000=205.000
,238.000=205.100
,239.000=205.200
,240.000=205.300
,241.000=205.400
,242.000=205.500
,243.000=205.600
,252.000=205.700
,253.000=205.800
,254.000=205.900
,255.000=206.000
,256.000=206.100
,257.000=206.200
,258.000=206.300
,259.000=206.400
,268.000=206.500
,269.000=206.600
,270.000=206.700
,271.000=206.800
,272.000=206.900
,273.000=207.000
,274.000=207.100
,275.000=207.200
,284.000=207.300
,285.000=207.400
,286.000=207.500
,287.000=207.600
,288.000=207.700
,289.000=207.800
,290.000=207.900
,291.000=208.000
,300.000=208.100
,301.000=208.200
,302.000=208.300
,303.000=208.400
,304.000=208.500
,305.000=208.600
,306.000=208.700
,307.000=208.800
,314.000=205.128
,316.000=208.900
,317.000=209.000
,318.000=209.100
,319.000=209.200
,320.000=209.300
,321.000=209.400
,322.000=209.500
,323.000=209.600
,332.000=209.700
,333.000=209.800
,334.000=209.900
,335.000=210.000
,336.000=210.100
,337.000=210.200
,338.000=210.300
,339.000=210.400
,348.000=210.500
,349.000=210.600
,350.000=210.700
,351.000=210.800
,352.000=210.900
,353.000=211.000
,354.000=211.100
,355.000=211.200
,356.000=211.300
,357.000=211.400
,358.000=211.500
,359.000=211.600
,360.000=211.700
,361.000=211.800
,362.000=211.900
,363.000=212.000
,364.000=212.100
,365.000=212.200
,366.000=212.300
,367.000=212.400
,368.000=212.500
,369.000=212.600
,370.000=212.700
,371.000=212.800
,372.000=212.900
,373.000=213.000
,374.000=213.100
,375.000=213.200
,376.000=213.300
,377.000=213.400
,378.000=213.500
,379.000=213.600
,380.000=213.700
,381.000=213.800
,388.000=213.900
,389.000=214.000
,390.000=214.100
,391.000=214.200
,392.000=214.300
,393.000=214.400
,394.000=214.500
,395.000=214.600
,396.000=214.700
,397.000=214.800
,398.000=214.900
,399.000=215.000
,400.000=215.100
,401.000=215.200
,402.000=215.300
,403.000=215.400
,404.000=215.600
,405.000=215.700
,406.000=215.800
,407.000=215.900
,408.000=216.000
,409.000=216.100
,410.000=216.200
,411.000=216.300
,412.000=216.400
,413.000=216.500
,414.000=216.600
,415.000=216.700
,416.000=216.800
,420.000=216.900
,421.000=217.000
,422.000=217.100
,423.000=217.200
,424.000=217.300
,425.000=217.400
,426.000=217.500
,427.000=217.600
,428.000=217.700
,429.000=217.800
,430.000=217.900
,431.000=218.000
,432.000=218.100
,433.000=218.200
,434.000=218.300
,435.000=218.400
,436.000=218.500
,437.000=218.600
,438.000=218.700
,439.000=218.800
,440.000=218.900
,441.000=219.000
,442.000=219.100
,443.000=219.200
,444.000=219.300
,445.000=219.400
,446.000=219.500
,447.000=219.600
,448.000=219.700
,449.000=219.800
,450.000=219.900
,451.000=220.000
,484.000=110.000
;
#STOPS:;
#DISPLAYBPM:200.000:220.000;
#BGCHANGES:;
#FGCHANGES:;

//--------------- dance-single - Evergreen ----------------
#NOTES:
     dance-single:
     Evergreen:
     Beginner:
     9:
     0,0,0,0,0:
0000
0000
0000
0000
,
0000
0000
0000
0000
,
0000
0000
0000
0000
,
0000
0000
0000
0000
,
0000
0000
0000
0000
,
0000
0000
0000
0000
,
0000
0000
0000
0000
,
0000
0000
0000
0000
,
0000
0000
0000
0000
,
0000
0000
0000
0000
,
0000
0000
0000
0000
,
0000
0000
0000
0000
,
0000
0000
0000
0000
,
1000
0000
0010
0000
,
0100
0000
0001
0000
,
1000
0000
0100
0000
,
0010
0000
0001
0000
,
1000
0000
0100
0000
,
1000
0000
0001
0000
,
0100
0000
0001
1000
,
0001
0000
1000
0001
,
1000
0000
0100
0010
,
0100
0000
1000
0000
,
0001
0000
0100
0010
,
0100
0000
0001
0000
,
1000
0000
0010
0100
,
0001
0000
0010
0100
,
1000
0000
0001
0100
,
0010
0000
1000
0100
,
0010
0000
0000
0000
,
0000
0000
0000
0000
,
0001
1000
0001
0100
,
0001
1000
0010
0000
,
1000
0001
1000
0100
,
1000
0001
0010
0000
,
0001
0100
0010
0000
,
0010
0100
0001
0000
,
1000
0100
0010
0000
,
0010
0100
1000
0000
,
0001
0100
0001
0010
,
0001
0100
0010
0000
,
1000
0100
1000
0010
,
1000
0100
0010
0000
,
0001
0000
0010
0000
,
0001
0000
1000
0000
,
0010
0000
1000
0000
,
0001
0000
0100
0000
,
0001
0001
1000
0000
,
1000
1000
0010
0000
,
0010
0010
0100
0000
,
0100
0100
0001
0000
,
0001
0001
0010
0000
,
0010
0010
0100
0000
,
2000
0000
0000
0000
,
0002
0000
0000
0000
0000
0000
0000
3000
,
1003
0000
0010
1000
,
0010
0000
0100
0001
,
0100
0000
0001
0010
,
0001
0000
1000
0100
,
1000
0001
0100
0000
,
0001
1000
0100
0000
,
1000
0010
0100
0001
,
1000
0000
0000
0000
,
0001
1000
0100
0010
,
0001
1000
0010
0000
,
1000
0001
0100
0010
,
1000
0001
0010
0000
,
0100
1000
0010
0100
,
0010
1000
0001
0000
,
1001
0000
0000
0000
,
1001
0000
0000
0000
,
1000
0100
1000
0010
,
0100
0001
0010
0001
,
1000
0010
1000
0100
,
0010
0001
0100
0001
,
1000
0100
0001
0100
,
1000
0010
0001
0010
,
1000
0000
0000
0001
0000
0000
1000
0000
,
0000
0010
0000
0000
0100
0000
0001
0000
,
1000
0100
0010
0001
,
1000
0100
0010
0100
,
1000
0001
0100
0010
,
1000
0001
0100
0010
,
0100
0001
1000
0010
,
1000
0001
0010
0001
,
1000
0100
1000
0001
,
0100
0001
1000
0000
,
0001
0001
0010
0010
,
0100
0000
0100
0000
1000
0000
0010
1000
,
0010
0010
0100
0100
,
0001
0000
0000
1000
0000
0000
0001
0000
,
1000
1000
0010
0010
,
0100
0100
0001
0001
,
1000
0000
0000
0001
0000
0000
1000
0000
,
0010
0010
0100
0100
,
0110
0000
2002
0000
,
0000
0000
0000
3003
,
1000
0000
0100
0000
,
0010
0000
0001
0000
,
1000
0000
0010
0000
,
1000
0000
0001
0000
,
0010
0000
0100
0000
,
1000
0000
0001
0000
,
0010
0000
0001
0000
,
1000
0001
1000
0001
,
1000
0010
0100
0001
,
1000
0100
1000
0000
,
0001
0100
0010
1000
,
0001
0100
0001
0000
,
1000
0100
0010
0100
,
1000
0001
1000
0000
,
0001
0100
0010
0100
,
0001
1000
0001
0000
,
1000
0100
0010
0001
,
1000
0010
0100
0001
,
1000
0100
1000
0001
,
0100
0001
1000
0010
,
0100
0000
0001
0000
1000
0100
1000
0000
,
0001
0000
1000
0000
0001
0100
0001
0000
,
1000
0000
0010
0000
1000
0010
1000
0000
,
0001
0000
0010
0000
0001
1000
0001
1000
,
0002
0000
0000
0000
,
0003
0000
0000
0000
;

//--------------- dance-single - Evergreen ----------------
#NOTES:
     dance-single:
     Evergreen:
     Easy:
     13:
     0,0,0,0,0:
0000
0000
0000
0000
,
0000
0000
0000
0000
,
0000
0000
0000
0000
,
0000
0000
0000
0000
,
0000
0000
0000
0000
,
0000
0000
0000
0000
,
0000
0000
0000
0000
,
0000
0000
0000
0000
,
0000
0000
0000
0000
,
0000
0000
0000
0000
,
0000
0000
0000
0000
,
0000
0000
0000
0000
,
0000
0000
0000
0000
0000
0000
0000
0000
0MM0
0MM0
0MM0
0MM0
0MM0
0MM0
0MM0
0MM0
,
1MM0
0010
0100
0001
,
1000
0000
0100
0000
0010
0000
0001
1000
,
0001
0100
0010
1000
,
0001
0000
0010
0000
0100
0000
1000
0001
,
1000
0100
0010
0100
,
1000
0000
0001
0000
0100
0000
0001
0010
,
0001
1000
0010
0200
,
0301
1000
0100
2000
,
3001
0000
0100
0001
0010
0000
0001
0000
,
1000
0000
0010
1000
0100
0000
1000
0000
,
0100
0000
1000
0010
0100
0000
0001
0010
,
0100
0000
1000
0010
0100
0001
1000
0000
,
0001
0000
1000
0000
0001
0100
0001
0000
,
1000
0000
0001
0000
1000
0100
1000
0000
,
0010
0000
0100
0000
0001
0010
0001
0000
,
0010
0000
0100
0000
1000
0010
1000
0000
,
0002
0000
0000
0000
,
0003
0000
0000
0000
0000
0000
0000
0000
00M0
00M0
00M0
00M0
00M0
00M0
00M0
0000
,
1000
0100
0001
0100
1000
0000
0001
0000
,
1000
0010
0001
0010
1000
0000
0001
1000
,
0001
0100
1000
0100
0001
0000
1000
0000
,
0001
0010
1000
0010
0001
1000
0001
0000
,
1000
0010
1000
0010
1000
0000
0001
0000
,
0010
0100
0010
0000
0001
0000
1000
0000
,
0001
0010
0001
0010
0001
0000
1000
0000
,
0010
0100
0010
0000
1000
0100
0010
0001
,
1000
0000
0010
0100
0001
0000
0010
0100
,
1000
0000
0001
0100
0001
1000
0100
1000
,
0001
0000
0100
0010
1000
0000
0100
0010
,
0001
0000
1000
0010
1000
0001
0010
0001
,
1000
0000
0010
0000
0100
0000
0001
0010
,
0001
0000
0100
0000
0010
0000
1000
0100
,
1000
0000
0100
0000
0010
0000
0001
0100
,
0001
1000
0010
0100
,
0001
0001
0000
1000
0010
1000
0010
0000
,
1000
1000
0000
0001
0010
0001
0100
0000
,
0001
0001
0000
1000
0100
1000
0100
0000
,
1000
1000
0000
0010
0100
0001
1000
0000
,
0010
0010
0000
1000
0100
0010
0001
0000
,
0010
0010
0000
0001
0010
0100
1000
0000
,
0002
0000
0000
0000
,
2000
0000
0000
0000
0000
0000
0000
0003
,
3001
0100
0001
0000
1000
0100
1000
0000
,
0001
0010
0011
0000
,
1000
0100
1000
0000
0001
0100
0001
0000
,
1000
0010
1010
0000
,
1000
0100
0010
0001
1000
0000
0001
0000
,
1000
0010
0100
0001
1000
0000
0001
0000
,
1000
0100
0010
0100
1000
0000
0001
0000
,
1001
0000
0000
0000
,
0001
0000
0100
0000
0010
1000
0010
0000
,
1000
0000
0100
0000
0010
0001
0010
0001
,
1000
0100
0010
0000
0001
0100
0010
0000
,
1000
0100
0010
0001
1000
0001
1000
0000
,
0010
0100
0001
0000
0010
0100
1000
0000
,
0001
0100
0001
1000
0100
0010
0001
1000
,
1001
0000
0000
0000
,
1001
0000
0000
0000
,
1000
0010
1000
0010
1000
0000
0001
0000
,
0010
0001
0010
0001
0010
0000
0100
0000
,
1000
0001
1000
0001
1000
0000
0010
0000
,
0100
0010
0100
0010
0100
0000
0001
0000
,
0100
0001
0100
0001
0100
0000
0001
0000
,
1000
0100
1000
0100
1000
0000
0001
0000
,
1000
0010
1000
0000
0001
0100
0010
1000
,
0000
0100
0010
0000
0001
0010
0001
0000
,
0010
0100
1000
0001
0100
0001
0100
0000
,
0001
0010
0001
0000
1000
0000
0100
0000
,
0010
0001
0100
0001
1000
0100
1000
0100
,
0010
0001
0010
0000
0001
1000
0001
0000
,
1000
0010
1000
0001
0100
0000
0001
0000
,
1000
0100
1000
0010
0100
0000
0001
0000
,
1000
0001
1000
0001
0100
0010
0100
0010
,
1000
0100
0010
0001
1000
0000
0000
0000
,
0001
0000
0010
0000
0001
0000
0010
0001
,
1000
0000
0010
0000
1000
0000
0010
1000
,
0001
0000
0100
0000
0001
0000
0100
0001
,
0101
0000
0000
1100
0000
0000
1001
0000
,
1010
0000
1000
0000
0010
0000
0100
0001
,
0101
0000
0100
0000
0001
0000
0010
0001
,
0011
0000
0000
0110
0000
0000
1000
0010
,
1010
0000
1000
0000
0001
0000
0010
0100
,
0110
0000
2002
0000
,
0000
0000
3003
0000
,
2000
0100
0000
0001
,
0000
0100
0000
3010
,
0002
0100
0000
1000
,
0000
0100
0000
0013
,
1000
0200
0000
0010
,
0000
0000
0001
0000
0000
0000
0010
0300
,
0100
1000
0010
0100
,
0001
0000
0001
0000
0001
0000
1000
0100
,
1000
0000
0100
0000
0010
0000
0001
0100
,
0001
0000
1000
0000
0010
0000
1000
0100
,
1000
0000
0001
0000
0010
0000
0001
0100
,
0001
0000
1000
0000
0001
0000
1000
0001
,
1000
0000
0100
0000
0010
0000
0100
0010
,
0100
0000
0010
0000
1000
0000
0001
0100
,
0001
0000
1000
0000
0010
0000
0100
0010
,
0100
0000
0010
0000
1000
0010
0100
0001
,
1000
0100
1000
0001
0100
0010
1000
0100
,
0010
0000
0001
0100
0010
0000
1000
0010
,
1000
0001
0100
0010
1000
0100
0010
0001
,
1000
0001
1000
0001
0100
0001
0010
0000
,
0001
0010
0100
1000
0001
0100
0010
0000
,
1000
0100
0010
0001
1000
0010
0100
0000
,
0001
0100
0001
1000
0100
1000
0001
0010
,
0001
1000
0010
1000
0001
1000
0001
0000
,
2002
0000
0000
0000
,
3003
0000
0000
0000
;

//--------------- dance-single - Evergreen ----------------
#NOTES:
     dance-single:
     Evergreen:
     Medium:
     15:
     0,0,0,0,0:
0000
0000
0000
0000
,
0000
0000
0000
0000
,
0000
0000
0000
0000
,
0000
0000
0000
0000
,
0000
0000
0000
0000
,
0000
0000
0000
0000
,
0000
0000
0000
0000
,
0000
0000
0000
0000
,
0000
0000
0000
0000
,
0000
0000
0000
0000
,
0000
0000
0000
0000
,
0000
0000
0000
0000
,
0000
0000
0000
0000
0000
0000
0000
0000
0MM0
0MM0
0MM0
0MM0
0MM0
0MM0
0MM0
0MM0
,
1MM0
0001
1000
0000
0001
1000
0001
0000
,
1000
0010
1000
0000
0001
0100
0001
0000
,
1000
0100
1000
0000
0001
0010
0001
0000
,
0100
0010
0100
0000
0001
0100
0001
1000
,
0100
0010
0001
0000
0100
0010
1000
0000
,
0010
0100
0001
0000
0010
0100
1000
0000
,
0001
0100
0010
0000
1000
0100
2000
0000
,
3100
0010
0001
0000
1000
0001
0200
0000
,
0301
0000
0000
0010
0000
0000
0001
0000
0000
0000
0010
0000
0001
0000
1000
0000
,
0010
0000
0000
1000
0000
0000
0001
0000
1000
0000
0100
0000
0010
0000
0001
0000
,
1000
0000
0100
0000
1000
0100
1000
0000
0000
0000
0000
0000
0001
0000
1000
0000
,
0001
0000
0100
0000
0001
0100
0001
0000
0000
0000
0000
0000
1000
0010
1000
0000
,
0001
0010
0100
1000
0001
0100
0001
1000
,
0100
0010
0001
1000
0100
1000
0001
0100
,
0020
1000
0230
0001
,
0310
1000
0010
1000
0001
0010
0001
1000
,
0002
0000
0000
0000
,
0003
0000
0000
0000
0000
0000
0000
0000
00M0
00M0
00M0
00M0
00M0
00M0
00M0
0000
,
1000
0100
0010
0001
1000
0010
0001
0000
,
1000
0100
0001
1000
0100
1000
0001
0000
,
0010
0100
1000
0001
1000
0100
0001
0000
,
1000
0010
0001
1000
0010
0100
0001
1000
,
0040
1000
0000
1030
0100
0010
0001
0000
,
0040
0001
0000
0031
0100
0010
1000
0000
,
0400
0001
0000
1000
0300
0010
0001
0000
,
1000
0000
0010
0000
1000
0000
0000
0000
0001
0000
0010
0000
0002
0003
2000
3000
,
0010
0100
0010
0100
0001
0010
0001
1000
,
0100
0010
0100
0010
0001
0100
0001
0000
,
0010
0100
0010
0100
1000
0010
1000
0001
,
0100
0010
0100
0010
1000
0100
1000
0000
,
0001
0100
0010
0000
1000
0100
0010
0000
,
0001
0010
1000
0000
0001
0100
1000
0000
,
0001
0100
0001
0000
1000
0100
1000
0000
,
0001
0010
1000
0000
0001
0100
1000
0000
,
0001
0010
0000
0001
0100
0010
1000
0000
,
0010
1000
0000
0001
1000
0100
0010
0100
,
1000
0001
0000
1000
0010
0100
0001
0000
,
0010
0001
0000
1000
0010
0100
0010
1000
,
0010
0010
0000
0100
0100
0001
1000
0100
,
0010
0010
0000
0100
0100
1000
0001
0100
,
0002
0000
0000
0000
,
2000
0000
0000
0000
0000
0000
0000
0003
,
3001
0100
0001
0000
0011
0000
0010
0001
,
2000
0010
3001
0000
,
1000
0100
1000
0000
1010
0000
0001
1000
,
0002
0000
0010
0000
1003
0000
0100
0010
,
0001
0000
0000
1000
0000
0000
0010
0000
1000
0000
0100
0000
0010
0000
0001
0000
,
1000
0000
0000
0001
0000
0000
0010
0000
0001
0000
0100
0000
0010
0000
1000
0000
,
0100
0010
0001
1000
0001
0100
0010
1000
,
0001
0000
0000
0000
,
1000
0000
0000
0100
0000
0000
0010
0000
0002
0000
0000
0000
0013
0000
0000
0000
,
0001
0000
0000
0100
0000
0000
0010
0000
2000
0000
0000
0000
3010
0000
1000
0000
,
0001
0000
0000
0100
0000
0000
0001
0000
0010
0000
0001
0000
1000
0000
0100
0000
,
0010
0000
0001
0000
1000
0000
0010
0000
0100
0000
0001
0000
1000
0000
0010
1000
,
0010
0000
0000
1000
0000
0000
0100
0000
0000
0010
0000
0000
0001
0000
0010
0000
,
0001
0100
0010
0000
1000
0100
0010
0001
,
1001
0000
0000
0000
,
1001
0000
0000
0000
,
0010
1000
0010
1000
0010
0001
0010
0001
,
0010
1000
0001
0010
0100
1000
0001
1000
,
0100
0001
0100
0001
0100
1000
0100
1000
,
0100
0001
1000
0010
0100
0001
1000
0100
,
1000
0010
0001
0010
1000
0100
0001
0100
,
1000
0100
0010
0001
1000
0010
0100
0001
,
1000
0001
1000
0000
0001
1000
0001
0010
,
0000
0010
0001
0000
0001
0010
0100
0000
,
1000
0000
0000
0010
0000
0000
0100
0000
0010
0000
1000
0000
0001
0000
0100
0000
,
0001
0000
0000
0010
0000
0000
0100
0000
0010
0000
0001
0000
1000
0000
0100
0000
,
1000
0000
0010
0000
0100
0000
0000
0001
0000
1000
0000
0100
0000
0000
0010
0000
,
0001
0000
1000
0000
0010
0000
0000
1000
0000
0001
0000
0010
0000
0000
0001
0000
,
1000
0000
0100
0000
0010
0000
0001
0000
1000
0000
0010
0000
0100
0001
0100
0000
,
0001
0000
0100
0000
0010
0000
1000
0000
0001
0000
0010
0000
0100
1000
0100
0000
,
0010
0000
0000
0001
0000
1000
0000
0010
0000
0000
0100
0000
0001
0000
1000
0000
,
0001
0010
0001
1000
0010
0000
0000
0000
,
1010
0000
1010
0000
1010
0000
0001
0010
,
0011
0000
0011
0000
0011
0000
0001
1000
,
1001
0000
1001
0000
1001
0000
0010
0100
,
0110
0000
0000
0110
0000
0000
0110
0000
,
1100
0000
1100
0000
1100
0000
0001
0100
,
0101
0000
0101
0000
0101
0000
1000
0001
,
1001
0000
0000
1001
0000
0000
1001
0000
,
0110
0110
1001
1010
,
0011
0000
2200
0000
,
0000
0000
0000
3300
,
0010
0200
0000
0000
0000
0000
0000
0000
,
0301
0000
1000
0000
0100
0000
0010
0001
,
0010
0200
0000
0000
0000
0000
0000
0000
,
1300
0000
0010
0000
0100
0000
0001
0100
,
0001
2000
0000
0000
0000
0000
0000
0000
,
3000
0000
0100
0000
0010
0000
0001
1000
,
0001
0010
0001
1000
0010
0100
0001
0000
,
1000
0100
1000
0000
0001
0100
0001
0001
,
1000
0010
0100
0001
1000
0100
0010
0000
,
0001
0100
0010
1000
0001
0010
0100
0000
,
1000
0100
0010
0001
1000
0100
1000
0000
,
0001
0100
0010
1000
0001
0100
0001
0000
,
1000
0010
0100
0010
1000
0001
0100
0000
,
0001
0010
0100
0010
0001
1000
0100
0000
,
1000
0100
0010
0001
1000
0010
0100
0000
,
0001
0010
0100
1000
0001
0100
0010
0010
,
1000
0100
0010
0001
1000
0010
0100
0001
,
1000
0100
1000
0001
0010
0100
1000
0001
,
0100
0001
1000
0010
0100
0010
1000
0001
,
0100
0001
1000
0100
0010
0001
1000
0010
,
0100
0001
1000
0100
1000
0001
0100
0010
,
1000
0001
0100
0001
1000
0100
1000
0001
,
0010
0100
1000
0001
0100
0010
1000
0100
,
0010
0001
0010
0100
1000
0001
1000
0000
,
2002
0000
0000
0000
,
3003
0000
0000
0000
;

//--------------- dance-single - Evergreen ----------------
#NOTES:
     dance-single:
     Evergreen:
     Hard:
     18:
     0,0,0,0,0:
0000
0000
0000
0000
,
0000
0000
0000
0000
,
0000
0000
0000
0000
,
0000
0000
0000
0000
,
0000
0000
0000
0000
,
0000
0000
0000
0000
,
0000
0000
0000
0000
,
0000
0000
0000
0000
,
0000
0000
0000
0000
,
0000
0000
0000
0000
,
0000
0000
0000
0000
,
0000
0000
0000
0000
,
0000
0000
0000
0000
0000
0000
0000
0000
0MM0
0MM0
0MM0
0MM0
0MM0
0MM0
0MM0
0MM0
,
1MM0
0010
1000
0010
0100
0001
0100
0001
,
0010
0001
0010
0001
1000
0100
1000
0100
,
1000
0010
0100
0001
1000
0100
0010
0001
,
1000
0100
1000
0001
0100
0001
1000
0010
,
1000
0001
0010
0001
1000
0100
0010
0001
,
0010
0100
1000
0001
0100
0010
1000
0010
,
0100
0001
1000
0100
0010
0001
0200
0000
,
0301
0100
0010
1000
0001
1000
0002
0000
,
1003
0000
0010
1000
0001
0000
0010
0001
0000
0001
0100
0000
0010
0000
1000
0000
,
0001
0000
1000
0010
0000
1000
0100
0000
1000
0001
1000
0000
0001
0000
0100
0000
,
0001
0000
0100
0010
0000
1000
0100
0000
0010
0001
0010
0000
0001
0000
1000
0010
,
0100
0000
0010
0100
0000
0001
0000
0010
0100
0000
1000
0001
1000
0000
0001
1000
,
0001
0000
0100
0000
0001
0000
0100
0010
2000
0000
0010
0000
3001
0000
0010
0001
,
0010
0000
0100
0000
1000
0000
0010
0100
0002
0000
0010
0000
1003
0000
0010
0000
,
0100
0001
0100
0000
0001
0000
1000
0000
0100
1000
0100
0000
1000
0000
0001
0000
,
0010
0001
0010
0000
0100
1000
0100
0000
1000
0010
1000
0000
0001
0100
0001
0000
,
1000
0100
1000
0001
0010
0001
1000
0010
1000
0001
0100
0001
,
1000
0000
0020
0000
,
1030
0010
1000
0000
0001
0000
0010
0001
0010
0000
0001
0000
1000
0100
1000
0000
,
0010
0100
0010
0000
0100
0000
0001
0100
0001
0000
1000
0000
0001
0010
0001
0000
,
1000
0010
0100
0001
1000
0000
0001
0000
1000
0100
0010
0001
1000
0000
0001
0000
,
1000
0010
1000
0000
0001
0000
1000
0100
1000
0000
0001
0000
0010
0001
0010
0001
,
1000
0010
0100
0010
1000
0000
0001
0000
1000
0100
0010
0000
0001
0000
0010
0000
,
0001
0010
0001
0000
1000
0000
0010
0000
1000
0010
1000
0000
0010
0000
1000
0000
,
0001
0010
0100
0010
0001
0000
1000
0000
0001
0100
0010
1000
0001
0000
1000
0000
,
0100
0010
0001
1000
0010
0100
0001
1000
0001
0000
1000
0000
0200
0300
0020
0030
,
0001
1000
0100
0010
0001
1000
0010
0100
0001
0000
1000
0000
0100
0000
0010
0000
,
0001
1000
0010
0100
0001
0010
0001
1000
0010
0000
0100
0000
0001
0000
1000
0100
,
1000
0001
0100
0010
1000
0100
0010
0001
1000
0000
0010
0000
0100
0000
0001
0010
,
0001
0000
1000
0010
0000
0000
0100
0000
0001
0000
0010
0001
0000
0000
1000
0000
,
0010
0000
1000
0010
0100
0000
0001
0000
0010
0000
0001
0010
0100
0000
1000
0000
,
0100
0000
1000
0100
0010
0000
0001
0000
0100
0000
0001
0100
0010
0000
1000
0000
,
0001
0000
1000
0001
1000
0000
0010
0000
0100
0000
0010
0100
0010
0000
1000
0000
,
0100
0000
0010
0001
1000
0000
0001
0000
0100
0000
0010
1000
0001
1000
0001
1000
,
0001
0000
0100
0000
0010
0000
1000
0000
0100
0000
0010
0000
0001
0010
0001
0010
,
0001
0000
0010
0000
0100
0000
1000
0000
0001
0000
0100
0000
0010
1000
0010
1000
,
0010
0000
1000
0000
0100
0000
1000
0000
0001
0000
0100
0000
0001
0100
0001
0100
,
0001
0000
0010
0000
0100
0000
1000
0000
0001
0000
1000
0000
0100
1000
0100
1000
,
0100
0000
1000
0000
0010
0000
0100
0000
0001
0000
1000
0000
0001
1000
0001
1000
,
0001
1000
0100
0010
0001
0100
0010
1000
,
0001
0000
0000
0000
0000
0000
0000
0000
0000
0000
0000
0000
0000
0000
0000
0000
0000
0000
0000
0000
0000
0000
0000
0000
0010
0000
0000
0000
0000
0000
0000
0000
0000
0000
0000
0000
0000
0000
0000
0000
0000
0000
0100
0000
0000
0000
0000
0000
0000
0000
0000
0000
0000
1000
0000
0000
0000
0000
0000
0000
0000
0000
0000
0000
0001
0000
0000
0000
0000
0000
0000
0000
0100
0000
0000
0000
0000
0000
0000
0000
0010
0000
0000
0000
0000
0000
0000
0000
1000
0000
0000
0000
0000
0000
0000
0000
,
0004
4000
0000
0000
0000
0000
0000
0000
0000
0000
0000
0000
0000
0000
0003
0000
,
3001
0000
0100
0000
0010
0000
1000
0100
1000
0000
0001
0000
0010
0000
0001
0000
,
2000
0010
3001
0000
0010
0001
0010
0000
,
0002
0000
0010
0000
1003
0000
0010
1000
0010
0000
0100
0000
0001
0010
0001
0010
,
0001
0000
1000
0100
1000
0000
0001
0000
1000
0100
0010
0001
1000
0000
0001
0000
,
0100
0000
0001
0010
0000
0001
1000
0000
0010
1000
0010
0000
1000
0000
0100
0000
,
0010
0000
0001
0100
0000
0001
1000
0000
0010
1000
0010
1000
0001
0000
0010
0001
,
0010
0000
0001
1000
0000
0001
0100
0000
0010
0000
1000
0000
0100
0010
0001
1000
,
0001
0000
1000
0000
0001
0000
4000
0000
0000
0000
0000
0000
,
3001
0000
0000
0010
0000
0000
0100
0000
1000
0100
1000
0000
0010
0000
0100
0000
,
0001
0000
0000
1000
0000
0000
0001
0000
0100
0010
0100
0000
0001
0010
0001
0010
,
0001
1000
0000
0010
0000
0100
0000
0001
0000
0000
1000
0100
0010
0001
0000
1000
,
0001
0100
0010
1000
0020
0000
0130
0001
0100
0000
0100
0000
0010
0000
0010
1000
,
0010
0000
0000
1000
0000
0000
0100
0000
0000
0010
0000
0000
0001
0010
0001
0000
,
1000
0010
0000
0100
0001
0000
1000
0100
0000
0010
0001
0000
1000
0010
0100
0001
,
0200
0300
0000
0000
0000
0000
0000
0000
,
0010
1000
0020
0000
0030
0000
0000
0000
0000
0000
0000
0000
0000
0000
0000
0000
,
1000
0100
1000
0000
0001
0010
0001
0000
1000
0100
1000
0000
0001
0010
0001
0000
,
1000
0100
0010
0001
1000
0000
0001
0000
1000
0010
0100
0010
1000
0000
0001
0000
,
1000
0100
0010
0001
0010
0000
0001
0000
1000
0010
0100
0001
0010
0000
0001
0000
,
0100
0001
0100
0000
0010
1000
0010
0000
0100
0001
0100
0000
0010
1000
0010
0000
,
0100
0001
0010
0100
1000
0000
0001
0000
0010
0001
0100
0010
1000
0000
0010
0000
,
0100
0001
1000
0000
0100
1000
0001
0000
0010
0001
1000
0000
0010
1000
0001
0000
,
1000
0000
0001
0100
0001
0000
1000
0000
0001
0010
0001
0000
1000
0000
0001
0000
,
1000
0010
1000
0000
0001
0000
1000
0100
1000
0000
0001
1000
0200
0000
0000
0000
,
1300
0010
0100
0001
1000
0000
0001
0000
1000
0100
0010
0001
1000
0000
0001
0000
,
1000
0100
0010
0001
0010
0100
1000
0000
0001
0000
0100
0001
0100
0000
0010
0000
,
1000
0010
0100
0001
1000
0000
0100
0000
0010
0001
1000
0010
0100
0000
0001
0000
,
1000
0100
0010
0001
1000
0100
1000
0001
0010
0100
1000
0001
1000
0000
0010
0000
,
0100
0000
0001
0010
0000
0001
0000
1000
0010
1000
0001
0000
0010
0001
1000
0000
,
0100
0010
0001
0010
0100
0000
1000
0000
0010
0100
0001
0100
0010
0000
1000
0000
,
0001
0010
0000
0100
0000
1000
0000
0001
0100
0001
1000
0100
1000
0000
0001
0000
,
0010
0001
0010
0001
1000
0010
1000
0010
2000
0000
0000
0000
3000
0000
0000
0000
,
1010
1010
1001
1001
,
0011
0000
0011
0000
1001
0000
1001
1001
,
1100
1100
0110
0110
,
0101
0000
0000
1100
0000
0000
0101
0000
,
1001
1001
0110
0110
,
1010
1010
0101
0101
,
0011
0000
0000
0000
0000
0000
1100
0000
0000
0101
0000
0000
1001
0000
0000
0000
,
1010
0101
0011
1100
,
1001
0000
2002
0000
,
0000
0000
0000
3003
,
1000
0100
0020
0000
0000
0000
0000
0000
0001
0000
0000
0000
0031
0000
0000
0000
,
0001
1000
0010
0100
0001
1000
0001
0010
,
0001
0100
0020
0000
0000
0000
0000
0000
1000
0000
0000
0000
1030
0000
0000
0000
,
1000
0100
0010
0001
1000
0010
0100
0001
,
1000
0001
2000
0000
0000
0000
0000
0000
0001
0000
0000
0000
3001
0000
0000
0000
,
0001
0000
0010
0000
0100
0000
1000
0000
0001
0100
0001
0000
1000
0000
0001
0000
,
1000
0000
0100
0000
0010
0000
0001
0000
1000
0100
1000
0000
0001
0000
1000
0000
,
0001
0100
0001
1000
0001
0100
0010
0000
,
1000
0000
0010
0000
0100
0001
0010
0000
0100
0000
1000
0000
0001
0100
0001
0000
,
1000
0000
0100
0000
1000
0100
1000
0001
0100
0000
0001
0010
0001
0000
1000
0010
,
1000
0000
0001
0000
0010
0100
0010
0000
0001
0000
0100
0000
0010
0100
0010
0000
,
0100
0000
0001
0000
1000
0100
1000
0001
0100
0010
1000
0001
0010
0000
0100
1000
,
0100
0000
1000
0000
0100
0010
0100
0000
1000
0000
0001
0000
0100
0010
0100
0000
,
0001
0000
0100
0010
0000
1000
0001
0000
0010
0001
0010
0000
0100
1000
0010
1000
,
0001
0100
0010
1000
0001
0010
0100
1000
,
0001
0100
0010
1000
0001
0010
0100
1000
0001
0100
0001
1000
0100
0000
1000
0100
,
0010
0001
0100
0010
1000
0000
0001
0100
0010
1000
0100
0010
0001
0000
1000
0100
,
0010
0001
0100
0001
1000
0000
0001
0100
0010
1000
0100
1000
0001
0000
0100
0010
,
1000
0010
0100
0001
1000
0000
0100
0010
0001
0010
0100
1000
0001
0000
1000
0000
,
0001
0000
0100
0000
0010
0000
1000
0000
0100
0000
0010
0000
0001
0000
0100
0000
0010
0000
1000
0000
0000
0001
0000
0000
,
1000
0001
0100
0010
1000
0001
0100
0001
1000
0100
0010
0001
1000
0100
1000
0001
,
0100
0010
1000
0100
0010
0001
1000
0010
1000
0001
0100
0010
1000
0010
0100
0001
,
1000
0100
1000
0001
0010
0100
1000
0001
0010
0001
1000
0100
1000
0010
0100
0001
,
0010
0001
1000
0010
0100
0001
1000
0100
1000
0001
0100
0001
1000
0000
0000
0000
,
2002
0000
0000
0000
,
3003
0000
0000
0000
;

//--------------- dance-single - Evergreen ----------------
#NOTES:
     dance-single:
     Evergreen:
     Challenge:
     19:
     0,0,0,0,0:
0000
0000
0000
0000
,
0000
0000
0000
0000
,
0000
0000
0000
0000
,
0000
0000
0000
0000
,
0000
0000
0000
0000
,
0000
0000
0000
1000
,
0010
0100
0001
1000
,
0100
0010
0001
1000
,
0100
1000
0001
0100
,
0001
1000
0010
0100
,
0001
0010
0100
1000
,
0001
0100
0001
1000
,
0100
1000
0020
0000
,
1030
0010
0100
0001
0100
0010
1000
0100
,
0010
0001
0010
0100
1000
0001
0010
0001
,
1000
0010
0100
0010
1000
0001
0100
0010
,
1000
0100
0010
0001
1000
0100
1000
0001
,
0100
0010
1000
0100
0010
0001
1000
0100
,
1000
0001
0100
0010
1000
0001
0100
0001
,
1000
0000
0100
0000
0010
0000
0001
0000
1000
0000
0001
0000
0100
0001
0100
0001
,
0010
0000
0100
0000
1000
0000
0001
0100
0001
0000
1000
0000
0100
1000
0100
1000
,
0010
0000
0100
0001
0010
0000
0001
1000
0010
1000
0100
0000
0001
0000
0100
0000
,
1000
0000
0010
1000
0000
0001
0010
0000
0001
1000
0010
0000
0001
0000
0010
0000
,
1000
0000
0100
0010
0000
0001
0000
1000
0010
0100
0001
1000
0100
0010
0001
1000
,
0001
0000
0010
0100
0000
1000
0000
0010
0100
0001
1000
0100
0010
0001
1000
0010
,
0100
0000
0001
0000
1000
0000
0100
0010
0002
0000
0010
0000
1003
0000
0010
1000
,
0010
0000
0100
0000
0001
0000
0010
0100
2000
0000
0010
0000
3001
0000
0010
0000
,
0100
1000
0100
0000
1000
0000
0001
0000
0100
0001
0100
0000
0001
0000
1000
0000
,
0010
1000
0010
1000
0001
0100
0001
0100
0001
0010
0001
0010
0100
1000
0100
1000
,
0001
0010
0100
1000
0010
0100
0001
0010
0100
1000
0010
0100
,
0001
0000
0020
0000
,
0130
1000
0100
0000
1000
0000
0010
0100
0001
0000
1000
0000
0001
0100
0010
0000
,
1000
0000
0001
0000
1000
0000
0100
0000
0010
0001
0010
0100
1000
0000
0010
0000
,
1000
0010
1000
0001
0010
0100
1000
0001
0100
0010
1000
0001
0010
0000
0100
0010
,
0100
0000
1000
0000
0010
0100
0010
0000
1000
0000
0001
0010
0001
0000
1000
0010
,
1000
0001
0010
0100
1000
0001
0010
0001
1000
0000
0010
0000
1000
0100
0010
0001
,
0010
0000
0001
0010
0100
1000
0010
0000
1000
0001
1000
0001
0010
0000
0001
1000
,
0010
1000
0010
0100
0001
0100
0001
0000
1000
0001
1000
0000
0100
1000
0100
0000
,
1000
0000
0010
0100
0001
1000
0100
0010
0000
0100
0000
1000
0002
0003
2000
3000
,
0010
1000
0001
0100
0001
0010
0001
1000
0000
0100
0000
0010
0001
0010
0100
1000
,
0001
0100
0001
1000
0010
1000
0001
0100
0000
0010
0000
0100
0001
1000
0100
0010
,
0001
1000
0010
0000
0100
0001
1000
0100
1000
0001
1000
0000
0010
1000
0001
0100
,
0001
1000
0001
0000
0100
0001
0010
0100
1000
0100
1000
0100
0010
0001
0010
0001
,
1000
0010
0100
0000
0001
0000
0010
0100
1000
0000
0010
0100
0001
0000
1000
0010
,
1000
0000
0001
0010
0001
0000
1000
0100
1000
0000
0001
0100
0001
0000
1000
0100
,
0010
0000
0100
0010
0001
0000
1000
0010
0100
0000
0010
0100
0001
0000
0100
0010
,
1000
0000
0001
0010
0100
0000
1000
0010
0100
0000
0001
0000
1000
0100
1000
0100
,
0010
0000
0001
0000
1000
0000
0010
0000
0001
0000
0010
0000
0100
0010
0100
0010
,
0100
0000
0001
0000
1000
0000
0100
0000
0001
0000
0100
0000
0010
0100
0010
0100
,
1000
0000
0001
0000
0100
0000
1000
0000
0100
0000
0001
0000
1000
0010
1000
0010
,
1000
0000
0001
0000
0010
0000
1000
0000
0010
0000
0001
0000
0010
0001
0010
0001
,
1000
0000
0001
0000
0100
0000
0010
0000
1000
0000
0010
0000
0100
0001
0100
0001
,
0100
0000
0001
0000
0010
0000
0100
0000
1000
0000
0100
0000
1000
0100
1000
0100
,
1000
0000
0000
0000
0000
0000
0000
0000
0000
0000
0000
0000
0000
0000
0000
0000
0000
0000
0000
0000
0000
0000
0000
0000
0100
0000
0000
0000
0000
0000
0000
0000
0000
0000
0000
0000
0000
0000
0000
0000
0000
0000
0010
0000
0000
0000
0000
0000
0000
0000
0000
0000
0000
0001
0000
0000
0000
0000
0000
0000
0000
0000
0000
0000
1000
0000
0000
0000
0000
0000
0000
0000
0010
0000
0000
0000
0000
0000
0000
0000
0100
0000
0000
0000
0000
0000
0000
0000
0001
0000
0000
0000
0000
0000
0000
0000
,
1000
0001
1000
0001
1000
0001
1000
0001
1000
0001
1000
0001
1000
0001
1000
0001
,
1000
0000
0010
0000
0100
0000
0001
0000
0010
0000
0100
0000
1000
0010
1000
0001
,
0100
0000
0002
0000
0010
0000
0000
0000
1003
0000
0010
0000
1000
0100
1000
0001
,
0010
0000
0001
0100
0000
0010
0000
1000
0001
0010
0001
0010
0100
1000
0100
1000
,
0010
0000
1000
0000
0001
0100
0001
0000
1000
0000
0100
0000
0010
0001
0010
0001
,
1000
0000
0010
1000
0010
1000
0000
0001
0100
0010
1000
0000
0001
0010
0100
1000
,
0100
0000
0010
0001
0000
1000
0000
0010
0100
0001
1000
0100
0010
0001
1000
0001
,
0100
0010
0100
0000
0001
1000
0001
1000
0100
0010
0100
0010
0001
1000
0001
1000
,
0001
0000
1000
0000
0001
0000
0400
0000
0000
0000
0000
0000
,
0301
0000
0000
0000
0000
0000
0010
0000
0000
0100
0000
0000
0000
0000
0000
1000
0000
0000
0010
0000
0000
0000
0000
0000
0100
0000
0001
0000
0100
0000
0001
0000
0100
0000
0001
0000
0010
0000
0000
0000
0000
0000
0100
0000
0000
1000
0000
0000
,
0001
0000
0000
0000
0000
0000
1000
0000
0000
0001
0000
0000
0000
0000
0000
0010
0000
0000
0001
0000
0000
0000
0000
0000
1000
0000
0100
0000
1000
0000
0100
0000
1000
0000
0100
0000
0010
0000
0000
0000
0000
0000
0001
0000
0000
1000
0000
0000
,
0100
1000
0001
0000
0000
0100
0000
0001
0000
0000
0010
0100
1000
0001
0000
1000
,
0010
0000
0000
0100
0000
0000
0001
0000
0000
1000
0000
0000
0001
0000
0100
0000
0001
0000
1000
0000
0000
0100
0000
0000
0010
0000
0000
0000
0000
0000
0010
0000
0000
0000
0000
0000
0001
0000
0000
0000
0000
0000
0001
0000
0000
0010
0000
0000
,
0001
0000
0000
1000
0000
0000
0010
0000
0000
0100
0000
0000
0001
0000
1000
0000
,
0001
0010
0000
0100
1000
0000
0001
0100
0000
0010
1000
0000
0001
0100
0001
0000
,
0101
0000
0000
0000
,
1100
1000
0100
0000
0000
0000
0000
0000
0020
0000
0000
0000
0000
0000
0000
0000
,
0031
0100
0010
0000
0001
0100
0010
0000
0001
0100
0010
0000
0001
0100
0010
0000
,
0001
1000
0010
1000
0100
0010
0001
0000
1000
0100
0010
0100
1000
0000
0001
0100
,
0001
0010
0100
0000
1000
0000
0010
1000
0100
0010
0001
0000
0100
0000
0010
0000
,
1000
0100
0010
0000
1000
0100
0010
0000
1000
0100
0010
0000
1000
0100
0010
0000
,
1000
0000
0001
1000
0010
0000
1000
0001
0100
0000
0001
0010
0100
1000
0010
0100
,
0001
1000
0100
1000
0001
0000
0100
0000
0001
1000
0010
1000
0001
0000
1000
0000
,
0010
0000
0100
1000
0100
0000
0001
0000
1000
0000
0100
0000
1000
0000
0001
0000
,
0010
0000
0100
0001
0100
0000
1000
0000
0001
0000
0100
0010
2000
0000
0000
0000
,
3010
0000
0100
0001
0000
0001
1000
0000
0001
0010
0001
1000
0010
1000
0001
0100
,
0010
0000
1000
0001
0000
0001
0010
0000
0100
1000
0010
0100
0001
0010
0001
1000
,
0100
1000
0001
0100
0010
1000
0001
0010
0000
0100
0000
1000
0001
0100
0001
0100
,
0010
1000
0001
0010
0100
1000
0001
0000
0010
0001
1000
0010
0100
0001
1000
0100
,
1000
0000
0010
0000
1000
0010
1000
0000
0001
0100
0010
1000
0001
0100
0010
0000
,
1000
0100
0010
0001
1000
0100
0010
0000
0001
0010
0001
1000
0010
1000
0001
0100
,
0010
1000
0100
0000
0010
0000
0001
0010
0000
0001
0010
0001
1000
0010
0100
0001
,
1000
0100
0010
0001
1000
0010
0100
0010
2000
0000
0000
0000
3000
0000
0000
0000
,
1010
1001
0011
1001
,
1100
0000
1001
0000
0011
0000
0101
0110
,
1010
1001
0110
1001
,
1010
0000
0000
0101
0000
0000
0011
0000
,
1100
1010
0101
0011
,
0110
0000
1001
0000
0110
0000
1001
0110
,
1001
0000
0000
0000
0000
0000
1100
0000
0000
0110
0000
0000
0101
0000
0000
0000
,
0110
1010
0101
0011
,
1001
0000
2002
0000
,
0000
0000
0000
3003
,
0001
0010
0200
0000
1000
0000
0000
0000
0001
0000
0000
0000
1300
0000
0000
0000
,
0010
1000
0010
0000
0100
0001
0100
0000
0001
0010
0001
0000
1000
0100
1000
0000
,
0010
0100
0020
0000
1000
0000
0000
0000
0001
0000
0000
0000
1030
0000
0000
0000
,
0001
0010
0001
0000
1000
0010
1000
0000
0001
0100
0001
0000
1000
0000
0100
0000
,
0010
0001
0020
0000
0001
0000
0000
0000
1000
0000
0000
0000
0031
0000
0000
0000
,
0010
0001
1000
0000
0010
1000
0001
0000
0100
0001
1000
0000
0100
1000
0001
0000
,
1000
0100
0010
0001
1000
0010
0010
0000
,
1010
0000
1000
0000
1001
0000
0001
0000
0101
0000
0100
0000
0001
1000
0100
0010
,
0001
1000
0010
0100
0001
0000
0010
0000
0100
0000
1000
0100
0010
0001
1000
0000
,
0010
0100
0001
1000
0001
0000
1000
0000
0100
0000
0010
0100
1000
0001
1000
0000
,
0001
0000
0100
0010
1000
0100
0010
0000
0001
0000
0100
0010
1000
0001
1000
0000
,
0001
0010
0001
1000
0001
0100
0010
1000
0001
1000
0100
1000
0010
0100
0001
1000
,
0001
0000
0010
0001
0010
0000
0001
0000
1000
0010
0100
0001
1000
0000
0010
0000
,
0100
0000
0001
0010
0000
0001
1000
0000
0010
0000
0100
0001
1000
0100
0010
0001
,
1000
0000
0001
0100
0010
1000
0001
0000
1000
0000
0100
0010
0001
1000
0010
0100
,
0001
0010
0001
1000
0010
1000
0001
0100
0001
1000
0100
1000
0001
0000
0010
0000
,
0100
1000
0001
1000
0010
0100
0001
0010
0001
1000
0100
0010
0001
0100
0010
1000
,
0001
0010
0001
1000
0010
0100
0001
1000
0100
1000
0001
0100
0010
1000
0001
0010
,
0100
1000
0001
0100
0010
1000
0001
1000
0100
0010
0001
0100
0010
1000
0001
0010
,
0001
1000
0010
0100
0001
1000
0010
1000
0001
0010
0100
1000
0001
0100
0010
0100
,
0001
1000
0100
0010
0001
1000
0100
1000
0001
0100
0010
1000
0001
0100
0001
1000
,
0100
0010
0001
0100
0010
1000
0001
0010
0001
1000
0100
0010
0001
0100
0010
1000
,
0001
0100
0001
1000
0010
0100
0001
1000
0010
1000
0001
0010
0100
1000
0001
0100
,
0010
1000
0001
0010
0100
1000
0001
0100
0001
1000
0100
1000
0001
0000
0000
0000
,
2002
0000
0000
0000
,
3003
0000
0000
0000
;

//--------------- dance-single - last green ----------------
#NOTES:
     dance-single:
     last green:
     Edit:
     21:
     0,0,0,0,0:
0000
0000
0000
0000
,
0000
0000
0000
0000
,
0000
0000
0000
0000
,
0000
0000
0000
0000
,
0000
0000
0000
0000
,
0000
0000
0000
0000
,
0000
0000
0000
0000
,
0000
0000
0000
0000
,
0000
0000
0000
0000
,
0000
0000
0000
0000
,
0000
0000
0000
0000
,
0000
0000
0000
0000
,
0000
0000
0000
0000
,
1000
0100
0010
0001
1000
0010
1000
0001
0010
0100
1000
0001
0010
0001
1000
0010
,
0100
0001
0010
0100
1000
0010
0100
0001
1000
0100
1000
0001
0010
0100
1000
0001
,
0100
0001
1000
0010
0100
0001
1000
0100
0010
0001
1000
0100
1000
0001
0100
0001
,
1000
0010
0100
0001
1000
0100
0010
0100
1000
0001
0100
0010
1000
0001
0100
0001
,
1000
0100
0010
0001
1000
0010
0100
0001
1000
0100
1000
0001
0100
0001
0010
0100
,
1000
0010
0100
0001
1000
0100
0010
0001
1000
0010
1000
0001
0010
0100
1000
0010
,
0100
0001
1000
0100
0010
0001
1000
0010
0100
0010
1000
0100
0010
0001
0010
0001
,
0010
0100
1000
0001
0100
0010
1000
0100
0010
0001
0100
0001
1000
0010
1000
0010
,
1000
0001
0100
0001
0010
0100
1000
0001
0100
0001
1000
0100
0010
0001
1000
0001
,
0010
0001
1000
0010
0100
0001
1000
0100
1000
0010
1000
0001
0010
0100
1000
0001
,
0100
0001
1000
0010
0100
0001
1000
0100
1000
0001
0010
0100
1000
0001
1000
0010
,
0100
0001
1000
0100
0010
0001
1000
0001
0100
0010
0100
0001
1000
0100
0010
0001
,
1000
0010
0100
0001
1000
0100
0010
0100
1000
0001
0010
0001
1000
0010
1000
0001
,
0010
0100
1000
0001
0010
0001
1000
0010
0100
0001
1000
0010
1000
0001
0010
0001
,
1000
0100
0010
0001
1000
0010
0100
0001
0100
0010
1000
0100
1000
0001
0010
0100
,
1000
0010
0100
0001
1000
0100
1000
0001
0100
0001
1000
0100
0010
0001
1000
0010
,
0100
0001
1000
0100
0010
0001
1000
0010
0100
0001
1000
0001
,
1000
0000
0000
0000
,
0001
0010
0001
0010
0001
1000
0001
1000
0010
0100
0001
1000
0100
1000
0001
0100
,
0010
1000
0010
1000
0001
1000
0001
1000
0001
0010
0100
1000
0010
0100
0001
1000
,
0100
1000
0100
1000
0001
1000
0001
0100
0001
0010
0100
1000
0001
0010
0001
1000
,
0001
1000
0001
1000
0001
0100
0001
0100
0001
0010
0100
1000
0001
0100
0010
1000
,
0001
0010
0001
0010
0001
1000
0010
1000
0010
0100
0001
1000
0100
0010
0001
1000
,
0010
0100
0001
1000
0100
1000
0001
0100
0010
1000
0100
0010
0001
1000
0010
1000
,
0001
0010
0001
0010
0001
1000
0010
0100
0001
1000
0100
1000
0010
0100
0001
1000
,
0100
0010
0100
1000
0001
1000
0010
0100
0001
1000
0001
0010
0100
1000
0001
1000
,
0001
0100
0010
0100
0001
1000
0100
0010
0001
1000
0010
0100
0001
0010
0001
1000
,
0010
1000
0001
0010
0100
1000
0001
1000
0010
0100
0001
1000
0100
0010
0100
1000
,
0001
1000
0010
0100
0001
1000
0100
0010
0001
0100
0001
1000
0100
1000
0001
0100
,
0010
1000
0001
0010
0100
1000
0001
1000
0010
0100
0001
1000
0100
1000
0001
0100
,
0001
0010
0100
1000
0010
0100
0001
1000
0001
0100
0010
1000
0100
0010
0001
1000
,
0001
0010
0100
1000
0001
1000
0010
0100
0001
0010
0100
1000
0001
1000
0100
0010
,
0001
1000
0010
1000
0001
0010
0001
1000
0010
0100
0001
1000
0100
1000
0001
0100
,
0001
1000
0010
0100
0001
1000
0100
0010
0001
1000
0100
1000
0001
0100
0001
0100
,
0001
0010
0100
1000
0001
1000
0100
0010
0001
1000
0010
1000
0001
0010
0001
0010
,
0001
1000
0001
0100
0010
1000
0001
0100
0001
1000
0100
0010
0001
0100
0001
1000
,
0100
0010
0001
1000
0001
0100
0010
1000
0001
0010
0001
1000
0010
1000
0010
1000
,
0001
1000
0100
0010
0001
1000
0100
1000
0001
0100
0010
1000
0100
1000
0001
0010
,
0001
1000
0010
0100
0001
1000
0100
1000
0001
0100
0010
0100
0001
1000
0001
1000
,
0001
0010
0100
1000
0001
0100
0001
1000
0100
0010
0001
1000
0010
1000
0001
0010
,
0001
0000
0000
0000
0000
0000
0000
0000
0000
0000
0000
0000
0000
0000
0000
0000
0000
0000
0000
0000
0000
0000
0000
0000
1000
0000
0000
0000
0000
0000
0000
0000
0000
0000
0000
0000
0000
0000
0000
0000
0000
0000
0001
0000
0000
0000
0000
0000
0000
0000
0000
0000
0000
1000
0000
0000
0000
0000
0000
0000
0000
0000
0000
0000
0001
0000
0000
0000
0000
0000
0000
0000
0010
0000
0000
0000
0000
0000
0000
0000
0100
0000
0000
0000
0000
0000
0000
0000
1000
0000
0000
0000
0000
0000
0000
0000
,
0001
1000
0001
1000
0001
1000
0001
1000
0001
1000
0001
1000
0001
1000
0001
1000
,
0001
0000
0010
0000
0001
0000
1000
0010
1000
0000
0001
0000
1000
0100
0010
0100
,
1000
0000
0001
0000
0100
0000
0010
0000
1000
0000
0100
0000
0010
0001
1000
0001
,
0100
0000
0010
1000
0000
0100
0000
0010
0001
0100
0001
0100
0010
1000
0010
1000
,
0100
0000
0010
0000
0001
0000
1000
0000
0001
1000
0001
0000
1000
0001
0010
0001
,
1000
0100
0010
0001
1000
0010
0100
0010
1000
0001
0010
0001
1000
0100
0010
0001
,
1000
0010
0100
0001
1000
0100
0010
0100
1000
0001
0100
0001
1000
0010
0100
0001
,
1000
0100
0010
0001
0010
0100
1000
0001
0100
0010
1000
0100
0010
0001
1000
0010
,
0100
0000
0001
0000
1000
0000
0001
0000
0000
0000
0000
0000
,
1000
0100
0010
0100
1000
0010
0100
0001
1000
0100
0010
0001
1000
0001
0100
0010
,
1000
0100
0010
0100
1000
0010
0100
0001
0010
0100
0010
0001
1000
0010
1000
0001
,
0100
0001
1000
0100
0010
0001
1000
0010
1000
0001
0010
0001
1000
0100
0010
0001
,
1000
0010
0100
0001
1000
0010
1000
0001
0010
0100
0010
0100
1000
0001
1000
0001
,
0100
0010
1000
0001
0010
0100
1000
0001
0010
0001
1000
0010
1000
0100
0010
0001
,
0100
0010
0100
0001
0010
0100
1000
0010
0100
0010
1000
0001
0010
0001
1000
0100
,
1000
0000
0000
0000
,
0001
0100
0001
0000
0000
0000
0000
0000
0000
0000
0000
0000
0000
0000
0000
0000
,
1000
0010
0100
0001
1000
0100
0010
0001
1000
0010
0100
0001
1000
0100
0010
0001
,
1000
0010
1000
0001
0100
0010
1000
0001
0010
0001
1000
0100
0010
0001
1000
0100
,
1000
0010
0100
0001
1000
0100
1000
0001
0100
0010
1000
0001
0010
0100
0010
0001
,
1000
0100
1000
0001
0100
0010
1000
0001
0010
0100
1000
0001
0100
0010
1000
0001
,
0010
0001
1000
0100
0010
0001
1000
0010
1000
0001
0100
0010
1000
0001
0100
0001
,
0010
0100
1000
0001
0100
0001
1000
0100
0010
0001
1000
0010
0100
0001
1000
0000
,
0001
0000
1000
0010
1000
0000
0001
0000
1000
0100
1000
0000
0001
0000
1000
0000
,
0001
0100
0001
0000
1000
0000
0001
0010
0001
0000
1000
0001
1000
0000
0000
0000
,
0001
1000
0001
0100
0001
1000
0100
1000
0001
0100
0001
1000
0100
0010
0001
1000
,
0001
0100
0010
1000
0100
1000
0001
0100
0001
1000
0100
1000
0010
0100
0001
1000
,
0001
0010
0100
1000
0001
0010
0001
1000
0010
0100
0001
1000
0100
0010
0100
1000
,
0001
0010
0001
1000
0010
0100
0001
1000
0010
1000
0001
0010
0100
1000
0010
1000
,
0001
0010
0100
1000
0001
0010
0001
1000
0010
1000
0001
0010
0100
1000
0001
1000
,
0010
0100
0001
0010
0001
1000
0010
1000
0001
0010
0001
0100
0010
1000
0001
1000
,
0100
0010
0001
1000
0100
1000
0001
0100
0010
1000
0001
0010
0100
0010
0001
1000
,
0001
0100
0001
0100
0010
1000
0010
1000
0001
0000
0000
0000
0000
0000
0000
0000
,
1000
0000
0100
0000
0010
0000
0001
0100
,
0001
0000
0100
0000
0010
0000
1000
0100
,
1000
0000
0000
0000
0001
0000
0000
0000
1000
0000
0000
0000
0001
0100
0010
1000
,
0001
0000
0000
1000
0000
0000
0100
0010
,
0001
1000
0010
0100
0001
1000
0100
1000
0001
0010
0100
1000
0001
0100
0010
0100
,
0001
1000
0100
0010
0001
1000
0010
1000
0001
0100
0010
1000
0001
0010
0100
1000
,
0001
1000
0100
0010
0001
1000
0010
0100
0010
1000
0001
0010
0100
1000
0001
0100
,
0001
1000
0100
0010
0001
1000
0100
1000
0001
0100
0001
1000
0010
1000
0001
0010
,
0002
0000
2000
0000
,
0000
0000
0000
3003
,
0001
0100
0001
1000
0100
0010
0001
1000
0010
0100
0001
0010
0100
1000
0001
0100
,
0001
1000
0100
1000
0001
0100
0010
1000
0001
0010
0001
1000
0010
0100
0001
1000
,
0100
1000
0001
0100
0010
1000
0001
0010
0100
1000
0010
0100
0001
1000
0100
1000
,
0001
0100
0001
1000
0100
0010
0001
1000
0010
1000
0001
0010
0100
1000
0001
0100
,
0001
1000
0100
0010
0001
1000
0010
0100
0010
1000
0001
0010
0100
1000
0100
0010
,
0001
1000
0100
1000
0001
0100
0001
1000
0100
0010
0001
1000
0100
1000
0001
0100
,
0001
1000
0010
0100
0001
1000
0100
0010
0001
1000
0010
1000
0001
0010
0100
1000
,
0001
1000
0001
1000
0001
0010
0100
1000
,
0001
1000
0100
0010
0001
1000
0010
0100
0001
1000
0100
1000
0001
0100
0001
1000
,
0100
0010
0001
1000
0010
0100
0001
1000
0100
1000
0001
0100
0001
1000
0010
0100
,
0001
1000
0100
0010
0001
1000
0100
1000
0001
0100
0010
1000
0010
0100
0001
1000
,
0001
0010
0100
1000
0100
0010
0001
1000
0100
1000
0001
0100
0001
1000
0001
0100
,
0010
1000
0001
0100
0001
1000
0100
0010
0001
0100
0010
1000
0001
0010
0100
1000
,
0010
0100
0010
1000
0001
0100
0001
1000
0100
0010
0001
1000
0100
1000
0001
0010
,
0001
1000
0100
0010
0001
1000
0010
0100
0001
0010
0001
0100
0010
1000
0001
0100
,
0001
1000
0100
1000
0001
0100
0001
1000
0100
0010
0001
1000
0001
1000
0100
0010
,
0001
1000
0001
0100
0010
0100
0001
0010
0001
1000
0100
0010
0001
0100
0010
1000
,
0001
0010
0001
1000
0010
0100
0001
1000
0100
1000
0001
0100
0010
1000
0001
0010
,
0100
1000
0001
0100
0010
1000
0001
1000
0100
0010
0001
0100
0010
1000
0001
0010
,
0001
1000
0010
0100
0001
1000
0010
1000
0001
0010
0100
1000
0001
0100
0010
0100
,
0001
1000
0100
0010
0001
1000
0100
1000
0001
0100
0010
1000
0001
0100
0001
1000
,
0100
0010
0001
0100
0010
1000
0001
0010
0001
1000
0100
0010
0001
0100
0010
1000
,
0001
0100
0001
1000
0010
0100
0001
1000
0010
1000
0001
0010
0100
1000
0001
0100
,
0010
1000
0001
0010
0100
1000
0001
0100
0001
1000
0100
1000
0001
0000
0000
0000
,
2002
0000
0000
0000
,
3003
0000
0000
0000
;
