#TITLE:LUV CAN SAVE U;
#SUBTITLE:;
#ARTIST:Hideki Naganuma;
#TITLETRANSLIT:;
#SUBTITLETRANSLIT:;
#ARTISTTRANSLIT:;
#GENRE:;
#CREDIT:;
#MUSIC:LUV CAN SAVE U.ogg;
#BANNER:LUV CAN SAVE U.png;
#BACKGROUND:LUV CAN SAVE U-bg.png;
#CDTITLE:;
#SAMPLESTART:40.710;
#SAMPLELENGTH:12.705;
#SELECTABLE:YES;
#OFFSET:1.504;
#BPMS:0.000=140.000;
#STOPS:;
#BGCHANGES:;
#FGCHANGES:;

//--------------- dance-single - Pandemonium X ----------------
#NOTES:
     dance-single:
     Pandemonium X:
     Beginner:
     2:
     0,0,0,0,0:
0000
0000
0000
0000
,
0000
0000
0000
0000
,
0000
0000
0000
0000
,
0000
0000
0000
0000
,
0000
0000
0000
0000
,
0001
0000
0000
0000
,
1000
0000
0000
0000
,
0001
0000
0000
0000
,
1000
0000
0000
0000
,
0010
0000
0000
0000
,
0100
0000
0000
0000
,
0110
0000
0000
0000
,
1001
0000
0000
0000
,
1000
0000
0000
0000
,
0001
0000
0000
0000
,
0010
0000
0000
0000
,
0100
0000
0100
0000
,
1000
0000
0000
0000
,
0010
0000
0000
0000
,
0100
0000
0010
0000
,
0100
0000
0000
0000
,
0001
0000
0000
0000
,
1000
0000
0000
0000
,
0001
0000
0000
0000
,
0000
0110
0000
0000
,
1000
0000
0000
0000
,
0100
0000
0000
0000
,
1000
0000
0000
0000
,
0010
0000
0000
0000
,
0100
0000
0000
0000
,
0001
0000
0000
0000
,
1001
0000
0000
0100
,
0100
0000
0000
0000
,
1001
0000
0000
0000
,
0001
0000
0000
0001
0000
0000
0001
0000
,
0001
0000
0000
0000
,
1000
0000
0000
1000
0000
0000
1000
0000
,
1000
0000
0000
0000
,
0010
0000
0000
0000
,
0100
0000
0000
0000
,
0001
0000
0000
0000
,
1000
0000
0000
0000
,
0100
0000
0000
0000
,
1000
0000
0000
0000
,
0001
0000
0000
0000
,
0100
0000
0000
0000
,
0010
0000
0000
0000
,
0100
0000
0010
0000
,
1001
0000
0000
0000
,
0100
0000
0000
0000
,
0000
0000
0000
0000
,
0100
0000
0000
0000
,
0000
0000
0000
0000
,
0000
1001
0000
0000
,
0001
0000
0000
0000
,
1000
0000
0000
0000
,
0100
0000
0000
0000
,
1000
0000
0000
0000
,
0010
0000
0000
0000
,
0100
0000
0000
0000
,
1001
0000
0000
0000
0000
1001
0000
0000
,
0000
0000
0000
0001
,
0001
0000
0000
0000
,
0100
0000
0000
0000
,
0010
0000
0000
0000
,
1000
0000
0000
0000
,
0001
0000
0000
0000
,
1000
0000
0000
0000
,
0001
0000
0000
0000
,
0000
0110
0000
1000
,
1000
0000
0000
0000
;

//--------------- dance-single - Pandemonium X ----------------
#NOTES:
     dance-single:
     Pandemonium X:
     Easy:
     7:
     0,0,0,0,0:
0000
0000
0000
0000
,
0000
0000
0000
0000
,
0000
0000
0000
0000
,
0000
0000
0000
0000
,
0000
0000
0000
0100
,
1001
0000
1000
0000
0001
0010
0001
0000
,
1000
0000
0010
0000
1000
0010
1000
0000
,
0001
0000
0010
0000
0001
0010
0001
0000
,
1000
0000
0010
0000
1000
0010
1000
0000
,
0001
0000
1000
0000
0001
0100
0001
0000
,
1000
0000
0001
0000
1000
0100
1000
0000
,
0010
0000
0000
0010
0000
0000
0010
0000
0000
0000
0000
0000
0000
0000
0000
0000
,
0100
0000
0000
0100
0000
0000
0100
0000
0000
0000
0000
0000
0000
0000
0000
0000
,
0001
1000
0010
0010
,
1000
0100
0110
1100
,
0100
1000
0001
0100
,
0001
0000
0010
0000
0100
1000
0100
0000
,
1000
0001
0100
0100
,
0001
0010
0011
1001
,
1000
0001
0100
0001
,
1000
0100
2000
0000
,
3001
0000
0100
0000
,
0010
0000
1000
0000
,
0100
0000
0010
0000
,
0000
1001
0000
0000
,
0101
0100
0010
1000
,
1100
1000
0010
1000
,
1001
0001
0010
0001
,
0101
0100
0001
1000
,
1100
0100
0010
0001
,
1001
1000
0001
0100
,
0010
0000
0000
0010
0000
0000
0010
0000
0000
0000
0000
0000
0100
0000
0010
0000
,
0100
0000
0000
0010
,
1002
0000
0000
0003
,
2000
0000
3000
0200
0000
0300
0020
0000
,
0230
0000
0000
0300
,
0020
0000
0030
0002
0000
0003
0200
0000
,
0320
0000
0000
0000
,
2030
0000
0000
0000
,
3200
0000
0000
0000
,
0320
0000
0001
0031
,
1000
0001
0010
0010
,
0000
0100
0110
1100
,
0000
0001
1000
0010
,
1000
0000
0001
0000
0010
0100
0010
0000
,
0100
1000
0010
0010
,
0000
0100
0101
1001
,
0000
0000
0001
0000
0000
1000
0000
0000
0010
0000
0000
1000
0000
0000
0001
0000
,
0020
0000
0000
0030
,
0100
0001
0100
1000
,
0100
0001
0100
1000
,
0000
0001
0100
1000
,
0100
0001
0000
0000
,
0010
1001
0000
0000
,
0101
0100
0010
0100
,
1001
1000
0100
0010
,
1100
1000
0001
0100
,
0011
0010
0001
1000
,
1100
0000
0000
1000
0000
1000
0000
0001
,
0000
0002
0000
0003
0000
0000
0000
0000
,
0100
0000
0000
0100
0000
0000
0100
0000
0000
0000
0010
0000
0000
0010
0000
0000
,
0010
0000
0000
0100
,
1001
0000
1000
0000
0001
0000
1000
0010
,
0000
0000
1000
0000
0010
0000
0100
0010
,
0000
0000
0100
0000
0001
0000
0100
0001
,
0000
0010
0002
0000
,
1003
1000
1000
0000
,
0001
0001
0001
0000
,
0100
0010
1000
0001
,
0010
2002
0000
0003
,
3000
0000
0000
0000
;

//--------------- dance-single - Pandemonium X ----------------
#NOTES:
     dance-single:
     Pandemonium X:
     Medium:
     10:
     0,0,0,0,0:
0000
0000
0000
0000
,
0000
0000
0000
0000
,
0000
0000
0000
0000
,
0000
0000
0000
0000
,
0000
0000
0000
0010
,
1001
0000
0000
0001
0000
0000
0001
0000
0000
0000
0100
0000
0000
0010
0000
0000
,
0100
0000
0000
0100
0000
0000
0010
0000
0000
0000
0100
0000
0000
0010
0000
0000
,
1000
0000
0000
1000
0000
0000
1000
0000
0000
0000
0100
0000
0000
1000
0000
0000
,
0010
0000
0000
0010
0000
0000
0100
0000
0000
0000
0001
0000
0000
0100
0000
0000
,
0001
0000
0000
0001
0000
0000
0001
0000
0000
0000
0100
0000
0000
0010
0000
0000
,
0100
0000
0000
0100
0000
0000
0010
0000
0000
0000
0100
0000
0000
0001
0000
0000
,
1001
0000
0000
1001
0000
0000
1001
0000
0000
0000
1000
0000
0000
0100
0000
0000
,
0010
0000
0000
0010
0000
0000
0010
0000
0000
0000
0100
0000
0000
1000
0000
0000
,
0000
0001
0100
0001
0010
0001
0100
0000
,
0000
0000
0010
0000
0000
0100
0000
0000
0002
0000
0000
0000
2000
0000
0000
0000
,
3003
0000
0000
0000
0001
0000
0100
0000
0010
0000
0000
1000
0000
0000
0100
0000
,
0000
0100
0000
0100
0010
0001
1000
0000
,
0000
0010
0100
0010
1000
0100
1000
0000
,
0000
0000
0100
0000
0000
1000
0000
0000
0002
0000
0000
0000
2000
0000
0000
0000
,
3003
0000
0001
0000
0000
0001
0000
0000
0010
0000
0000
0100
0000
0000
0100
0000
,
0010
0000
0000
0001
0000
0000
2000
0000
0000
0000
0000
0000
0000
0000
0000
0000
,
3100
0010
0001
0100
,
1000
0100
0001
0010
,
0001
0010
1000
0010
,
0001
2020
3030
0000
,
1000
0000
0000
0001
0000
0000
0010
0000
0000
0000
0001
0000
0000
0100
0000
0000
,
0010
0000
0000
1000
0000
0000
0100
0000
0000
0000
0010
0000
0000
0100
0000
0000
,
0010
0000
0000
0001
0000
0000
0100
0000
0000
0000
0010
0000
0000
0100
0000
0000
,
0001
0000
0000
1000
0000
0000
0100
0000
0000
0000
0010
0000
0000
0100
0000
0000
,
1000
0000
0000
0010
0000
0000
0100
0000
0000
0000
0010
0000
0000
0100
0000
0000
,
0001
0000
0000
0010
0000
0000
0100
0000
0000
0000
0010
0000
0000
0001
0000
0000
,
1001
0000
0000
1001
0000
0000
1001
0000
0000
0000
1000
0000
0100
0000
0010
0000
,
0011
0000
0000
0102
,
1003
0000
0001
0000
0100
0110
0000
0000
,
0010
0000
1000
0000
0100
0110
0000
0000
,
0010
0000
0001
0000
0100
0110
0000
0000
,
0010
0000
1000
0000
0100
0110
0000
0000
,
0100
0000
1000
0000
0010
1010
0000
0000
,
0010
0000
0100
0000
0001
0101
0000
0000
,
0001
0000
1000
0000
0100
1100
0000
0000
,
0100
0010
0100
0000
0010
0001
0100
0010
,
1010
0000
0000
0000
0000
0001
0010
0100
,
0010
0000
0000
0000
0000
0100
0010
0100
,
1000
0000
0000
0001
0000
0000
1000
0001
,
0000
0000
0000
0000
0000
0100
0010
1000
,
0100
0000
0000
0000
0000
0010
0100
0010
,
0001
0000
0000
0000
0000
0100
0010
1000
,
0100
0000
1000
0000
0000
0100
0000
0000
0010
0000
0000
0001
0000
0000
1000
0000
,
2002
0000
0000
3003
,
0000
0000
0000
0000
0001
0000
0100
0000
0002
0000
0000
0103
0000
0000
0001
0000
,
0200
0000
0000
0301
0000
0000
0100
0000
0002
0000
0000
0103
0000
0000
0000
0000
,
0000
0000
0000
0000
0010
0000
1000
0000
0020
0000
0000
1030
0000
0000
0010
0000
,
2000
0000
0000
3010
0000
0000
0000
0000
0000
0000
0000
0000
0000
0000
0000
0000
,
0100
0010
2002
0000
3003
0000
0000
0000
,
1000
0000
0000
0100
0000
0000
1000
0000
0000
0000
0100
0000
0000
0010
0000
0000
,
0001
0000
0000
0100
0000
0000
0001
0000
0000
0000
0100
0000
0000
0010
0000
0000
,
1000
0000
0000
0001
0000
0000
1000
0000
0000
0000
0001
0000
0000
0010
0000
0000
,
0100
0000
0000
0010
0000
0000
0100
0000
0000
0000
0010
0000
0000
0001
0000
0000
,
0200
0000
0000
0010
0000
0001
0000
0010
,
0000
0000
0002
0000
0000
0000
0000
0000
0303
0000
0100
0000
0000
0001
0000
0000
,
1001
0000
0000
1001
0000
0000
1001
0000
0000
0000
0110
0000
0000
0110
0000
0000
,
0110
0000
0000
0000
0000
0000
0100
0010
,
1001
0000
1000
0000
0010
0000
0100
0001
,
0000
0000
0010
0000
0100
0000
1000
0100
,
0000
0000
1000
0000
0001
0000
0100
0010
,
0000
1000
0001
0010
0200
0000
0000
0000
,
0310
0000
0000
0010
0000
0000
0001
0000
0000
0000
0010
0000
0000
0100
0000
0000
,
1000
0000
0000
1000
0000
0000
1000
0000
0000
0000
0100
0000
0000
0100
0000
0000
,
0000
0000
0010
0000
0100
0000
1000
0000
0001
0000
0000
0100
0000
0000
0010
0000
,
0100
2002
0000
0003
,
3000
0000
0000
0000
;

//--------------- dance-single - Pandemonium X ----------------
#NOTES:
     dance-single:
     Pandemonium X:
     Hard:
     15:
     0,0,0,0,0:
0000
0000
0000
0000
,
0000
0000
0000
0000
,
0000
0000
0000
0000
,
0000
0000
0000
0000
,
0000
2002
3003
0010
,
1001
0000
0000
1100
0000
0000
1010
0000
0000
0000
1002
0000
0000
0013
0000
0000
,
1001
0000
0000
0011
0000
0000
0101
0000
0000
0000
2010
0000
0000
3001
0000
0000
,
0101
0000
0000
1010
0000
0000
1100
0000
0000
0000
0021
0000
0000
0130
0000
0000
,
0110
0000
0000
0011
0000
0000
1100
0000
0000
0000
2001
0000
0000
3010
0000
0000
,
1010
0000
0000
0011
0000
0000
1010
0000
0000
0000
2001
0000
0000
3100
0000
0000
,
1100
0000
0000
0101
0000
0000
1001
0000
0000
0000
0012
0000
0000
0103
0000
0000
,
1001
0000
0000
1001
0000
0000
1001
0000
0000
0000
2001
0000
0000
3100
0000
0000
,
1001
0000
0000
0110
0000
0000
1001
0000
1000
0100
0010
0001
1000
0001
1000
0001
,
1000
0000
0000
0000
0001
0000
0000
0000
1000
0000
0020
0030
0000
0000
0020
0030
0000
0000
0001
0000
1000
0000
0000
0000
0010
0000
0000
0000
0000
0000
0000
0000
,
1000
0000
0000
0000
0001
0000
0000
0000
1000
0000
0200
0300
0000
0000
0200
0300
0000
0000
0001
0000
1000
0000
0000
0000
0100
0000
0000
0000
0000
0000
0000
0000
,
1000
0000
0000
0000
0001
0000
0000
0000
1000
0000
0020
0030
0000
0000
0020
0030
0000
0000
0001
0000
1000
0000
0000
0000
0010
0000
0000
0000
2000
0000
0000
0000
,
0000
3200
0000
0301
0100
1000
1010
0000
,
0001
0000
0000
0000
1000
0000
0000
0000
0001
0000
0200
0300
0000
0000
0200
0300
0000
0000
1000
0000
0001
0000
0000
0000
0100
0000
0000
0000
0000
0000
0000
0000
,
0001
0000
0000
0000
1000
0000
0000
0000
0001
0000
0020
0030
0000
0000
0020
0030
0000
0000
1000
0000
0001
0000
0000
0000
0010
0000
0000
0000
0000
0000
0000
0000
,
0100
0000
1100
0000
0000
0011
0000
0000
0110
0000
0000
1100
0000
0000
0110
0000
,
1001
0000
0000
0101
0000
0000
1020
0000
0100
0000
0100
0000
0130
0001
0100
0001
,
1000
0000
0001
0100
0001
0000
0001
0100
0000
0100
0001
0000
1000
0000
1000
0000
,
0000
0000
0100
1000
0100
0000
1000
0100
0000
0100
1000
0000
0001
0000
0001
0000
,
0000
0000
1000
0010
1000
0000
1000
0010
0000
0010
1000
0000
0100
0000
0100
0000
,
1000
0000
1000
0100
0020
0000
0000
0000
0000
0000
0031
0000
0000
1000
0000
0000
,
1020
0000
0000
0100
0000
0000
1030
0000
0000
0000
1010
0000
0000
0101
0000
0000
,
0021
0000
0000
0100
0000
0000
0031
0000
0000
0000
0011
0000
0000
0110
0000
0000
,
1200
0000
0000
0001
0000
0000
1300
0000
0000
0000
1100
0000
0000
1010
0000
0000
,
0201
0000
0000
1000
0000
0000
0301
0000
0000
0000
1001
0000
0000
0101
0000
0000
,
0021
0000
0000
0100
0000
0000
0031
0000
0000
0000
1100
0000
0000
1001
0000
0000
,
1020
0000
0000
1000
0000
0000
0130
0000
0000
0000
1010
0000
0000
0101
0000
0000
,
1001
0000
0000
0110
0000
0000
1001
0000
0000
0000
0001
0000
0100
0000
0010
0000
,
1010
0000
0000
0000
0010
0000
0000
0000
0100
0010
0000
0010
0100
0000
0001
0000
,
1000
0000
0000
0000
0001
0000
0000
0000
1000
0000
0020
0030
0000
0000
0020
0030
0000
0000
0001
0000
0100
0000
0000
0000
0010
0000
0000
0000
1000
0000
0000
0000
,
1000
0000
0000
0000
0001
0000
0000
0000
1000
0000
0200
0300
0000
0000
0200
0300
0000
0000
0001
0000
1000
0000
0000
0000
0002
0000
0000
0000
0000
0000
0000
0000
,
1003
0000
0000
0000
0001
0000
0000
0000
1000
0000
0020
0030
0000
0000
0020
0030
0000
0000
0001
0000
0010
0000
0000
0000
0100
0000
0000
0000
1000
0000
0000
0000
,
0001
0000
0000
0000
1000
0000
0000
0000
0001
0000
0020
0030
0000
0000
0020
0030
0000
0000
1000
0000
0001
0000
0000
0000
0200
0000
0000
0000
0000
0000
0000
0000
,
0301
0000
0000
0000
1000
0000
0000
0000
0001
0000
0020
0030
0000
0000
0020
0030
0000
0000
1000
0000
0001
0000
0000
0000
0101
0000
0000
0000
0000
0000
0000
0000
,
1000
0000
0000
0000
0001
0000
0000
0000
1000
0000
0020
0030
0000
0000
0020
0030
0000
0000
0001
0000
1000
0000
0000
0000
1100
0000
0000
0000
0000
0000
0000
0000
,
0001
0000
0000
0000
1000
0000
0000
0000
0001
0000
0200
0300
0000
0000
0200
0300
0000
0000
1000
0000
0010
0000
0000
0000
1010
0000
0000
0000
0000
0000
0000
0000
,
0010
0000
0010
0000
1000
0001
0000
0001
1000
0000
0100
0000
0100
1000
0100
1000
,
0001
1000
0100
1000
0010
0001
0010
1000
,
0001
0000
0101
0000
0000
1010
0000
0000
1100
0000
0100
0000
0001
0000
0100
0000
,
1000
0000
0000
1001
0000
0000
1010
0101
,
0000
0100
0000
0100
0010
1000
0100
0001
,
0100
0010
0001
0010
0100
1000
0010
0001
,
0010
0000
0110
0000
0000
0101
0000
0000
1001
0000
1000
0000
0100
0000
0001
0000
,
0100
0000
1100
0000
0000
1001
0000
0000
0011
0000
0000
1001
0000
0000
0101
0000
,
1002
0000
1000
0000
1000
0000
0000
0000
0100
0000
0103
0000
0010
0100
0010
0100
,
0001
0000
1000
0100
1000
0000
0001
0100
0000
0001
0100
0001
0100
0000
0010
0000
,
0000
0000
0100
0010
0100
0000
0001
1000
0000
0001
1000
0001
1000
0000
0100
0000
,
0000
0000
1000
0010
1000
0000
0010
0100
0000
0010
0100
0010
0100
0000
0001
0000
,
0000
0000
1000
0001
1000
0000
0001
1000
0000
1000
0001
0000
1000
0000
1000
0000
,
0001
0000
0000
0000
0220
0000
0000
0000
0330
0000
1000
0000
0000
0001
0000
0000
,
0201
0000
0000
0010
0000
0000
0301
0000
0000
0000
0101
0000
0000
0110
0000
0000
,
1020
0000
0000
0100
0000
0000
1030
0000
0000
0000
1001
0000
0000
1010
0000
0000
,
1200
0000
0000
0001
0000
0000
1300
0000
0000
0000
1100
0000
0000
1001
0000
0000
,
0201
0000
0000
1000
0000
0000
0301
0000
0000
0000
0011
0000
0000
0110
0000
0000
,
2100
0000
3100
0020
0031
0020
0130
2000
,
3001
0000
2000
0000
3001
0000
0100
0000
0000
0000
0010
0000
0000
0010
0000
0000
,
0101
0000
0000
1010
0000
0000
0101
0000
0000
0000
0101
0000
0000
1010
0000
0000
,
0101
0000
0000
0000
0000
0000
0000
0000
1000
0100
0000
0100
0010
0001
1000
0001
,
1000
0000
0001
0100
0001
0000
0100
0010
1000
0010
0100
0000
0001
0000
0001
0000
,
0000
0000
1000
0001
1000
0000
0001
0010
0100
0010
0001
0000
0100
0000
0100
0000
,
0000
0000
0010
0100
0010
0000
0100
0010
1000
0100
0010
0000
0100
0000
0100
0000
,
0000
0000
0010
0001
0100
0000
0010
0100
0001
1000
0100
0000
1000
0000
1000
0000
,
0100
0000
0000
0100
0000
0000
0200
0000
0300
0000
0010
0000
0000
0001
0000
0000
,
1000
0000
0000
1000
0000
0000
0002
0000
0003
0000
0010
0000
0000
0010
0000
0000
,
0000
0000
0001
0000
0010
0000
0100
0000
1000
0000
0000
0100
0000
0000
0010
0000
,
0001
2002
0000
0003
,
3000
0000
0000
0000
;
