#TITLE:LOVE B.B.B;
#SUBTITLE:;
#ARTIST:SWAN K feat. Asuka M;
#TITLETRANSLIT:;
#SUBTITLETRANSLIT:;
#ARTISTTRANSLIT:;
#GENRE:DRUM'N'BASS;
#CREDIT:;
#MUSIC:LOVE B.B.B.ogg;
#BANNER:LOVE B.B.B.png;
#BACKGROUND:LOVE B.B.B-bg.png;
#CDTITLE:;
#SAMPLESTART:89.140;
#SAMPLELENGTH:11.099;
#SELECTABLE:YES;
#OFFSET:-0.347;
#BPMS:0.000=172.986;
#STOPS:;
#BGCHANGES:0.000=LOVE B.B.B.avi=1.000=0=0=0=StretchNoLoop====;
#FGCHANGES:;

//--------------- dance-single - Flicks ----------------
#NOTES:
     dance-single:
     Flicks:
     Medium:
     11:
     0,0,0,0,0:
0000
0000
0000
0000
,
0000
0000
0000
0000
,
0000
0000
0000
0000
,
0000
0000
0000
0000
,
0000
1000
1000
0100
,
0100
0010
0010
0001
,
0001
1000
0001
0000
1000
0000
1000
0000
,
0010
0010
0100
0100
,
0001
0100
0010
1000
0000
1000
0001
0000
,
0001
0010
0100
1000
0000
0100
0010
0000
,
0100
1000
0100
1000
0000
1000
0001
0000
,
0010
0001
0010
0001
0000
1000
0001
0000
,
0001
0100
0010
1000
0000
0010
1000
0000
,
0010
0100
0001
1000
0000
1000
0001
0000
,
0000
1000
0100
0010
,
0001
2002
0000
3003
,
MMMM
0000
2000
0000
0000
3100
0000
0000
,
2000
0000
0000
3001
0000
0000
0002
0000
,
0003
0000
2000
0000
0000
3010
0000
0000
,
0200
0000
0000
0310
0000
0000
2000
0000
,
3000
0000
0002
0000
0000
1003
0000
0000
,
0002
0000
0000
1003
0000
0000
0200
0000
,
0300
0000
0020
0000
0000
0130
0000
0000
,
2000
0000
0000
3010
0000
0000
2020
0000
,
3030
0000
1000
0000
0001
0100
0010
0000
,
1000
0010
0000
1000
0000
1000
0010
0100
,
0001
0000
1000
0000
0001
0010
0100
0000
,
1000
0100
0000
1000
0000
1000
0100
0010
,
0001
0000
1000
0000
0001
0100
0010
0000
,
1000
0001
0000
1000
0000
1000
0100
1000
,
0100
0200
0000
0020
,
0000
0000
0000
0330
,
MMMM
0000
1000
1000
0001
0001
0010
0010
,
0001
0010
0100
1000
1000
0100
0100
0010
,
0010
0000
0001
0000
0001
0000
0000
0000
0000
0000
1000
0001
1000
0000
0000
0000
,
0000
0000
0000
0000
0000
0000
1000
0000
0000
0001
0000
0000
0100
0000
0000
0010
,
0000
0000
0110
0000
0000
0000
0001
0000
0000
1000
0000
0000
0010
0000
0000
0100
,
0000
0000
0101
0000
0000
0000
0001
0000
0000
1000
0000
0000
0100
0000
0000
1000
,
0000
0100
2000
3000
0000
0001
1000
0000
,
0000
0000
1000
0000
1001
0000
0001
0001
,
0010
0010
0100
0100
0000
1000
1000
0001
,
0010
0001
0010
0000
0001
0000
0010
0000
0000
0000
0100
0000
0010
0000
0001
0000
,
1000
0001
1000
0000
0010
0000
0010
0000
0000
0000
1000
0000
1000
0000
0001
0000
,
0100
0001
0100
0000
0001
0000
1000
0000
0010
0000
0010
0000
1000
0000
1000
0000
,
0001
0001
0001
0000
0010
0000
0100
0000
,
0110
0010
0001
1000
,
1001
0000
0000
0000
0000
0000
0100
0000
0000
0010
0000
0000
1000
0000
0000
0001
,
0000
0000
1000
0000
0001
0000
0000
0001
0000
0000
0010
0000
0001
0000
0000
0010
,
0000
0000
0100
0000
0000
0000
1000
0000
0001
0000
0000
0000
1000
0000
0000
0010
,
0000
0000
0010
0000
0000
0000
1000
0000
0000
0010
0000
0000
1000
0000
0000
0001
,
0000
0000
0010
0000
0000
0000
0100
0000
0100
0000
0000
0000
0010
0000
0000
0100
,
0000
0000
1000
0000
0000
0000
0001
0000
0000
0100
0000
0000
0010
0000
0000
1000
,
0000
0000
1001
0000
0000
0000
0001
0000
1000
0000
0000
0000
0001
0000
0000
0100
,
0000
0000
0100
0000
0000
0000
0001
0000
0000
0100
0000
0000
0001
0000
0000
1000
,
0000
0000
0100
0000
0000
0000
0010
0000
0010
0000
0000
0000
0100
0000
0000
0010
,
0000
0000
0001
0000
0000
0000
1000
0000
0000
0010
0000
0000
0100
0000
0000
0001
,
0000
0000
1001
0000
0000
0000
1000
0000
0100
0000
0000
0000
0010
0000
0000
0001
,
0000
0000
1000
0000
0000
0000
1000
0000
0000
0100
0000
0000
0100
0000
0000
0100
,
0000
0000
1100
0000
0000
0000
1000
0000
0010
0000
0000
0000
0100
0000
0000
0001
,
0000
0000
1000
0000
0000
0000
1000
0000
0000
0010
0000
0000
0010
0000
0000
0010
,
0000
0000
1010
0000
0000
0000
0001
0000
0100
0000
0000
0000
0010
0000
0000
1000
,
0000
0000
0001
0000
0000
0000
0001
0000
0000
0100
0000
0000
0100
0000
0000
0100
,
0000
0101
0001
0000
1001
0000
0001
0000
,
0011
0020
0000
0030
,
MMMM
0000
1000
0000
1000
0100
1000
0000
,
0001
0010
0000
0001
0000
0001
0010
0100
,
1000
0000
1000
0000
0001
1000
0001
0000
,
1000
0001
0000
0100
0000
0001
0100
0001
,
1000
0000
0010
0000
1000
0001
0001
0000
,
1000
1000
0000
1000
0000
0001
0100
0010
,
1000
0000
1000
0000
0010
2020
0000
3030
,
0000
0000
0001
0000
0010
0022
0000
0033
,
0000
0000
1000
0000
1000
0010
1000
0000
,
0001
0100
0000
0001
0000
0001
0100
0010
,
1000
0000
1000
0000
0001
1000
0001
0000
,
1000
0001
0000
0010
0000
0001
0010
0001
,
1000
0000
0100
0000
1000
0001
0001
0000
,
1000
1000
0000
1000
0000
0001
0010
0100
,
1000
2000
0000
0002
,
0000
0000
0000
0000
,
3003
0000
0000
0000
;

//--------------- dance-single - Flicks ----------------
#NOTES:
     dance-single:
     Flicks:
     Hard:
     13:
     0,0,0,0,0:
0000
0000
0000
0000
,
0000
0000
0000
0000
,
0000
0000
0000
0000
,
0000
0000
0000
0000
,
0000
1000
1000
0010
,
0010
0100
0100
0001
,
0001
0100
0010
0000
1000
0000
0001
0000
,
0010
0001
0010
0100
,
1000
0100
0010
0001
0000
0010
0001
0000
,
0010
0001
1000
0100
0000
0010
0100
0000
,
0010
0001
0010
0001
0000
0001
1000
0000
,
0010
1000
0010
1000
0000
0010
1000
0000
,
1000
0010
0100
0001
0000
0001
1000
0000
,
0010
1000
0010
0100
0000
0001
1000
0000
,
0000
0000
0000
0001
0100
0001
0100
0001
0100
0001
1000
0001
,
1000
0001
1000
0002
0000
0000
0000
0000
0000
0003
0000
0000
,
MMMM
0000
2100
0000
0000
3100
0000
0000
,
2000
0000
0000
3001
0000
0000
0202
0000
,
0303
0000
2000
0000
0000
3001
0000
0000
,
2000
0000
0000
3010
0000
0000
0220
0000
,
0330
0000
2000
0000
0000
3001
0000
0000
,
2000
0000
0000
3100
0000
0000
2200
0000
,
3300
0000
2000
0000
0000
3010
0000
0000
,
0200
0000
0000
0301
0000
0000
0202
0000
,
0303
0000
1000
0000
0001
0010
0100
0000
,
1000
0001
0000
1000
0000
1000
0010
1000
,
0010
0000
0100
0000
0010
0100
0010
0000
,
1000
0010
0000
1000
0000
1000
0100
0010
,
0001
0000
1000
0000
0001
0100
0010
0000
,
1000
0001
0000
1000
0000
1000
0100
1000
,
0100
0200
0000
0020
,
0000
0000
0000
0330
,
MMMM
0000
0001
0001
1000
1000
0010
0010
,
1000
0000
0100
0000
0010
0000
0001
0010
0001
0000
0010
0100
0010
0000
0100
1000
,
0100
0000
1000
0000
0001
0000
0000
0000
0000
0000
1000
0010
1000
0000
0000
0000
,
0000
0000
0000
0000
0000
0000
0001
0000
0000
1000
0000
0000
0010
0000
0000
0100
,
0000
0000
0110
0000
0000
0000
0010
0000
0000
0100
0000
0000
0001
0000
0000
1000
,
0000
0000
1001
0000
0000
0000
0001
0000
0000
0010
0000
0000
0100
0000
0000
1000
,
0000
0100
2000
3000
0000
0001
1000
0000
,
0000
0000
0000
0000
1000
0000
0010
0000
0100
0000
0001
0000
0001
0100
0001
0000
,
0100
0010
0100
0000
0010
1000
0010
0000
0000
0000
1000
0010
1000
0000
0001
0000
,
1000
0001
1000
0000
0100
1000
0100
0000
0000
0000
1000
0100
1000
0000
0001
0000
,
1000
0001
1000
0000
0010
1000
0010
0000
0000
0000
1000
0010
1000
0000
0001
0000
,
1000
0001
1000
0000
1000
0010
1000
0000
0010
0100
0010
0000
1000
0010
1000
0000
,
1000
0000
0000
0001
0000
0000
1000
0000
0000
0000
0000
0000
0000
0000
0000
0000
0001
0000
0000
0000
0010
0000
0000
0000
0001
0000
0000
0000
0010
0000
0000
0000
0100
0000
0000
0000
1000
0000
0000
0000
0001
0000
0000
0000
0010
0000
0000
0000
,
0100
1000
0100
0010
0001
0010
0001
0010
0100
1000
0100
0010
,
0001
0000
0000
0000
0010
0000
0000
0000
0100
0000
0000
0000
0000
0000
0000
0000
0000
0000
1000
0000
0000
0000
0000
0000
0000
0000
0000
0010
0000
0000
0000
0000
0000
0000
0000
0000
1000
0000
0000
0000
0000
0000
0000
0000
0000
0010
0000
0000
,
0000
0000
1000
0000
0001
0000
0000
1000
0000
0000
0100
0000
1000
0000
0000
0100
,
0000
0000
0010
0000
0000
0000
0001
0000
0001
0000
0000
0000
0010
0000
0000
0100
,
0000
0000
1000
0000
0000
0000
1000
0000
0000
0100
0000
0000
0010
0000
0000
0001
,
0000
0000
0011
0000
0000
0000
0010
0000
0001
0000
0000
0000
0010
0000
0000
0100
,
0000
0000
1000
0000
0000
0000
0001
0000
0000
0100
0000
0000
0010
0000
0000
1000
,
0000
0000
1001
0000
0000
0000
1000
0000
1000
0000
0000
0000
0010
0000
0000
0100
,
0000
0000
0001
0000
0000
0000
0001
0000
0000
0100
0000
0000
0010
0000
0000
1000
,
0000
0000
1010
0000
0000
0000
1000
0000
1000
0000
0000
0000
0010
0000
0000
0100
,
0000
0000
0001
0000
0000
0000
0001
0000
0000
0100
0000
0000
0010
0000
0000
1000
,
0000
0000
1010
0000
0000
0000
0010
0000
0100
0000
0000
0000
0100
0000
0000
0001
,
0000
0000
1000
0000
0000
0000
1000
0000
0000
0100
0000
0000
0100
0000
0000
0100
,
0000
0000
1100
0000
0000
0000
0100
0000
0100
0000
0000
0000
0010
0000
0000
0100
,
0000
0000
1000
0000
0000
0000
0001
0000
0000
0010
0000
0000
0010
0000
0000
0010
,
0000
0000
0110
0000
0000
0000
0100
0000
0010
0000
0000
0000
0100
0000
0000
1000
,
0000
0000
0001
0000
0000
0000
1000
0000
0000
0100
0000
0000
0100
0000
0000
0100
,
0000
0000
0000
1100
0000
0000
1000
0000
0100
0000
1000
0000
0100
0000
1000
0000
0100
0000
1000
0000
0001
0000
1000
0000
,
0001
1000
0001
2000
0000
0000
0000
0000
0000
3000
0000
0000
,
MMMM
0000
1000
0000
0100
0010
0100
0000
,
0001
0010
0000
0001
0000
0001
0010
0100
,
1000
0000
0001
0000
0100
1000
0100
0000
,
0001
1000
0000
0100
0000
1000
0100
1000
,
0001
0000
0010
0000
0010
0010
0001
0000
,
0001
1000
0000
0001
0000
1000
0010
0100
,
0001
0000
0001
0000
0100
0202
0000
0303
,
0000
0000
1000
0000
0100
2200
0000
3300
,
0000
0000
0001
0000
0100
0010
0100
0000
,
1000
0010
0000
1000
0000
1000
0010
0100
,
0001
0000
0001
0000
0010
1000
0010
0000
,
0001
1000
0000
0010
0000
1000
0010
1000
,
0001
0000
0010
0000
0010
0010
0001
0000
,
1000
0010
0000
1000
0000
0001
0010
0100
,
1000
2000
0000
0200
,
0000
0000
0000
0000
,
3300
0000
0000
0000
;
