#TITLE:LOOKING FOR LOVE;
#SUBTITLE:(FACTORY TEAM-2000 REMIX);
#ARTIST:WIENNA;
#TITLETRANSLIT:;
#SUBTITLETRANSLIT:;
#ARTISTTRANSLIT:;
#CREDIT:DanceMania 14.png;
#BANNER:LOOKING FOR LOVE (FACTORY TEAM-2000 REMIX).png;
#BACKGROUND:LOOKING FOR LOVE (FACTORY TEAM-2000 REMIX)-bg.png;
#LYRICSPATH:LOOKING FOR LOVE (FACTORY TEAM-2000 REMIX).lrc;
#CDTITLE:;
#MUSIC:LOOKING FOR LOVE (FACTORY TEAM-2000 REMIX).ogg;
#OFFSET:-9.311;
#SAMPLESTART:54.450;
#SAMPLELENGTH:12.000;
#SELECTABLE:YES;
#BPMS:0.000=128.005;
#STOPS:;
#BGCHANGES:;

//---------------dance-single - ----------------
#NOTES:
     dance-single:
     :
     Hard:
     11:
     0.486,0.454,0.303,0.000,0.016:
1001
0000
1000
0001
1000
0000
1000
0100
,
0010
0000
1000
0010
0001
0000
0001
0010
,
0100
0000
0100
0010
0100
0000
1000
0001
,
0100
0000
0100
0010
1000
0001
0100
0001
,
1000
0000
1000
0100
0010
0000
0010
0001
,
1000
0000
1000
0010
0001
0000
0001
0010
,
0100
0000
0100
0001
1000
0000
1000
0100
,
0010
0000
0010
0001
1000
0010
0100
0001
,
0011
0001
0100
0001
1000
0001
1000
0001
,
0100
0010
1000
0100
0010
0000
1001
0000
,
1000
0010
1000
0100
1000
0001
1000
0001
,
1000
0010
0100
0001
0010
0000
1001
0000
,
0001
0100
1000
0100
0010
0100
0010
0100
,
0001
0010
0100
1000
0001
0000
0110
0000
,
1000
0100
0001
0100
0010
0100
0010
0001
,
1000
0010
0100
0001
1000
0000
0100
0010
,
0101
0001
1000
0010
0000
0010
1000
0001
,
0000
0010
0001
1000
0000
0001
0100
0010
,
1010
1000
0100
0001
1000
0001
0100
1000
,
0100
1000
0001
0100
0010
0000
1000
0010
,
1010
0001
0100
0010
0000
0010
0100
0001
,
0000
1000
0100
0010
0000
0010
0001
1000
,
0010
0001
1000
0001
0010
1000
0100
0010
,
0100
0000
0010
0000
0001
0001
0100
1000
,
1100
0001
0010
1000
0001
0010
0100
0010
,
0011
1000
0010
0100
0110
0000
0101
0000
,
1001
1000
0100
0010
0100
0001
1000
0010
,
0011
1000
0010
0100
0110
0000
0101
0000
,
1001
0001
0010
0100
1000
0010
0001
0010
,
1010
0001
0010
0100
1100
0000
0011
0000
,
1001
1000
0010
0100
1000
0100
0001
1000
,
1100
0100
0010
0001
0101
0000
1010
0000
,
0001
0010
0001
0000
0100
0000
0010
0100
0010
0000
1000
0000
0100
0000
0000
0000
,
1000
0100
1000
0000
0001
0000
0100
0000
0010
0000
1000
0000
0001
0000
0010
0000
,
0011
0000
0010
0100
0010
0000
0010
1000
,
0001
0000
0001
0100
0010
0000
0010
0001
,
1000
0000
1000
0010
0100
0000
0100
1000
,
0001
1000
0001
0010
1010
0000
1000
0001
,
0011
0000
0010
0100
0010
0000
0010
0100
,
0001
0000
0001
0100
1000
0000
1000
0010
,
0100
0000
0100
1000
0001
0000
0001
0010
,
1000
0100
0001
0100
1100
0000
0001
0100
;

//---------------dance-single - ----------------
#NOTES:
     dance-single:
     :
     Challenge:
     11:
     0.441,0.409,0.130,0.000,0.314:
1000
0000
0000
1000
0000
0000
0100
0000
0010
0000
0000
0010
0000
0000
0100
0000
,
0001
0000
0000
0001
0000
0000
1000
0000
0010
0000
0000
0010
0000
0000
0001
0000
,
0100
0000
0000
0100
0000
0010
0100
0000
1000
0000
0000
1000
0000
0100
1000
0000
,
0100
0000
0000
0100
0000
0000
0001
0000
0010
0000
0000
0010
0000
0000
0001
0000
,
1000
0000
0000
1000
0000
0000
0010
0000
1000
0000
0000
1000
0000
0000
0001
0000
,
0100
0000
0000
0100
0000
0000
1000
0000
0001
0000
0000
0001
0000
0000
0010
0000
,
1000
0000
0000
1000
0000
0001
0010
0000
0100
0000
0000
0100
0000
1000
0100
0000
,
0010
0000
0000
0010
0000
0000
0001
0000
1000
0000
1000
0000
0001
1000
0001
1000
,
0010
0100
0000
0001
0000
0010
0001
1000
,
0010
0100
0000
0001
1000
0000
1100
0000
,
0001
0100
0000
0010
0000
1000
0010
1000
,
0001
0010
0100
1000
0000
0000
0101
0000
,
1000
0010
0000
0100
0000
0010
1000
0100
,
0010
0100
1000
0001
0100
0000
1010
0000
,
0001
0010
0000
0100
0000
0010
0001
1000
,
0010
0100
0001
0010
0100
0000
0100
0010
,
0001
0000
0100
0000
0000
0000
0101
0000
0000
0001
0000
0000
0001
0000
0000
0100
,
0000
0000
0010
0000
0000
1000
0000
0000
0100
0000
0000
0000
1000
0000
0100
0000
,
0010
0100
0001
0100
1000
0000
0001
0100
,
0001
0000
0010
0000
0100
0000
1000
0010
,
0100
0000
0010
0000
0000
0000
1010
0000
0000
1000
0000
0000
1000
0000
0000
0100
,
0000
0000
0010
0000
0000
0001
0000
0000
0100
0000
0000
0000
0000
0000
0000
0000
,
0001
0100
0010
1000
0100
0001
0100
1000
,
0001
0000
0001
0000
0010
0001
0100
0100
,
0001
0000
0001
0000
1000
0000
0100
0000
1100
0000
0000
0001
0000
0000
0010
0000
,
0100
0000
1000
0000
0001
0000
0100
0000
0101
0000
0000
0100
0000
0000
0010
0000
,
1000
0000
0001
0000
0010
0000
0100
0000
1100
0000
0000
1000
0000
0000
0010
0000
,
0100
0000
0001
0000
0100
0000
0010
0000
1000
0000
0000
1000
0000
0000
0100
0000
,
0110
0000
0001
0000
1000
0000
0010
0000
0100
0000
0000
0001
0000
0000
1001
0000
,
0000
0000
0001
0000
0010
0000
0100
0000
1000
0000
0000
0010
0000
0000
1010
0000
,
0000
0000
0100
0000
0001
0000
1000
0000
0100
0000
0000
0010
0000
0000
1001
0000
,
0000
0000
0001
0000
0100
0000
0010
0000
0100
0000
0000
0001
0000
0000
1000
0000
,
0100
0010
0000
0000
0001
0000
0100
0010
0000
0000
1000
0000
0001
0000
1000
0000
,
0100
0010
0000
0000
0001
0000
1000
0000
0001
0000
0100
0000
0010
0000
1000
0000
,
0001
0000
0000
0001
0000
0000
0010
0000
0100
0000
0000
0100
0000
0000
0001
0000
,
0100
0000
0000
0100
0000
0000
1000
0000
0001
0000
0000
0001
0000
0000
0100
0000
,
0010
0000
1000
0100
0000
1000
0100
0000
0010
0000
0001
0100
0000
0001
0100
0000
,
0010
0000
0000
0010
0000
0000
1000
0000
0001
0000
0000
0001
0000
0000
0010
0000
,
0001
0000
0000
0001
0000
0000
0100
0000
0010
0000
0000
0010
0000
0000
0100
0000
,
1000
0000
0000
1000
0000
0000
0100
0000
0001
0000
0000
0001
0000
0000
0010
0000
,
0100
0000
1000
0010
0000
1000
0010
0000
0100
0000
0001
0010
0000
0001
0010
0000
,
0100
0000
0000
0100
0000
0000
1000
0000
0010
0000
0000
0010
0000
0000
0001
0000
;

//---------------dance-double - ----------------
#NOTES:
     dance-double:
     :
     Hard:
     11:
     0.468,0.386,0.076,0.000,0.000:
10000000
00010000
10000000
00010000
10000000
01000000
00100000
00001000
,
00010000
00000010
00010000
00000010
00001000
00000100
00001000
00000001
,
00000100
00000010
00000100
00000010
00001000
00000100
00010000
00001000
,
00100000
00010000
00100000
00010000
01000000
00100000
10000000
00010000
,
00100000
00001000
00100000
00001000
00000010
00000100
00001000
00000001
,
00000100
00000010
00000100
00000010
00001000
00000100
00010000
00100000
,
01000000
00010000
01000000
00010000
10000000
01000000
00100000
00001000
,
00010000
00000010
00010000
00000010
00000100
00000001
00001000
00000100
,
00000010
00000001
00001000
00000000
00000010
00001000
00000010
00000100
,
00001000
00000000
00010000
00000000
10000000
01000000
10010000
00000000
,
10000000
00100000
01000000
00000000
10000000
01000000
00001000
00010000
,
00001000
00000000
00000010
00000000
00000001
00000100
00001001
00000000
,
00000001
00000100
00000010
00000000
00001000
00010000
00100000
01000000
,
00010000
00000000
01000000
00000000
10000000
00010000
01100000
00000000
,
00010000
10000000
01000000
00000000
00010000
00001000
00000010
00001000
,
00100000
00000000
00000010
00000000
00001000
00000001
00000100
00000010
,
00000100
00000001
00000000
00000101
00000000
00000000
00001100
00000000
,
00010000
00000000
01000000
00000000
10000000
00000000
00100000
10000000
,
00100000
10000000
00010000
01000000
00010000
01000000
00001000
00010000
,
00001000
00000000
00010000
00000000
00000100
00000000
00000010
00000001
,
00000100
00000001
00000000
00000101
00000000
00000000
00001001
00000000
,
00010000
01000000
10000000
00100000
,
00010000
00001000
00000010
00001000
00010000
00100000
00010000
00000010
,
00000000
00000000
00001000
00000000
00000001
00000001
00000010
00000001
,
00001000
00000010
00000100
00000010
00000001
00000010
00010000
00001000
,
00000000
00100000
00010000
01000000
10000000
01000000
00100000
10000000
,
01000000
00100000
01000000
10000000
01000000
00010000
00001000
00010000
,
00000000
00000100
00001000
00000010
00000001
00000010
00000100
00000001
,
00000010
00000100
00000001
00000100
00001000
00000010
00000100
00001000
,
00000000
00010000
01000000
10000000
00100000
00010000
00100000
10000000
,
01000000
00100000
01000000
10000000
01000000
00010000
00001000
00010000
,
00000000
00001000
00010000
01000000
10000000
00000000
00100000
00010000
,
00001000
00000010
00001000
00000010
00000001
00000100
00000001
00000100
,
00010000
01000000
10000000
01000000
00010000
00100000
10000000
00100000
,
00001000
00010000
00001000
00010000
00100000
10000000
01000000
00010000
,
01000000
00100000
01000000
00100000
00001000
00010000
00001000
00000010
,
00000001
00001000
00000001
00001000
00000010
00000100
00001000
00010000
,
01000000
00100000
01000000
00100000
00010000
10000000
00010000
01000000
,
00100000
10000000
00100000
10000000
01000000
00010000
00001000
00010000
,
00000010
00001000
00000010
00001000
00000001
00000010
00001000
00010000
,
00000100
00001000
00000100
00001000
00000001
00000100
00001000
00010000
,
01000000
10000000
00100000
00010000
00001000
00000010
00001000
00010000
;

//---------------dance-single - ----------------
#NOTES:
     dance-single:
     :
     Medium:
     7:
     0.300,0.295,0.152,0.000,0.000:
1000
1000
0100
0100
,
0010
0010
1000
1000
,
0001
0100
0001
0100
,
1000
0000
1000
0000
0010
0100
0100
0000
,
0001
0001
0100
0100
,
0010
0010
0001
0001
,
1000
0100
1000
0100
,
0001
0000
0001
0000
0010
0100
0100
0000
,
1000
0010
0000
0100
0000
0001
1000
0000
,
1000
0100
0000
0010
0000
0000
1001
0000
,
0001
0100
0000
0010
0000
1000
0100
0000
,
0100
0010
0000
1000
0000
0000
0000
0000
,
0010
0001
0000
0100
0000
1000
0100
0000
,
0010
1000
0000
0100
0000
0000
0000
0000
,
0010
0001
0000
0100
0000
0010
0100
0000
,
0100
0001
0000
1000
0000
0000
0100
0010
,
0100
0010
0000
1001
0000
0001
0000
0100
,
0000
0010
0000
1000
0000
0100
0000
0010
,
0001
0100
1000
0010
,
0001
0000
0100
0000
0010
0000
1000
0001
,
1000
0001
0000
0110
0000
1000
0000
0001
,
0000
0010
0000
0100
0000
1000
0000
0001
,
0010
1000
0100
0001
,
1000
0000
0100
0010
,
1001
0001
0100
0010
,
0100
0001
1000
0100
,
0110
0001
0100
0010
,
1000
0000
0001
0010
1000
0000
0010
0001
,
1001
1000
0010
0100
,
0001
0010
0100
0010
,
0110
0001
0100
1000
,
0100
0000
0001
0100
1000
0000
0100
0001
,
1001
0001
0010
0100
,
1000
0010
1000
0100
,
1100
0100
1000
1000
,
0010
0010
0001
0001
,
1000
0100
1000
0100
,
0101
0010
1100
0010
,
0101
0100
0001
0001
,
0010
0010
1000
1000
,
0001
0100
0001
0100
,
1100
0000
0010
0000
0101
0000
1000
0100
;

//---------------dance-double - ----------------
#NOTES:
     dance-double:
     :
     Challenge:
     10:
     0.378,0.363,0.054,0.000,0.152:
10000000
00000000
00000000
10000000
00000000
00000000
00000000
00000000
00010000
00000000
00000000
00010000
00000000
00000000
00000000
00000000
,
00001000
00000000
00001000
00000001
00000100
00000000
00000100
00000010
,
00010000
00000000
00000000
00010000
00001000
00000000
00100000
00000000
00010000
00000000
01000000
00000000
00100000
00000000
10000000
00000000
,
01000000
00000000
00000000
00100000
00000000
00000000
00001000
00000000
00010000
00000000
00000000
00000100
00000000
00000000
00000010
00000000
,
00000001
00000000
00000000
00000001
00000000
00000000
00000000
00000000
00001000
00000000
00000000
00001000
00000000
00000000
00000000
00000000
,
00010000
00000000
00010000
01000000
00100000
00000000
00100000
10000000
,
00010000
00000000
00000000
00010000
00100000
00000000
01000000
00000000
10000000
00000000
00100000
00000000
01000000
00000000
00001000
00000000
,
00010000
00000000
00000000
00000100
00000000
00000000
00001000
00000000
00000001
00000000
00000000
00000100
00000000
00000000
00000010
00000000
,
00001000
00000100
00000000
00000010
00000000
00001000
00010000
00001000
,
00010000
01000000
00000000
01000000
00000000
00000000
10010000
00000000
,
10000000
00100000
00000000
01000000
00000000
00001000
00010000
00001000
,
00010000
00000010
00000000
00000100
00000000
00000000
00001001
00000000
,
00000001
00000010
00000000
00001000
00000000
00010000
00001000
01000000
,
00001000
00010000
00000000
00010000
00000000
00000000
10010000
00000000
,
10000000
00100000
00000000
00010000
00000000
00001000
00010000
00000010
,
00010000
00001000
00001000
00000010
00000000
00000000
00000001
00000100
,
00000010
00000100
00000000
00000001
00000000
00000010
00000000
00001000
,
00000000
00010000
00000000
01000000
00000000
10000000
00000000
00010000
,
10000000
00100000
10000000
00100000
01000000
00010000
01000000
00010000
,
10000000
00000000
01000000
00000000
00100000
00000000
00001000
00010000
,
00001000
00000010
00000000
00000001
00000000
00000100
00000000
00001000
,
00000000
00010000
00000000
01000000
00000000
10000000
00000000
00010000
,
10000000
00100000
01000000
00010000
00001000
00000010
00000100
00000001
,
00001000
00000000
00000100
00000000
00000010
00000010
00000100
00001000
,
00000000
00000000
00000001
00000000
00000100
00000000
00000010
00000000
00010000
00000000
00000000
00010000
00000000
00000000
00001000
00000000
,
00000000
00000000
00100000
00000000
00010000
00000000
01000000
00000000
00100000
00000000
00000000
10000000
00000000
00000000
00100000
00000000
,
00000000
00000000
10000000
00000000
01000000
00000000
00100000
00000000
00001000
00000000
00000000
00001000
00000000
00000000
00010000
00000000
,
00000000
00000000
00000010
00000000
00001000
00000000
00000001
00000000
00000010
00000000
00000000
00000100
00000000
00000000
00001000
00000000
,
00000000
00000000
01000000
00000000
00100000
00000000
00001000
00000000
00010000
00000000
00000000
00010000
00000000
00000000
00001000
00000000
,
00000000
00000000
00000010
00000000
00000001
00000000
00000100
00000000
00000010
00000000
00000000
00001000
00000000
00000000
00000010
00000000
,
00000000
00000000
00010000
00000000
00001000
00000000
00100000
00000000
00010000
00000000
00000000
00010000
00000000
00000000
00001000
00000000
,
00000000
00000000
00000001
00000000
00000100
00000000
00000001
00000000
00000010
00000000
00000000
00000100
00000000
00000000
00010000
00000000
,
00001000
00000100
00000001
00000010
,
00010000
10000000
00100000
00010000
,
00001000
00000000
00000000
00001000
00000000
00000000
00000000
00000000
00010000
00000000
00000000
00010000
00000000
00000000
00000000
00000000
,
00000010
00000000
00000010
00000100
00000001
00000000
00000001
00000010
,
00000100
00000000
00000000
00000100
00000010
00000000
00001000
00000000
00010000
00000000
00001000
00000000
00100000
00000000
00010000
00000000
,
01000000
00000000
00000000
00100000
00000000
00000000
10000000
00000000
01000000
00000000
00000000
00100000
00000000
00000000
00001000
00000000
,
00011000
00000000
00000000
00010000
00000000
00000000
00000000
00000000
00000001
00000000
00000000
00000001
00000000
00000000
00000000
00000000
,
00000100
00000000
00000100
00001000
00010000
00000000
00010000
00100000
,
10000000
00000000
00000000
10000000
01000000
00000000
00010000
00000000
00001000
00000000
00010000
00000000
00000010
00000000
00001000
00000000
,
00000001
00000000
00000000
00000100
00000000
00000000
00000010
00000000
00001000
00000000
00000000
00010000
00000000
00000000
00011000
00000000
;

//---------------dance-double - ----------------
#NOTES:
     dance-double:
     :
     Medium:
     8:
     0.356,0.409,0.390,0.000,0.000:
10000000
01000000
00010000
00001000
,
00000100
00000101
00000010
00001010
,
00010000
00011000
01100000
10010000
,
00011000
00000001
00011000
10000000
,
10000000
00100000
00010000
00001000
,
00000010
00000011
00000100
00001100
,
00010000
00011000
00000110
00001001
,
00000011
00000100
00011000
00100000
,
10010000
00000000
00010000
00000000
10000000
01000000
00010000
00000000
,
00001000
00000100
00000001
00000000
,
00000001
00000000
00001000
00000000
00000001
00000100
00001000
00000000
,
00010000
00100000
00010000
00000000
,
00000001
00000000
00001000
00000000
00000001
00000010
00001000
00000000
,
00010000
01000000
10000000
00000000
,
10000000
00000000
00010000
00000000
10000000
00100000
00010000
00000000
,
00001000
00000000
00000010
00000000
00000001
00000000
00000100
00000010
,
00000100
00000010
00000000
00001001
00000000
00000000
00000000
00000000
,
00000001
00000000
00000100
00000000
00001000
00000000
00010000
00001000
,
00010000
01000000
10000000
00010000
,
10000000
00000000
00100000
00000000
01000000
00000000
00010000
10000000
,
00010000
10000000
00000000
01100000
00000000
00000000
00000000
00000000
,
10000000
01000000
00010000
00001000
,
00000100
00000001
00001000
00000001
00000100
00000001
00000100
00000001
,
00001000
00000000
00000000
00000000
00000001
00000001
00000100
00001000
,
00000000
00010000
00001000
00010000
00001000
00000000
00100000
00000000
,
00010000
10000000
00010000
10000000
00100000
00000000
01000000
00000000
,
00001000
00010000
00001000
00010000
00000100
00000000
00000100
00000000
,
00000010
00000001
00000010
00000001
00001000
00000000
00000010
00000000
,
00000100
00001000
00000100
00001000
00010000
00000000
01000000
00000000
,
10000000
00100000
10000000
00100000
00010000
00000000
00001000
00000000
,
00000010
00001000
00000010
00001000
00010000
00000000
00000001
00000000
,
00000100
00001000
00000100
00001000
00010000
00000000
01000000
00000000
,
10010000
00100000
01000000
00001000
,
00010000
00000100
00000010
00000001
,
00000101
00000010
00010000
00001000
,
00110000
01000000
10100000
00010000
,
01100000
00011000
00000110
00001001
,
00000011
00000000
00000001
00000100
00001100
00000000
00001000
00010000
,
00011000
00100000
01000000
10000000
,
10100000
01000000
00110000
00001000
,
00011000
00000110
00001001
00000110
,
00010010
00000000
00010000
00001000
00011000
00000000
00010000
01000000
;

//---------------dance-double - ----------------
#NOTES:
     dance-double:
     :
     Easy:
     4:
     0.166,0.204,0.022,0.000,0.000: // measure 1
10000000
00000000
10000000
00000000
,  // measure 2
01000000
00000000
00010000
00000000
,  // measure 3
00001000
00010000
00001000
00010000
,  // measure 4
00000100
00000000
00000010
00000000
,  // measure 5
00000001
00000000
00000001
00000000
,  // measure 6
00000100
00000000
00000010
00000000
,  // measure 7
00010000
00001000
00010000
00001000
,  // measure 8
01000000
00000000
00100000
00000000
,  // measure 9
10000000
00000000
01000000
00000000
,  // measure 10
00010000
00000000
00000000
00000000
,  // measure 11
00000001
00000000
00000100
00000000
,  // measure 12
00001000
00000000
00000000
00000000
,  // measure 13
10000000
00000000
00100000
00000000
,  // measure 14
00010000
00000000
00000000
00000000
,  // measure 15
00000001
00000000
00000010
00000000
,  // measure 16
00001000
00000000
00000000
00010000
,  // measure 17
00011000
00000000
00000000
00001000
00000000
00000000
00000000
00000000
,  // measure 18
00010000
00000000
00000000
00000000
,  // measure 19
01000000
10000000
01000000
10000000
,  // measure 20
00010000
00000000
00000000
00100000
,  // measure 21
00001000
00000000
00000000
00011000
00000000
00000000
00000000
00000000
,  // measure 22
00010000
00000000
00000000
00000000
,  // measure 23
00000001
00000100
00001000
00000100
,  // measure 24
00000001
00000000
00001000
00001000
,  // measure 25
00000001
00000100
00000010
00000000
,  // measure 26
00010000
00001000
00010000
00000000
,  // measure 27
01000000
00100000
00010000
00000000
,  // measure 28
10000000
00100000
10000000
00000000
,  // measure 29
10000000
01000000
00100000
00000000
,  // measure 30
00001000
00010000
00001000
00000000
,  // measure 31
00000010
00000100
00001000
00000000
,  // measure 32
00000001
00000100
00000001
00000000
,  // measure 33
00000010
00000000
00000100
00000000
,  // measure 34
00010000
00000000
00001000
00000000
,  // measure 35
00100000
00000000
01000000
00000000
,  // measure 36
10000000
00000000
00100000
00000000
,  // measure 37
00010000
00001000
00010000
00001000
,  // measure 38
00010000
00000100
00001000
00000100
,  // measure 39
00001000
00000000
00001000
00000000
,  // measure 40
00000001
00000000
00000100
00000000
,  // measure 41
00000010
00000100
00000010
00000100
,  // measure 42
00001000
00000000
00010000
00000000
00001000
00000000
00010000
00001000
;

//---------------dance-single - ----------------
#NOTES:
     dance-single:
     :
     Easy:
     5:
     0.195,0.227,0.054,0.000,0.000:
1000
0000
1000
0000
,
0100
0000
0010
0000
,
0001
0001
1000
1000
,
0100
0000
0010
0000
,
0001
0000
0001
0000
,
0100
0000
0010
0000
,
1000
1000
0001
0001
,
0010
0000
0100
0000
,
1001
0000
0001
0100
,
0010
0100
0001
0000
,
1000
0000
0100
0000
,
0010
0001
0100
0000
,
0010
0000
1000
0100
,
0010
0100
1000
0000
,
0001
0000
0100
0000
,
0010
0100
0001
1000
,
1100
0000
0000
0000
,
0001
0000
0000
0001
,
0100
0010
0100
1000
,
0100
0000
0000
0001
,
1000
0000
0000
0000
,
0100
0000
0000
0000
,
1000
0100
0001
0010
,
1000
0000
0001
0001
,
0011
0010
0100
1000
,
0001
0100
0010
0000
,
1000
0010
0100
0001
,
0010
0100
0010
0000
,
0001
0100
1000
0100
,
0001
1000
0100
0000
,
1000
0100
0001
0100
,
0010
0001
1000
0000
,
1010
0010
1000
0000
,
0001
0010
0001
0010
,
0110
0000
0100
0000
,
1000
0000
0010
0000
,
0100
0100
0010
0010
,
1000
0001
1000
0001
,
0100
0000
0100
0000
,
0010
0000
1000
0000
,
0001
0010
0001
0010
,
0100
0000
1000
0000
0100
0000
0010
0001
;
