#VERSION:0.83;
#TITLE:LIPS NOISE HUNTER;
#SUBTITLE:;
#ARTIST:SOUND HOLIC Vs. T.Kakuta feat. Nana Takahashi;
#TITLETRANSLIT:;
#SUBTITLETRANSLIT:;
#ARTISTTRANSLIT:;
#GENRE:;
#CREDIT:;
#MUSIC:LIPS NOISE HUNTER.ogg;
#BANNER:;
#BACKGROUND:;
#CDTITLE:;
#SAMPLESTART:47.553;
#SAMPLELENGTH:15.000;
#SELECTABLE:YES;
#OFFSET:-0.153;
#BPMS:0.000=200.000
,224.000=150.000
,235.000=200.000
;
#STOPS:;
#BGCHANGES:;
#FGCHANGES:;

//--------------- dance-single - eataninja ----------------
#NOTEDATA:;
#STEPSTYPE:dance-single;
#DESCRIPTION:eataninja;
#DIFFICULTY:Beginner;
#METER:5;
#RADARVALUES:0,0,0,0,0;
#NOTES:
0000
0000
0000
0000
,
0000
0000
0000
0000
,
0000
0000
0000
0000
,
0000
0000
0000
0000
,
0000
0000
0000
0000
0000
0000
0000
0000
0000
0000
0000
1001
,
0000
0000
0000
0000
0000
0000
0000
0000
0000
0000
0000
1001
,
0000
0000
0000
0000
0000
0000
0000
0000
0000
0000
0000
0110
,
0000
0000
0000
0000
0000
0000
0000
0000
0000
0000
0000
0110
,
0000
0000
0000
0000
0000
0000
0100
0000
0000
0000
0000
1001
,
0000
0000
0000
0000
0000
0000
0000
0000
0000
0000
0000
1001
,
0000
0000
0000
0000
0000
0000
0000
0000
0000
0000
0000
0110
,
0000
0000
0000
0000
0000
0000
0000
0000
0000
0000
0000
0110
,
0000
0000
0010
0000
,
1001
0000
0000
0000
,
0200
0000
0000
0300
,
0100
0000
0001
0000
,
1000
0000
0001
0000
,
0010
0100
1000
0000
,
0001
0100
0001
0000
,
1000
0000
0100
0000
,
0001
0000
0100
0000
,
1001
0000
0000
0000
,
0000
0000
0000
0000
,
0001
0000
0100
0000
,
0001
0000
1000
0000
,
0100
0010
0001
0000
,
1000
0010
1000
0000
,
0001
0000
0100
0000
,
1000
0000
0100
0000
,
0002
0000
0000
0000
,
1003
0000
0000
0000
,
1001
0000
0000
0000
,
0110
0000
0000
0000
,
1001
0000
0000
0000
0000
0000
0000
0000
0000
0000
0000
0010
,
0000
0000
0010
0000
0000
0010
0000
0000
0000
0000
0000
0000
,
0001
0000
0010
0000
,
1000
0000
0010
0000
,
0001
0000
1000
0000
,
0010
0000
0100
0000
,
0010
0010
0000
0000
,
1001
0000
0001
0000
,
1001
0000
1000
0000
,
0001
0000
0010
0000
,
0100
0000
1000
0000
,
0001
0001
0100
0000
,
0001
0001
1000
0000
,
0100
0000
0001
0000
,
0100
0000
1000
0000
,
1001
0000
0001
0000
,
1001
0000
1000
0000
,
0001
0000
0100
0000
,
0010
0000
0100
0000
,
0001
0001
1000
0000
,
0001
0001
0010
0000
,
1000
0000
0010
0000
,
0001
0000
0000
0000
,
2002
0000
0000
0000
,
0000
0000
0000
3003
0000
0000
0000
0000
,
0000
0000
0000
0001
,
0000
0100
0000
1000
,
0000
0100
0000
0010
,
0000
0100
0000
0001
,
0000
1000
0000
0100
,
0100
0010
0000
0001
,
0001
1000
0000
0010
,
0100
0010
0100
0002
,
0003
2000
3000
1001
,
0000
0000
0000
0110
,
0000
0000
0000
1001
,
0000
0000
0000
0001
,
0000
0100
0000
0010
,
0000
0100
0000
1000
,
0000
0100
0000
0001
,
0000
1000
0000
0100
,
0100
0010
0010
0001
,
0000
1000
0000
0020
,
0000
0030
0000
0200
,
0000
0300
0000
0002
,
0000
0000
0000
0003
0000
0000
0000
0000
1000
0000
0000
0001
,
0000
0000
1000
0000
0000
0000
0000
0000
0000
0001
0000
0000
,
0001
0100
0000
1000
,
1000
0100
0000
0001
,
0000
1000
0000
0100
,
0000
0010
0000
1001
,
0000
1000
0000
1001
,
0000
0001
0000
1000
,
0000
0010
0000
0100
,
0000
0001
0000
1000
,
1000
0100
0000
0001
,
0001
0100
0000
0010
,
0000
0000
0000
0001
0000
0000
0000
0000
2000
0000
0000
0000
,
0000
3000
0000
1001
,
0000
0000
0000
0000
0000
0000
0000
0000
0110
0000
0000
0000
,
0000
0000
0000
0000
0000
0000
0000
0000
1001
0000
0000
0000
,
0000
0000
0000
0000
0000
0000
0000
0000
0110
0000
0000
0000
,
0000
0000
0000
0000
0000
0000
0000
0000
1001
0000
0000
0000
,
0000
0000
0000
0001
0000
0000
0000
0000
0110
0000
0000
0000
,
0000
0000
0000
0000
0000
0000
0000
0000
1001
0000
0000
0000
,
0000
0000
0000
0000
0000
0000
0000
0000
0110
0000
0000
0000
,
0000
0000
0000
0000
0000
0000
0000
0000
1001
0000
0000
0000
,
0000
0000
0000
1000
0000
0000
0000
0000
0010
0000
0000
0010
,
0000
0000
0100
0000
0000
0100
0000
0000
0002
0000
0000
0000
,
0000
0003
0000
0000
;

//--------------- dance-single - eataninja ----------------
#NOTEDATA:;
#STEPSTYPE:dance-single;
#DESCRIPTION:eataninja;
#DIFFICULTY:Easy;
#METER:9;
#RADARVALUES:0,0,0,0,0;
#NOTES:
0000
0000
0000
0000
,
0000
0000
0000
0000
,
0000
0000
0000
0000
,
0000
0000
0000
0000
,
0000
0000
0000
0000
,
1001
1000
0100
0010
,
1001
0001
0100
0010
,
1010
0001
1000
0100
,
1100
0001
0100
0000
,
1001
0001
0010
0100
,
1001
1000
0010
0100
,
0101
1000
0001
0010
,
0011
1000
0010
0000
,
0200
0000
0302
0000
,
0023
0000
0000
0030
,
0001
0010
0001
1000
,
0100
0010
0001
1000
,
0010
0100
0010
0000
,
0100
0101
0100
0110
,
0001
1000
0100
1000
,
0001
0100
0010
0000
,
1001
0000
0000
0000
,
0000
0000
0000
0000
0000
2200
0000
0000
0000
3300
0000
0000
,
1000
0010
1000
0010
,
0100
0001
1000
0100
,
0010
0001
1000
1000
,
0010
0001
0010
1000
,
0001
0010
0001
1000
,
0010
0100
0010
1000
,
0100
0001
0100
1000
,
0001
0001
0100
0000
,
0110
0000
0000
0000
0000
0200
0000
0000
0000
0300
0000
0000
,
1001
0000
0000
0000
0000
0002
0000
0000
0000
0003
0000
0000
,
0110
0000
0000
0000
0000
0020
0000
0000
0000
0030
0000
0011
,
0000
0000
0001
0000
0000
1000
0000
0000
0010
0000
0000
0110
,
0000
0000
0000
0100
0000
0000
0001
0000
0000
0000
0000
1001
,
0000
0000
0000
1000
0000
0000
0100
0000
0000
0000
0000
0001
,
0000
0100
1000
0100
,
0020
0032
2003
3020
,
0100
0130
0000
0000
,
0101
1000
0001
1000
,
1100
0001
1000
0100
,
0010
1000
0010
0001
,
1000
0010
0100
0100
,
0001
0000
0000
1000
0000
0000
0100
0000
1000
0000
0000
0000
,
0001
0000
0000
0100
0000
0000
0010
0000
0100
0000
0000
0000
,
0001
1000
0100
0001
,
0100
0010
0001
1000
,
1010
0001
1000
0001
,
0011
1000
0001
0010
,
0100
0001
0100
1000
,
0001
0100
0010
0010
,
1000
0000
0000
0001
0000
0000
0010
0000
0001
0000
0000
0000
,
1000
0000
0000
0010
0000
0000
0100
0000
0010
0000
0000
0000
,
0110
0000
0000
0000
0000
0000
1001
0000
0000
0000
0000
0001
,
0000
0010
0100
1000
,
0002
0000
0000
0000
0000
1000
0000
0000
,
0103
0000
0110
0000
,
0100
0000
0000
0001
0000
0000
1000
0000
,
0100
1000
0100
0010
,
0001
0010
0001
1000
,
0010
0100
0010
1000
,
1000
0001
0001
0010
,
0100
0010
1000
0010
,
0100
0010
0001
1000
,
0010
0001
1000
0200
,
0000
0020
0330
0110
,
0000
0000
0100
0000
0000
0000
0000
0000
0000
1001
0000
0000
,
0000
0000
0001
0000
0000
0000
0000
0000
0000
1100
0000
0000
,
0000
0000
0100
0000
0000
0000
0000
0000
0000
0200
0000
0000
,
2300
3002
0203
0310
,
1000
0010
1000
0001
,
0010
0000
0000
0100
0000
0010
0000
0100
0000
2000
0000
0000
,
0000
0000
0000
3002
0000
0000
0000
0000
0000
0103
0000
0010
,
0000
0010
0000
1000
0000
0001
0000
1000
0000
0100
0000
0000
,
0010
0000
0000
0001
0000
0000
0000
0000
0202
0000
0000
0000
,
0000
0000
0000
0303
0000
0000
0000
0000
2002
0000
0000
0000
,
0000
0000
0000
3003
0000
0000
0000
0000
2200
0000
0000
0000
,
0000
0000
0000
3300
0000
0000
0000
0000
0100
0000
0000
0010
,
0000
0000
0001
0000
0000
1000
0000
0000
0000
0010
0000
0000
,
0100
0000
0000
0010
0000
1000
0000
0000
0000
0001
0000
0000
,
0010
0000
0000
0100
0000
0010
0000
0000
0000
0001
0000
0000
,
1000
0100
0001
1000
,
0010
0100
1000
1100
,
0001
1000
0010
0101
,
1000
0001
0010
0100
,
0001
0100
1000
0010
,
0001
1000
0100
0001
,
1000
0000
0000
0100
0000
1000
0000
0000
0000
0010
0000
0000
,
1000
0000
0000
0001
0000
0010
0000
0000
0000
0100
0000
0000
,
1000
0000
0000
0001
0000
0000
0100
0000
0020
0000
0000
0000
,
0000
0000
0000
1030
,
0001
1000
0000
1001
,
1000
0010
0100
1001
,
0001
0010
0100
1100
,
0001
1000
0010
1010
,
0001
0010
0000
1001
,
0001
0100
0010
1001
,
1000
0100
0010
0011
,
1000
0001
0100
0101
,
1000
0000
0000
0100
0000
0000
0000
0000
0110
0000
0000
0110
,
0000
0000
1001
0000
0000
1001
0000
0000
0202
0000
0000
0000
,
0000
0303
0000
0000
;

//--------------- dance-single - eataninja ----------------
#NOTEDATA:;
#STEPSTYPE:dance-single;
#DESCRIPTION:eataninja;
#DIFFICULTY:Medium;
#METER:13;
#RADARVALUES:0,0,0,0,0;
#NOTES:
0000
0000
0000
0000
,
0000
0000
0000
0000
,
0000
0000
0000
0000
,
0000
0000
0000
0000
,
0000
0000
0000
0000
0000
0000
0000
0000
0000
0000
0000
2100
,
0000
0000
3100
0010
0000
0000
0001
0000
1000
0001
0000
0102
,
0000
0000
0103
0010
0000
0000
1000
0000
0001
1000
0000
1200
,
0000
0000
0310
0001
0000
0000
1000
0000
0001
1000
0000
1020
,
0000
0000
0000
0130
0000
0000
0001
0000
1000
0000
0000
0012
,
0000
0000
0013
0100
0000
0000
1000
0000
0001
1000
0000
2010
,
0000
0000
3010
0100
0000
0000
0001
0000
1000
0001
0000
0021
,
0000
0000
0130
1000
0000
0000
0001
0000
1000
0001
0000
0201
,
0000
0000
0000
0310
0000
0000
1000
0000
0001
0000
0000
0010
,
0100
1000
0002
0203
,
2300
0000
0100
3100
,
0010
0000
1000
0010
0000
1000
0000
0000
0001
0010
0000
0100
,
0000
0000
0010
0000
0000
0001
0000
0000
1000
0010
0000
0010
,
0100
0000
0000
0001
0000
1000
0200
0000
0000
0310
0000
0000
,
0001
0011
1000
1010
,
0110
0000
0000
0100
0000
0000
0001
0000
1000
0100
0000
1000
,
0001
0000
0000
0010
0000
0000
1000
0000
0010
0100
0000
0000
,
1001
0000
0000
0000
,
0000
0000
0000
0000
0000
0201
0000
0000
0320
0000
0000
1030
,
0100
0000
0010
0001
0000
1000
0000
0000
0010
0100
0000
0001
,
0000
0000
1000
0000
0000
0001
0000
0000
0010
0100
0000
0010
,
0001
0000
1000
0010
0000
0200
0000
0000
0310
1000
0000
0000
,
0001
0101
1000
1100
,
0001
0000
0000
0010
0000
0000
0100
0000
1000
0001
0000
0000
,
0100
0000
0000
1000
0000
0000
0100
0000
0010
1000
0000
0000
,
0001
0000
0000
1000
0000
0001
0010
0000
0010
0100
0000
0000
,
0200
2300
3002
0203
,
0310
0000
0100
0010
0000
2002
0000
0000
0000
3003
0000
0000
,
1000
0000
0001
0100
0000
0202
0000
0000
0000
0303
0000
0000
,
0001
0000
0010
0100
0000
2002
0000
0000
0000
3003
0000
1100
,
0000
0000
0011
0000
0000
0101
0000
0000
1010
0000
0000
1002
,
0000
0000
0013
0100
0000
0000
0010
0000
0001
0000
0000
2001
,
0000
0000
3010
0100
0000
0000
0010
0000
1000
0000
0000
1002
,
0000
0000
0013
0100
0000
0000
0010
0000
0001
1000
0000
0020
,
0000
0001
0100
1030
,
0001
1000
0001
1000
0000
0000
0000
0000
0000
0000
0000
2000
,
0000
0000
3010
1000
0000
0000
0001
0000
0010
1000
0000
0020
,
0000
0000
0130
0010
0000
0000
0001
0000
1000
0010
0000
0200
,
0000
0000
0310
1000
0000
1000
0001
0000
0010
0100
0000
0002
,
0000
0000
0000
0103
0000
0000
0010
0000
0001
1000
0000
2010
,
0000
0000
3010
0100
0000
0100
0001
0000
1000
0000
0000
1002
,
0000
0000
0013
0100
0000
0100
1000
0000
0001
0100
0000
0000
,
0200
0000
0000
2300
0000
0000
3002
0000
0000
0013
0000
0200
,
0000
0000
0310
1000
0000
1000
0001
0000
0001
0010
0000
0200
,
0000
0000
0310
0001
0000
0000
1000
0000
0010
0001
0000
0020
,
0000
0000
0130
0001
0000
0000
1000
0000
0100
0010
0000
0002
,
0000
0000
1003
0010
0000
0010
0100
0000
0001
0010
0000
0200
,
0000
0000
0000
1300
0000
0000
0001
0000
1000
0010
0000
2010
,
0000
0000
3001
0010
0000
0100
0010
0000
0001
0000
0000
0201
,
0000
0000
0310
1000
0000
0001
1000
0000
1000
0200
0000
0000
,
0302
0000
0000
2003
0000
0000
3020
0000
0000
0130
0000
0120
,
0000
0000
0000
0031
0000
0000
1000
0000
0010
0100
0000
1002
,
0000
0000
0000
0000
0000
0103
0000
0000
,
0001
1000
0100
0000
1001
0000
0000
0000
,
0110
0000
0000
0001
1000
0010
0200
0000
,
0320
0000
0000
0230
0000
0000
0302
0000
0000
1003
0000
0100
,
1000
0000
0100
0001
0000
0100
1000
0000
0100
0020
0000
0000
,
0031
0000
1000
0020
0000
0000
0130
0000
0001
1000
0000
1000
,
0100
0000
0100
0010
0000
0010
0001
0000
0000
1000
0000
0010
,
1000
0000
0010
0100
0000
0010
0001
0000
0000
1000
0000
0100
,
1000
0000
0100
0010
0000
0100
0001
0000
0000
1000
0000
1000
,
0001
0000
0001
0010
0000
0010
0100
0000
0100
2000
0000
0000
,
0001
0000
0000
3200
0000
0000
0320
0000
0000
0031
0000
1000
,
0001
0000
1001
0000
0000
0000
0000
0000
0000
1000
0000
0010
,
1000
0000
1010
0000
0000
0000
0000
0000
0000
0001
0000
0010
,
0001
0000
0011
0000
0000
0000
0000
0000
0000
0010
0000
0100
,
0010
0000
0001
1000
0000
1000
0010
0000
0000
0100
0000
0000
,
1000
0000
0000
0100
0000
0000
0001
0000
0000
1000
0000
0100
,
1000
0000
0000
1001
0000
0001
0000
0010
0000
0210
0000
0000
,
0001
0000
0000
1000
0000
0000
0310
0000
0000
0100
0000
0010
,
0000
0001
0000
1000
0000
0010
0000
0100
0000
0001
1000
0001
,
1000
0000
0001
0010
0000
0000
0000
0000
0000
0200
0000
0000
,
0000
0320
0000
0032
,
0000
2003
0000
3020
,
0000
0000
0000
0230
0000
0000
0000
0000
1300
0000
0000
0100
,
0000
0000
0001
0000
0000
0010
0000
0000
1000
0000
0000
0010
,
1000
0000
0010
0100
0000
0010
0000
0000
1002
0000
0000
1003
,
0010
0000
0100
0010
0000
0010
1000
0000
0000
0001
0000
0010
,
2000
0000
0000
3002
0000
0000
0103
0000
0010
0000
0000
0010
,
0001
0000
0000
1000
0000
0010
1000
0000
1002
0000
0000
0013
,
0100
0000
0100
1000
0000
0001
0100
0000
0201
0000
0000
0310
,
1000
0000
1000
0001
0000
0010
0100
0000
0020
0000
0000
0130
,
0010
0000
0010
0001
0000
1000
0010
0000
0002
0000
0000
0000
,
2003
0000
0000
3100
0000
0010
0100
0000
0102
0000
0000
1003
,
0100
0000
0100
0010
0000
0001
0000
0000
2001
0000
0000
3010
,
0100
0000
0100
0001
0000
1000
0100
0000
0000
0002
0000
0000
,
2003
0000
0000
3020
0000
0000
0130
0000
2100
0000
0000
0000
,
0001
0000
0000
0001
0000
0000
3001
0000
0000
1000
0010
1000
,
0010
0000
0000
0100
0000
0001
1000
0000
1200
0000
0000
1300
,
0001
0000
1000
0010
0000
0010
0100
0000
0201
0000
0000
0301
,
1000
0000
0001
0010
0000
0010
0100
0000
0120
0000
0000
0031
,
1000
0000
0001
0100
0000
0100
0010
0000
2010
0000
0000
3001
,
0100
0000
0000
1000
0000
0000
0100
0000
0201
0000
0000
0301
,
1000
0000
0001
0010
0000
0010
0100
0000
1200
0000
0000
1300
,
0001
0000
1000
0010
0000
0010
0100
0000
0120
0000
0000
1030
,
0001
0000
1000
0100
0000
0100
0010
0000
0012
0000
0000
1003
,
0100
0000
0000
0010
0000
0001
0010
0000
0011
0000
0000
0011
,
0000
0000
1010
0000
0000
1010
0000
0000
2002
0000
0000
0000
,
0000
3003
0000
0000
;

//--------------- dance-single - eataninja ----------------
#NOTEDATA:;
#STEPSTYPE:dance-single;
#DESCRIPTION:eataninja;
#DIFFICULTY:Hard;
#METER:16;
#RADARVALUES:0,0,0,0,0;
#NOTES:
0000
0000
0000
0000
,
0000
0000
0000
0000
,
0000
0000
0000
0000
,
0000
0000
0000
0000
,
0000
0000
0000
0000
0000
0000
0000
0000
0000
0000
0000
1002
,
0000
0000
1003
0100
0000
0100
0010
0001
1000
0010
0000
2001
,
0000
0000
3001
0100
0000
0100
0010
1000
0001
0010
0000
0210
,
0000
0000
0310
0001
0000
0001
1000
0001
0100
0010
0000
0120
,
0000
0000
0130
0001
0000
0000
1000
0000
0100
0000
0000
2001
,
0000
0000
3001
0010
0000
0010
0100
1000
0001
0100
0000
1002
,
0000
0000
1003
0010
0000
0010
0100
0001
1000
0100
0000
0120
,
0000
0000
0130
1000
0000
1000
0001
1000
0010
0100
0000
0210
,
0000
0000
0310
1000
0000
0000
0001
0000
0020
0000
0000
0031
,
1000
0000
0000
1000
0000
0000
0010
0100
0001
1000
0001
0010
,
0200
0302
2003
3020
,
0031
0000
1000
0001
0000
0100
0000
0000
0001
1000
0000
0010
,
0000
0000
0001
0000
0000
0010
0000
0000
0100
0010
0000
0010
,
1000
0000
0000
0001
0000
0010
0002
0000
0000
2003
0000
0000
,
3100
0110
0001
1001
,
1000
0000
0100
0010
0000
0100
1000
0000
0001
0100
0000
0100
,
0010
0000
0000
1000
0000
0001
0010
0001
1000
0100
0000
0000
,
1001
0000
0000
0000
,
0000
0000
0000
0000
0000
1000
0001
0010
0001
1000
0010
0100
,
0001
0000
1000
0010
0000
1010
0000
0000
1000
0001
0000
0011
,
0000
0000
0010
0100
0000
0020
0000
0000
0031
1000
0000
1000
,
0010
0000
0000
0001
0000
0020
0000
0000
1030
0010
0000
0000
,
1000
0000
1000
0001
0000
0001
0010
0000
0100
1000
0000
0001
,
0100
0000
0000
0110
0000
0100
0001
1000
0001
0010
0000
0000
,
0100
0000
0000
0110
0000
0010
0100
1000
0001
0100
0000
0000
,
2001
3002
0203
0320
,
1030
0000
1000
0001
0000
0010
0001
1000
0010
0100
0000
0000
,
1001
0000
1000
0010
0000
2002
0000
0000
0000
3003
0000
0000
,
1001
0000
0001
0010
0000
2002
0000
0000
0000
3003
0000
0000
,
0011
0000
0001
0100
0000
2002
0000
0000
0000
3003
0000
1100
,
0000
0000
0101
0000
0000
0011
0000
0000
1010
0000
0000
2001
,
0000
0000
3001
1000
0000
0100
0001
0000
0100
0010
0000
0012
,
0000
0000
0103
0010
0000
1000
0001
0000
0100
0010
0000
2001
,
0000
0000
3100
0010
0000
0000
0001
0000
0001
0100
0000
2000
,
0000
3200
0302
0023
,
0130
1000
0100
1000
0000
0000
0001
0000
0100
0010
0000
1002
,
0000
0000
1003
0100
0000
0100
0010
0000
0010
0001
0000
2001
,
0000
0000
3001
0100
0000
0100
0010
0000
0010
1000
0000
2010
,
0000
0000
3100
0001
0000
0001
0100
0000
0100
1000
0000
0020
,
0000
0000
0130
0001
0000
0000
1000
0100
0010
0001
0000
2001
,
0000
0000
3010
0100
0000
0001
0010
0000
1000
0000
0000
0012
,
0000
0000
0103
0010
0000
1000
0100
0000
0001
0100
0000
0000
,
0010
0000
0001
0010
0000
0000
0001
1000
0010
0100
0000
1001
,
0000
0000
1000
0010
0000
0000
1000
0000
0001
0010
0000
2001
,
0000
0000
3001
0010
0000
0010
0100
0000
0100
1000
0000
1002
,
0000
0000
1003
0010
0000
0010
0100
0000
0100
0001
0000
0102
,
0000
0000
0013
1000
0000
1000
0010
0000
0010
0001
0000
0200
,
0000
0000
0310
1000
0000
0000
0001
0010
0100
1000
0000
1002
,
0000
0000
0103
0010
0000
1000
0100
0000
0001
0000
0000
2100
,
0000
0000
3010
0100
0000
0001
0010
0000
1000
0010
0000
0000
,
0001
0010
0001
0010
0000
0000
0001
1000
0010
0100
0000
0102
,
0000
2003
3200
0310
,
0011
0000
0000
0000
0000
1001
0000
0000
,
1010
0110
1001
0000
1100
0000
0000
0000
,
1001
0000
0000
0011
1001
1010
0020
0000
,
0230
0000
0000
0302
0000
0000
0023
0000
0000
0130
1000
0001
,
1000
0000
0001
0010
0100
0010
0001
0000
1000
0020
0000
0000
,
0031
0000
0000
0020
0000
0000
1030
0000
0000
0001
0010
0001
,
1000
0100
1000
0001
0100
0001
1000
0010
1000
0001
0000
0001
,
0100
0000
0100
0010
1000
0001
0020
0000
0030
0010
0000
0010
,
0001
0000
0001
1000
0010
1000
0200
0000
0300
0001
0100
0001
,
0100
0000
0100
0010
0001
0010
0001
0000
0001
1000
0010
0100
,
0001
0000
0000
0010
0100
1000
0001
0000
0000
1000
0001
1000
,
0010
0000
1001
0000
0000
0000
0000
0000
0000
0001
1000
0001
,
0010
0000
1001
0000
0000
0000
0000
0000
0000
0001
0100
0010
,
1000
0000
0001
0100
0000
0100
0010
0000
0010
1000
0000
0100
,
0001
0000
0100
0010
0000
0001
0020
0000
0000
0031
0000
1000
,
0001
0000
0000
0010
0000
0100
0010
0000
0100
1000
0000
1000
,
0001
0000
0000
0101
0000
1010
0000
1001
0000
0002
0000
0000
,
2003
0000
0000
3200
0000
0000
0320
0000
0000
0031
0000
0200
,
0300
0200
0300
1000
0000
0020
0030
0020
0030
0001
0100
0010
,
0100
0001
1000
0100
0000
0100
0010
0000
2001
0000
0000
0000
,
0100
0000
3100
1002
,
0100
0000
0103
0120
,
1030
0000
0000
1002
0000
0000
0013
0000
0110
0000
0000
1100
,
0000
0000
0101
0000
0000
1000
0001
0000
2001
0000
0000
3010
,
0100
0000
0001
0010
0000
1000
0000
0000
0012
0000
0000
1003
,
0010
0000
0010
0100
0000
0100
0001
0000
0000
1000
0000
0001
,
1000
0000
0000
0001
0010
0100
1000
0000
2001
0000
0000
3010
,
0100
0000
0000
0110
0000
0010
0100
0000
1002
0000
0000
0013
,
0100
0000
0000
0010
0001
1000
0010
0000
2001
0000
0000
3010
,
0100
0000
0000
0010
1000
0100
0010
0000
0012
0000
0000
1003
,
0010
0000
0010
0001
0000
0010
1000
0000
1002
0000
0000
0013
,
1000
0000
1000
0001
0000
0001
0100
0000
0120
0000
0000
0031
,
1000
0010
1000
0100
0000
0001
0000
0000
2100
0000
0000
3001
,
1000
0010
0100
0010
0000
0010
1000
0000
0000
0001
0010
0001
,
0010
0000
0000
0001
1000
0010
0100
0000
1002
0000
0000
0000
,
0100
0000
0000
0100
0000
0000
0103
0000
0000
0001
1000
0001
,
0010
0000
0100
0010
0000
0100
1000
0000
1002
0000
0000
0103
,
0010
0100
0001
1000
0100
0010
0001
0000
2001
0000
0000
3010
,
0100
0010
1000
0001
0010
0100
1000
0000
1200
0000
0000
0310
,
0001
1000
0001
0100
0010
0100
0001
0000
0201
0000
0000
0000
,
1000
0000
0000
0310
0000
0000
1000
0000
2001
0000
0000
3010
,
0100
0010
1000
0001
0010
0100
1000
0000
1002
0000
0000
0103
,
0010
0100
0001
1000
0100
0010
0001
0000
0021
0000
0000
0130
,
1000
0001
1000
0010
0100
0010
1000
0000
1020
0000
0000
0000
,
0032
0000
0000
0013
0100
0001
1000
0000
1100
0000
0000
1100
,
0000
0000
1100
0000
0000
1100
0000
0000
0022
0000
0000
0000
,
0000
0033
0000
0000
;
