#VERSION:0.83;
#TITLE:LIGHTNING STRIKES;
#SUBTITLE:;
#ARTIST:BEMANI Sound Team "HuΣeR";
#TITLETRANSLIT:;
#SUBTITLETRANSLIT:;
#ARTISTTRANSLIT:;
#GENRE:Hi-GAIN ENERGY;
#CREDIT:;
#MUSIC:LIGHTNING STRIKES.ogg;
#BANNER:LIGHTNING STRIKES.png;
#BACKGROUND:LIGHTNING STRIKES-bg.png;
#CDTITLE:;
#SAMPLESTART:68.581;
#SAMPLELENGTH:13.793;
#SELECTABLE:YES;
#OFFSET:-0.995;
#BPMS:0.000=174.000;
#STOPS:;
#BGCHANGES:0.000=LIGHTNING STRIKES.mp4=1.000=1=0=0=StretchNoLoop==CrossFade==;
#FGCHANGES:;

//--------------- dance-single - ----------------
#NOTEDATA:;
#STEPSTYPE:dance-single;
#CREDIT:Kikoia;
#DESCRIPTION:;
#DIFFICULTY:Beginner;
#METER:4;
#RADARVALUES:0,0,0,0,0;
#NOTES:
0000
0000
0000
0000
,
0000
0000
0000
0000
,
0000
0000
0000
0000
,
0000
0000
0000
0000
,
0000
0000
0000
0000
,
0001
0000
0000
0000
,
1000
0000
0000
0000
,
0001
0000
0000
0000
,
0010
0000
0000
0000
,
0001
0000
0000
0000
,
0100
0100
0000
0000
,
1000
0000
0000
0000
,
0100
0100
0000
0000
,
1000
0000
1000
0000
,
0010
0000
0010
0000
,
0100
0000
0100
0000
,
0001
0000
0000
0000
,
1000
1000
1000
0000
,
1000
1000
1000
0000
,
0001
0001
0001
0000
,
0001
0001
0001
0000
,
0010
0010
0010
0000
,
0010
0010
0010
0000
,
0100
0100
0200
0000
,
0300
0000
0000
0000
,
1001
0000
1000
0000
,
0100
0000
0000
0000
,
0001
0000
0001
0000
,
0100
0000
0000
0000
,
1000
0000
0010
0000
,
0001
0000
0010
0000
,
1000
0000
0010
0000
,
0100
0000
0001
0000
,
1001
0000
0001
0000
,
0100
0000
0100
0000
,
1000
0000
1000
0000
,
0100
0000
0100
0000
,
0001
0000
0010
0000
,
1000
0000
0010
0000
,
0001
0000
0010
0000
,
0100
0100
0100
0000
,
1001
0000
0000
0000
,
0000
0000
0000
0000
,
0110
0000
0000
0000
,
0000
0000
0000
0000
,
2000
0000
0000
0000
,
3000
0000
0000
0000
,
0002
0000
0000
0000
,
0003
0000
0000
0000
,
1000
0000
0001
0000
,
0100
0100
0000
0000
,
0001
0000
1000
0000
,
0100
0100
0000
0000
,
0001
0000
0001
0000
,
0010
0000
0010
0000
,
0100
0000
0100
0000
,
1000
0000
1000
0000
,
0001
0000
0100
0000
,
0010
0010
0010
0000
,
1000
0000
0100
0000
,
0010
0010
0010
0000
,
0001
0000
1000
0000
,
0010
0010
0010
0000
,
1000
0000
0001
0000
,
0010
0010
0020
0030
,
0001
0000
0100
0000
,
0001
0000
1000
0000
,
0100
0000
1000
0000
,
0010
0000
1000
0000
,
0001
0000
0010
0000
,
0001
0000
1000
0000
,
0010
0000
0010
0000
,
0010
0010
0010
0000
,
0001
0001
0001
0000
,
0001
0001
0001
0000
,
1000
1000
1000
0000
,
1000
1000
1000
0000
,
0100
0100
0100
0000
,
0100
0100
0100
0000
,
0010
0010
0020
0000
,
0030
0000
0000
0000
,
2002
0000
3003
0000
;

//--------------- dance-single - ----------------
#NOTEDATA:;
#STEPSTYPE:dance-single;
#CREDIT:Kikoia;
#DESCRIPTION:;
#DIFFICULTY:Easy;
#METER:8;
#RADARVALUES:0,0,0,0,0;
#NOTES:
0000
0000
0000
0000
,
0000
0000
0000
0000
,
0000
0000
0000
0000
,
0000
0000
0000
0000
,
0000
0000
0000
0000
,
0001
1000
0100
0010
,
0001
0100
0010
1000
,
0001
0010
0100
0010
,
0001
0000
0001
0000
1000
0001
2000
0000
,
3010
0010
0100
0100
,
0001
1000
0001
0000
1000
0001
1000
0000
,
0100
0100
0010
0010
,
0001
1000
0001
0000
1000
0000
0100
0100
,
0000
0100
0100
0000
1000
0000
0001
0000
,
0100
0000
0010
0010
0000
0010
0010
0000
,
0100
0001
0100
0000
0010
1000
0010
0000
,
1000
0100
0001
0010
,
0001
1000
0001
1000
,
0010
0100
0010
0100
,
0001
1000
0001
1000
,
0100
0010
0100
0010
,
0001
0100
0001
0100
,
0010
1000
0010
1000
,
0001
0000
0010
0000
0100
0000
1000
1000
,
0000
0000
0010
1001
,
1000
0100
0001
0100
,
1000
0000
0001
0000
0100
0100
0000
0100
,
0001
0100
1000
0100
,
0001
0000
1000
0000
0100
0000
0100
0100
,
1000
0001
0010
0001
,
1000
0100
0010
0100
,
1000
0000
0010
0000
0100
0100
0100
0000
,
0001
0000
0010
0000
0100
0100
0100
0000
,
1000
1001
0001
0010
,
1000
0010
0001
1000
,
0010
0001
0010
1000
,
0001
0001
0000
0001
0001
0000
1000
0001
,
1000
0010
0100
0010
,
1000
0001
0010
0001
,
1000
0000
0001
0000
0010
0000
0100
0100
,
0000
1000
1000
0000
0110
0000
0110
0000
,
1002
0000
0000
0000
,
0203
0000
0000
0000
,
0320
0000
0000
0000
,
2030
0000
0000
0000
,
3200
0000
0000
0000
,
0320
0000
0000
0000
,
0031
0000
0000
0000
,
1000
0000
0000
1000
0000
0000
1000
0000
,
0001
0001
0010
0010
,
0100
0000
0100
0000
1000
0001
1000
0000
,
0010
0010
0100
0100
,
0001
0000
0001
0000
1000
0100
1000
0000
,
0010
0010
1000
1000
,
0001
0001
0010
0010
,
0001
1000
0001
0000
1000
0001
1000
0000
,
0100
0000
0000
0000
,
0110
0000
1001
0000
0001
0100
0010
0000
,
1000
0001
0010
0100
,
0110
0000
1001
0000
1000
0100
0010
0000
,
0001
0100
1000
0100
,
0001
0000
1001
0000
1000
0010
0100
0000
,
0001
0010
0100
1000
,
0001
0100
0001
0000
1000
0010
1000
0000
,
0001
0000
0010
0000
0100
0100
0100
0000
,
1000
0010
0100
0010
,
1000
0001
0010
0100
,
1000
0001
0100
0001
,
1000
0100
0010
0001
,
0100
0010
0100
0001
,
0010
0100
0010
0001
,
1000
0001
1000
0000
0100
0010
0100
0000
,
1000
0010
0100
0001
,
1000
1001
1000
0001
,
0010
0100
0010
0100
,
1000
0001
1000
0001
,
0100
0010
0100
0010
,
1000
0100
1000
0100
,
0010
0001
0010
0001
,
1000
0000
0010
0000
0100
0000
0001
0001
,
0000
0000
0010
1001
,
0200
0000
0300
0000
;

//--------------- dance-single - ----------------
#NOTEDATA:;
#STEPSTYPE:dance-single;
#CREDIT:Kikoia;
#DESCRIPTION:;
#DIFFICULTY:Medium;
#METER:14;
#RADARVALUES:0,0,0,0,0;
#NOTES:
0000
0000
0000
0000
,
0000
0000
0000
0000
,
0000
0000
0000
0000
,
0000
0000
0000
0000
,
0000
0000
0000
0000
,
1000
0000
0100
0000
0010
0001
2000
0000
,
3001
0000
0100
0000
0010
1000
0002
0000
,
0103
0001
0100
0001
1000
0010
1000
0010
,
1000
0001
1000
0000
0100
0000
0010
0000
0001
0000
0100
0000
0110
0000
0000
0000
,
1001
0000
1100
0000
0101
0000
1000
0010
,
1000
0100
0001
0100
0010
0001
1000
0010
,
0100
0000
0110
0000
1001
0000
0001
0010
,
0001
0100
1000
0100
0010
1000
0100
0100
,
0010
0001
1000
1000
0010
0100
0001
0001
,
1000
0100
0010
0010
0001
0100
0010
0010
,
1000
0000
0100
0000
1000
0001
1000
0000
0001
0000
0100
0000
0001
1000
0001
0000
,
0010
0000
0000
0000
0000
0100
0110
0000
,
1000
0001
1001
0000
1000
0100
0010
0001
,
0100
0000
0010
0000
0100
0000
0001
0000
1000
0000
0010
1000
0010
0000
0000
0000
,
0100
0001
1001
0000
0001
0010
0100
1000
,
0010
0000
0100
0000
0010
0000
1000
0000
0100
0000
0010
0001
0010
0000
0000
0000
,
0100
1000
1001
0000
1000
0010
0100
0001
,
1000
0100
0100
0001
0100
0100
1000
0001
,
0200
0000
0320
0000
2030
0000
3001
0001
,
0000
1000
1000
0010
1000
0100
0110
0000
,
1000
0100
0010
0100
1000
0100
0010
0100
,
1000
0100
0010
0100
0001
0100
0000
1000
,
0001
0100
0010
0100
0001
0100
0010
0100
,
0001
0100
0010
0100
1000
0100
0001
1000
,
0100
1000
0100
1000
0100
0000
1000
0100
1000
0100
1000
0000
0001
0000
0100
0000
,
0010
1000
0010
1000
0010
0000
1000
0010
1000
0010
1000
0000
0001
0000
0010
0000
,
0200
0000
2300
0000
3001
0001
2000
0000
,
3002
0000
0203
0000
0310
0010
2000
0000
,
3001
1000
2002
3003
1000
0010
0100
0010
,
1000
0000
0001
0000
0010
0000
0100
0000
1000
0000
0001
0000
0100
0001
0100
0000
,
0001
0000
1000
0000
0100
1000
0100
0000
0010
0000
0001
0000
1000
0001
1000
0000
,
0200
0310
0200
1300
0200
0310
0200
1300
,
0001
1000
0001
1000
0001
0000
1000
0001
1000
0001
1000
0000
0010
0000
0100
0000
,
0001
0100
0001
0100
0001
0000
0100
0001
0100
0001
0100
0000
0001
0000
1000
0000
,
0200
0000
0320
0000
0032
0000
1003
1000
,
0000
0001
0001
1000
0010
0100
0110
0000
,
2001
0000
0000
0000
,
3200
0000
0000
0000
,
0320
0000
0000
0000
,
0032
0000
0000
0000
,
0203
0000
0000
0000
,
0320
0000
2030
0000
,
3002
0000
0000
0003
,
0001
1000
0001
0000
0000
0000
0100
0000
0000
0010
0000
0000
1000
0000
0001
0000
,
0010
0001
0100
0001
1000
0100
0010
0001
,
0100
1000
0100
0001
1000
0010
1010
0000
,
1000
0010
1000
0100
1000
0001
0100
0010
,
1000
0001
0010
1000
0010
0001
0100
0100
,
0001
1000
0100
0010
0001
1000
1100
0000
,
1000
0001
0100
0010
1000
0001
0101
0000
,
0001
0000
0010
0000
0100
1000
0001
0000
0100
0000
0010
0000
1000
0100
0010
0000
,
0001
0000
0000
0100
0020
0000
0000
0000
1030
0001
1000
0000
2001
0000
0000
0000
,
3010
0000
1000
0001
0010
0000
0100
1000
0001
0000
0100
0000
1000
0000
0100
0000
,
0001
0000
1000
0000
0100
0000
0010
0000
0001
0000
0100
0010
0100
0000
0001
0000
,
0010
0000
0100
1000
0001
0000
0100
0010
1000
0000
0100
0000
0001
0000
0100
0000
,
1000
1000
0001
0001
0100
0100
0001
0010
,
0100
0000
1000
0001
0100
0000
0010
1000
0001
0000
0010
0000
1000
0000
0010
0000
,
0001
0100
0010
1000
0100
0010
0020
0000
,
0130
1000
0100
1000
0100
0000
1000
0001
1000
0001
1000
0000
0100
0000
0010
0000
,
0001
0100
0010
0100
1000
0100
0001
0000
,
1001
0000
0011
0000
1010
0000
0001
0100
,
0001
0100
0010
1000
0001
0010
0100
1000
,
0010
0000
0110
0000
1001
0000
0001
0010
,
0001
0010
0100
1000
0001
0100
0010
1000
,
0001
0010
0100
0100
1000
0010
0100
0100
,
0001
1000
0100
0100
0010
0001
1000
1000
,
0010
0000
1000
0000
0001
1000
0001
0000
1000
0000
0100
0000
1000
0001
1000
0000
,
0010
0000
0000
0000
0000
0100
0110
0000
,
0001
1000
1001
0000
0001
0100
0010
1000
,
0100
0000
0010
0000
0100
0000
1000
0000
0001
0000
0010
0100
1000
0000
0000
0000
,
0001
1000
1001
0000
1000
0010
0100
0001
,
0010
0000
0100
0000
0010
0000
0001
0000
0100
0000
0010
1000
0001
0000
0000
0000
,
1000
0001
1001
0000
0001
0010
0100
1000
,
0001
0100
0100
1000
0100
0100
0001
1000
,
0200
0000
0320
0000
0032
0000
1003
1000
,
0000
0001
0001
0010
0001
0100
0110
0000
,
2002
0000
3003
0000
;

//--------------- dance-single - ----------------
#NOTEDATA:;
#STEPSTYPE:dance-single;
#CREDIT:Kikoia;
#DESCRIPTION:;
#DIFFICULTY:Hard;
#METER:17;
#RADARVALUES:0,0,0,0,0;
#NOTES:
0000
0000
0000
0000
,
0000
0000
0000
0000
,
0000
0000
0000
0000
,
0000
0000
0000
0000
,
0000
0000
0000
0000
,
1000
0000
0100
0000
0010
0000
0001
1000
0000
0010
0100
0000
0110
0000
0000
0000
,
0001
0000
0100
0000
0010
0000
1000
0001
0000
0010
0100
0000
0110
0000
0000
0000
,
0001
0000
1000
0000
0010
0000
1000
0100
0000
0010
0001
0000
1000
0000
0010
0000
,
0100
0010
0100
0010
0100
0000
0001
0010
0000
0100
1000
0000
2001
0000
0000
0000
,
3010
1000
0001
1000
0100
1000
0001
0100
,
0001
0010
0001
0000
1000
0000
0010
0000
1000
0000
0100
0000
0200
0000
0000
0000
,
0310
0000
0001
0000
1000
0000
0001
0000
0100
0000
0001
0000
1000
0100
1000
0000
,
0001
0000
0010
0000
0100
0000
1000
0000
0001
0100
0001
0000
1000
0100
0010
0001
,
2000
0100
3002
0000
0100
0100
0010
0000
,
0103
0010
2000
0000
0100
0100
0010
0000
,
3001
0000
0010
0000
0100
1000
0100
1000
0001
0000
0100
0000
0010
1000
0001
0010
,
0000
0000
0000
0000
0000
0000
0000
0000
0000
0000
0100
1000
0010
0000
0000
0000
,
0110
0100
1002
0000
0013
0100
1000
0001
,
0100
0000
0010
0000
0010
0000
1000
0000
0100
0010
0001
0000
0011
0000
0010
0000
,
0110
0100
1001
0000
1000
0010
0100
0001
,
1000
0100
1000
0000
0001
0100
0001
0000
1000
0100
0010
0001
1000
0000
0010
0000
,
0110
0100
2001
0000
3010
1000
0100
0010
,
0001
0000
0100
0000
0100
0000
0010
0000
1000
0000
1000
0000
0100
0010
0001
0000
,
1000
0001
1000
0001
0100
0001
0100
0001
1000
0010
0100
0001
0010
0100
1000
0000
,
0000
0000
0010
0000
0010
0000
1000
0000
0001
0010
0100
0000
1001
0000
0000
0000
,
1000
0100
0010
0100
0001
0100
0010
0100
,
1000
0010
1000
0100
0010
0001
0000
0001
,
1000
0010
0100
0010
0001
0010
0100
0010
,
1000
0000
0001
0000
0010
0000
0001
0000
0100
0010
1000
0001
0010
0100
1000
0001
,
1000
0100
0010
0200
0001
0000
1300
0100
0010
0200
0001
0000
1300
0100
0010
0001
,
1000
0010
0100
0020
0001
0000
1030
0010
0100
0020
0001
0000
1030
0010
0100
0001
,
1000
0001
1000
0001
0010
0100
2000
0000
3001
0100
0001
0100
0010
1000
0200
0000
,
1300
0010
0100
0001
0010
0100
1000
0001
0100
0000
0010
0000
0110
0000
0000
0000
,
0100
0100
2002
3003
0001
0100
1000
0100
,
0001
0010
0100
1000
0010
1000
0100
1000
,
0001
0010
1000
0010
0001
0100
0001
0010
,
0001
2000
0100
0000
3001
2000
0100
0000
3001
0100
0010
1000
0001
0010
0100
1000
,
0001
0100
0010
0200
1000
0000
0301
0100
0010
0200
1000
0000
0301
0100
0010
1000
,
0001
0010
0100
0020
1000
0000
0031
0010
0100
0020
1000
0000
0031
0010
0100
1000
,
0001
1000
0001
1000
0010
0100
0002
0000
1003
0100
1000
0100
0010
0001
0200
0000
,
0310
1000
0010
1000
0001
0010
0100
1000
0001
0100
0010
1000
0100
0000
0000
0000
,
1002
0000
0000
0203
0000
0000
0302
0000
,
0023
0000
0000
0000
0000
0031
0010
0001
,
1000
1000
0000
1000
0100
1000
0010
0010
,
0000
0000
1000
0010
1000
0001
0010
0100
1000
0000
0100
0000
0001
0000
0100
0000
,
2000
0000
0000
0000
0000
0000
0000
0000
0000
0000
3001
0100
0001
0100
0010
0000
,
1000
0100
1000
0100
0010
0000
0001
1000
0001
1000
0010
1000
0001
0010
0100
1000
,
0001
0100
0010
1000
0001
0010
0001
0100
0001
1000
0100
0010
0001
1000
0010
1000
,
0001
0100
0001
0100
0001
0000
0010
0100
0000
1000
0001
0100
0010
1000
0100
0010
,
0002
0010
2003
0010
3002
0100
2003
0100
,
3001
0010
0100
1000
0020
0100
1030
0000
,
0002
0100
2003
0100
3002
0010
2003
0010
,
3001
1000
0100
0010
0002
0100
1003
1000
,
0001
0000
0100
0000
0010
0000
1000
0000
0100
0010
0001
0000
1001
0000
0000
0000
,
1000
0000
0010
0000
0100
0000
0001
0000
0010
0100
1000
0000
1001
0000
0000
0000
,
0001
0000
0100
0010
0100
0000
0001
0000
1000
0000
0100
0010
0100
0000
1000
0000
,
0001
0000
0100
0010
2000
0000
0000
0000
3001
0010
0100
0000
1002
0000
0000
0000
,
0013
0000
0001
0100
0010
0000
1000
0100
0010
0000
0001
0000
0100
0000
1000
0000
,
0100
0000
0001
1000
0100
0000
0010
0000
0001
0000
1000
0100
1000
0001
0100
0010
,
1000
0000
0001
0010
0100
0000
1000
0010
0100
0000
0001
0000
0010
0000
1000
0000
,
0010
0100
0010
0000
0001
1000
0001
0000
0100
0010
0100
0000
0001
1000
0100
0010
,
0001
0000
0100
0010
1000
0000
0100
0010
0001
0000
1000
0000
0010
0000
0001
0000
,
0010
0000
1000
0001
0010
0000
0100
0000
1000
0000
0001
0100
0001
0010
0100
1000
,
0001
0100
0001
0100
0010
0000
1000
0001
0010
0000
0100
0000
1000
0001
1000
0001
,
0010
0100
1000
0010
0100
0001
1000
0100
1000
0001
0100
0001
0020
0000
0000
0000
,
0032
0100
2003
0100
3002
0010
2003
0010
,
3001
0000
1000
0000
0100
0000
0001
0000
0100
0000
1000
0010
0100
0000
0001
0000
,
2000
0100
3002
0100
2003
0010
3002
0010
,
1003
0000
0001
0000
0100
0000
1000
0000
0100
0000
0001
1000
0100
0010
0001
1000
,
0010
0000
0100
0001
0010
0000
0100
0000
1000
0010
0100
0010
1000
0000
0001
0000
,
0010
0000
0100
1000
0010
0000
0100
0000
0001
0010
0100
0010
0001
0000
1000
0000
,
0010
0100
0010
0100
0001
1000
0001
1000
0100
0010
0001
0100
0010
1000
0001
0010
,
0200
0000
0000
0000
0000
0000
0000
0000
1300
0001
0100
0000
0101
0000
0000
0000
,
1000
1000
2001
0000
3010
0100
0001
0010
,
0001
0000
0100
0000
0001
0000
1000
0000
0100
0010
0001
0000
0011
0000
0010
0000
,
0110
0100
1001
0000
1000
0010
1000
0100
,
0010
0001
0100
0000
0010
1000
0100
0000
0010
0001
0100
0010
1000
0000
0010
0000
,
0110
0100
1002
0000
0013
0001
0100
0001
,
1000
0000
0100
0000
0100
0000
0010
0000
0001
0000
0001
0000
1000
0010
0100
0000
,
0001
1000
0001
1000
0100
0010
0100
0010
0001
0100
0010
1000
0100
0010
0001
0000
,
0000
0000
0100
0000
0100
0000
0001
0000
1000
0010
0100
0000
0110
0000
0000
0000
,
2002
0000
3003
0000
;
