#VERSION:0.83;
#TITLE:Kuusou Mesorogii;
#SUBTITLE:;
#ARTIST:Yousei Teikoku;
#TITLETRANSLIT:;
#SUBTITLETRANSLIT:;
#ARTISTTRANSLIT:;
#GENRE:;
#ORIGIN:;
#CREDIT:;
#BANNER:sc2024-banner.png;
#BACKGROUND:sc2024-background.png;
#PREVIEWVID:;
#JACKET:Kuusou Mesorogii-jacket.png;
#CDIMAGE:;
#DISCIMAGE:;
#LYRICSPATH:;
#CDTITLE:scr-cdtitle.png;
#MUSIC:Kuusou Mesorogii-audio.ogg;
#OFFSET:0.000000;
#SAMPLESTART:52.174000;
#SAMPLELENGTH:16.695999;
#SELECTABLE:YES;
#BPMS:0.000=230.000;
#STOPS:;
#DELAYS:;
#WARPS:;
#TIMESIGNATURES:0.000=4=4;
#TICKCOUNTS:0.000=4;
#COMBOS:0.000=1;
#SPEEDS:0.000=0.500=0.000=0,
28.000=1.000=4.000=0,
196.000=0.750=0.000=0,
196.021=1.000=4.000=0,
328.000=0.000=0.000=0,
328.021=1.000=4.000=0;
#SCROLLS:0.000=1.000,
260.000=0.500,
261.000=1.000,
261.500=0.500,
262.500=1.000,
263.000=0.500,
264.000=1.000;
#FAKES:;
#LABELS:0.000=Song Start;
#BGCHANGES:0.000=Kuusou Mesorogii-bga.mp4=1.000=0=0=0=StretchNoLoop====,
99999=-nosongbg-=1.000=0=0=0 // don't automatically add -songbackground-
;
#KEYSOUNDS:;
#ATTACKS:
;

//---------------dance-single - [XMOD] DS-----------------
#NOTEDATA:;
#CHARTNAME:;
#STEPSTYPE:dance-single;
#DESCRIPTION:[XMOD] DS-;
#CHARTSTYLE:;
#DIFFICULTY:Medium;
#METER:12;
#RADARVALUES:0.568936,0.666820,0.045908,0.527947,0.022954,347.000000,343.000000,4.000000,46.000000,0.000000,0.000000,0.000000,0.000000,0.000000,0.568936,0.666820,0.045908,0.527947,0.022954,347.000000,343.000000,4.000000,46.000000,0.000000,0.000000,0.000000,0.000000,0.000000;
#CREDIT:Scrypts;
#NOTES:
0000
0000
0000
0000
,
0000
0000
0000
0000
,
0000
0000
0000
0000
,
0000
0000
0000
0000
,
0000
0000
0000
0000
,
0000
0000
0000
0000
,
0000
0000
0000
0000
,
0000
0000
0000
0000
,
1000
0000
0001
0000
1000
0010
0000
0100
,
0000
0001
0000
0100
0000
0010
1000
0000
,
0001
0000
1000
0000
0001
0010
0000
0100
,
1000
0000
0100
0010
0000
0001
1000
0000
,
0010
0000
0100
0000
0001
1000
0000
0100
,
0000
0010
0000
0100
0000
1000
0001
0000
,
1000
0000
0010
0000
0100
0001
0000
0010
,
0100
0000
1000
0001
0000
0100
0010
0000
,
1000
0100
0010
0001
,
1000
0020
0000
0230
0000
0000
0302
0000
,
1003
0100
0010
0001
,
1000
0010
0100
0000
0100
0010
1000
0000
,
0001
0010
0100
1000
,
0001
0100
0000
0020
0000
0000
1030
0000
,
0001
0010
0100
1000
,
0001
0100
0010
0000
0010
0100
0001
0000
,
1000
0000
0001
0100
0001
0000
2000
0000
,
3200
0000
0320
0000
,
0031
1000
0010
0100
,
0001
0000
1000
0000
0001
0100
0001
0000
,
1000
0100
1000
0000
0001
0100
0001
0000
,
2000
0000
3200
0000
,
0320
0032
2003
3020
,
0130
0000
0001
0000
1000
0100
0010
0000
,
0001
0100
0001
0000
1000
0100
1000
0000
,
0001
0010
0001
0010
0001
0010
0001
0010
,
0000
0200
0000
0000
1300
0000
0001
0000
,
1000
0010
1000
0010
1000
0010
1000
0010
,
0000
2000
0000
0000
3200
0000
0320
0000
,
0031
1000
0100
0010
,
0100
1000
0000
1000
0001
0100
0000
0100
,
0001
0010
0100
1000
,
0001
0100
0000
0100
0001
1000
0000
1000
,
0100
0010
0001
2000
,
3001
0200
0320
2030
,
3001
0000
0010
0100
0000
0100
1000
0000
,
0001
0100
0001
0000
1000
0100
1000
0000
,
0002
0000
0013
0000
0100
1000
0100
0000
,
0010
0001
0010
0000
0100
0000
1000
0000
,
0010
0000
0100
0001
0000
0001
0100
0000
,
0010
1000
0001
0000
0010
0001
1000
0000
,
2002
0000
3003
0000
,
1000
0000
0001
0100
0000
0100
0010
0000
,
1000
0002
0023
0230
,
1300
0000
1000
0010
0000
0010
0200
0000
,
0000
0301
0010
0001
,
1000
0000
0100
0010
0000
0010
0001
0000
,
1000
0020
0230
0302
,
1003
0000
0001
0100
0000
0100
0010
0000
,
1000
0001
0010
0000
0100
0000
1000
0000
,
0020
0000
0130
0002
0000
0000
1000
0000
,
0000
1003
0100
0010
,
0002
0000
0103
0020
0000
0000
1000
0000
,
0000
1030
0100
0010
,
0001
1000
0001
0100
0000
0010
1000
0010
,
0100
0000
0100
0001
0000
0001
1000
0000
,
0100
0010
0001
1000
,
1010
0000
0000
0110
0000
0000
0101
0000
,
2000
0100
0001
3010
,
0002
0100
1000
0013
,
2000
0100
0001
3010
,
0001
0010
0100
1000
,
0002
0010
1000
0103
,
2000
0010
0001
3100
,
0002
0010
1000
0103
,
1000
0000
0001
0000
1000
0000
0010
0000
0100
0000
0010
0000
,
1000
0000
0001
0000
0010
0200
0000
0310
,
0000
0001
0000
1000
0000
0010
0100
0000
,
0001
0000
1000
0000
0001
0200
0000
0301
,
0010
0000
0100
1000
0000
1000
0001
0000
,
1000
0000
0100
0000
1000
0020
0000
0130
,
0000
0001
1000
0001
0100
0010
0100
0000
,
0001
0000
1000
0100
1000
0002
0000
0103
,
0010
1000
0001
1000
0000
0100
0010
0001
,
2000
0000
0000
0000
,
3000
0000
0000
0000
;

//---------------dance-single - [XMOD] XO, DS-, SJ-----------------
#NOTEDATA:;
#CHARTNAME:;
#STEPSTYPE:dance-single;
#DESCRIPTION:[XMOD] XO, DS-, SJ-;
#CHARTSTYLE:;
#DIFFICULTY:Hard;
#METER:14;
#RADARVALUES:0.705022,0.762080,0.126248,0.355790,0.022954,430.000000,419.000000,11.000000,31.000000,0.000000,0.000000,0.000000,0.000000,0.000000,0.705022,0.762080,0.126248,0.355790,0.022954,430.000000,419.000000,11.000000,31.000000,0.000000,0.000000,0.000000,0.000000,0.000000;
#CREDIT:Scrypts;
#NOTES:
0000
0000
0000
0000
,
0000
0000
0000
0000
,
0000
0000
0000
0000
,
0000
0000
0000
0000
,
0000
0000
0000
0000
,
0000
0000
0000
0000
,
0000
0000
0000
0000
,
0000
0000
0000
0000
,
1000
0001
0100
0000
0001
1000
0001
0010
,
0000
0100
0000
1000
0000
1000
0010
0000
,
0100
0001
1000
0000
0001
0010
0001
0100
,
0010
0000
1000
0100
0000
0100
0010
0000
,
0001
1000
0010
0000
1000
0001
1000
0100
,
0000
0010
0000
0001
0000
0001
0100
0000
,
0010
1000
0001
0000
1000
0100
1000
0010
,
0100
0000
0001
1000
0000
1000
0010
0000
,
1000
0100
0010
0001
,
1000
0010
0000
0002
0000
0000
0013
0000
,
1000
0001
0010
0100
,
1000
0010
0100
0000
0001
1000
0100
0000
,
0010
0001
1000
0010
,
1000
0100
0000
0002
0000
0000
0103
0000
,
1000
0100
0010
0001
,
0100
0010
1000
0000
0001
0010
0100
0000
,
1000
0010
0100
0001
1000
0000
1001
0000
,
0002
0000
0023
0000
,
0130
1000
0001
0100
,
0001
0010
0100
1000
0001
0100
0010
0000
,
1000
0100
0010
0000
0001
0000
1000
1000
,
0020
0000
0230
0000
,
0302
2003
3200
0320
,
0031
1000
0010
1000
0100
0010
0001
0000
,
1000
0010
0100
0000
0001
0010
0100
0000
,
1000
0100
1000
0001
1000
0010
1000
0001
,
1000
0200
0000
0000
0320
0000
0031
0000
,
0001
0100
0001
1000
0001
0010
0001
1000
,
0001
0200
0000
0000
0320
0000
0130
0001
,
1000
0010
1000
0100
1000
0010
1000
0100
,
1000
0010
0000
0010
0100
0001
0000
0001
,
0010
0001
0100
0001
0010
0001
0100
0001
,
0010
0100
0000
0100
1000
0010
0100
0001
,
1000
0000
0100
1000
0001
1000
0010
0000
,
0100
0001
0010
0100
0000
0100
1000
0000
,
0001
0000
1000
0100
0000
0100
0010
0000
,
0001
1000
0010
0100
0001
1000
0200
0000
,
0310
0000
0100
1000
0000
1000
0010
0000
,
0100
0001
1000
0100
0010
0001
0100
0000
,
0010
0000
1000
0001
0000
0001
0010
0100
,
1000
0010
0100
0001
1000
0100
0010
0001
,
2001
0000
3020
0000
,
0130
0000
0001
1000
0000
0100
0010
0000
,
0002
0100
1000
0013
,
0200
0000
1300
0020
0000
0130
0002
0000
,
0013
0100
1000
0000
1000
0001
0100
0000
,
0001
0000
0010
0100
0000
1000
0001
0000
,
2000
0100
0001
3010
,
1000
0000
0010
0100
0000
0001
0010
0000
,
0100
1000
0001
0000
0100
0000
0010
0000
,
1000
0100
0010
0001
0100
0010
1000
0010
,
0000
0010
0100
0000
0001
1000
0100
0000
,
1000
0010
0100
0001
0010
0100
1000
0100
,
0000
0100
0010
0000
0001
0100
0010
0000
,
1000
0010
0100
0001
0000
1000
0100
1000
,
0001
0000
0100
0010
0000
1000
0100
0000
,
0010
0001
1000
0010
0100
0010
1000
0000
,
1001
0000
0000
0110
0000
0000
1001
0000
,
0001
0000
0101
0000
1000
0100
0010
0001
,
0100
0000
1100
0000
0001
0100
0010
1000
,
0100
0000
0101
0000
1000
0100
0010
0001
,
0100
0010
2000
0000
3200
0000
0320
0000
,
0031
0000
0011
0000
1000
0010
0100
0001
,
0010
0000
1010
0000
0001
0010
0100
1000
,
0010
0000
0011
0000
0001
0100
0010
1000
,
0001
0000
0010
0000
0100
0000
1000
0000
0010
0000
0100
0000
,
0001
1000
0100
1000
0001
0200
0000
0320
,
0000
0230
0000
1300
0000
0100
0001
0000
,
1000
0001
0010
0001
1000
0100
0000
0010
,
0001
0010
0100
1000
0000
1000
0001
0000
,
1000
0001
0100
0001
1000
0200
0000
0320
,
0000
0130
0001
0100
1000
0001
1000
0000
,
0010
0100
0001
1000
0100
0010
0000
0001
,
1000
0010
0100
0001
0010
0100
1000
0001
,
2000
0000
0000
0000
,
3000
0000
0000
0000
;

//---------------dance-single - [XMOD] XO+, DS, FS, SJ----------------
#NOTEDATA:;
#CHARTNAME:;
#STEPSTYPE:dance-single;
#DESCRIPTION:[XMOD] XO+, DS, FS, SJ;
#CHARTSTYLE:;
#DIFFICULTY:Challenge;
#METER:17;
#RADARVALUES:0.870620,0.904970,0.321359,0.585332,0.137725,531.000000,503.000000,28.000000,51.000000,8.000000,0.000000,0.000000,0.000000,0.000000,0.870620,0.904970,0.321359,0.585332,0.137725,531.000000,503.000000,28.000000,51.000000,8.000000,0.000000,0.000000,0.000000,0.000000;
#CREDIT:Scrypts;
#NOTES:
// measure 0
0000
0000
0000
0000
,  // measure 1
0000
0000
0000
0000
,  // measure 2
0000
0000
0000
0000
,  // measure 3
0000
0000
0000
0000
,  // measure 4
0000
0000
0000
0000
,  // measure 5
0000
0000
0000
0000
,  // measure 6
0000
0000
0000
0000
,  // measure 7
0000
0000
0000
0000
,  // measure 8
1000
0001
1000
0000
0010
0000
0000
0000
0100
0000
0001
0000
0200
0000
1000
0000
,  // measure 9
0000
0310
0100
0001
0000
0010
0011
0000
,  // measure 10
0001
1000
0001
0000
0010
0000
0000
0000
0001
0000
0100
0000
0001
0000
0020
0000
,  // measure 11
1000
0000
0000
0000
0130
0000
1000
0000
0010
0100
0010
0000
0110
0000
0000
0000
,  // measure 12
0001
1000
0001
0000
0010
0000
0000
0000
0100
0000
1000
0000
0200
0000
0001
0000
,  // measure 13
0000
0310
0100
1000
0000
0010
1010
0000
,  // measure 14
1000
0001
1000
0000
0010
0000
0000
0000
0100
0000
0001
0000
1000
0000
0020
0000
,  // measure 15
0001
0000
0000
0000
0130
0000
0001
0000
1000
0100
1000
0000
0002
0000
0000
0000
,  // measure 16
1003
0100
0010
0100
0001
0100
0010
0100
,  // measure 17
1000
0010
0100
1000
0100
0010
1000
0001
,  // measure 18
1000
0100
0010
0100
0001
0100
0010
0001
,  // measure 19
0100
00M0
0100
0000
1000
0000
0001
0000
0010
0M00
0010
0000
2000
0000
0000
0000
,  // measure 20
3001
0100
0010
0100
1000
0100
0010
0100
,  // measure 21
0001
0010
0100
0001
0100
0010
0001
1000
,  // measure 22
0001
0100
0010
0100
1000
0100
0010
1000
,  // measure 23
0100
00M0
0100
0000
0001
0000
1000
0000
0010
0M00
0010
0000
0001
0000
1000
0000
,  // measure 24
0100
0000
0100
0000
1000
0000
0001
0000
0200
0000
0000
0000
0301
1000
0001
0000
,  // measure 25
0020
0000
0230
0000
,  // measure 26
2300
3020
0230
0302
,  // measure 27
1003
0100
0010
0001
1000
0010
0110
0000
,  // measure 28
0001
0010
0110
0000
1000
0010
0110
0100
,  // measure 29
0002
0000
0023
0000
,  // measure 30
0230
2300
3002
0203
,  // measure 31
0301
1000
0010
0100
1000
0100
0110
0000
,  // measure 32
0001
0010
0110
0000
1000
0010
0110
0000
,  // measure 33
1000
0000
0100
0000
0010
0000
0100
0000
1000
0000
0010
0100
0010
0000
1000
0000
,  // measure 34
0100
0002
0000
0000
0203
0000
2300
0000
,  // measure 35
3001
0000
0100
0000
0010
0000
0100
0000
0001
0000
0010
0100
0010
0000
0001
0000
,  // measure 36
0100
0000
2000
0000
0000
0000
0000
0000
3200
0000
0000
0000
0301
1000
0001
0000
,  // measure 37
1000
0100
0010
0100
1000
0001
0100
0010
,  // measure 38
0100
1000
0100
0010
1000
0001
1000
1000
,  // measure 39
0001
0010
0100
1000
0010
1000
0100
0010
,  // measure 40
0100
0001
0100
0010
0001
1000
0010
0100
,  // measure 41
0001
0000
0011
0001
1000
0000
1020
0000
,  // measure 42
0130
0001
0010
0001
1000
0100
0110
0000
,  // measure 43
0001
0000
0011
0010
0100
1000
1002
0000
,  // measure 44
0103
0001
0010
0001
0100
0010
2010
0000
,  // measure 45
3001
0000
0011
0001
1000
0000
1100
0000
,  // measure 46
0100
0010
0001
0010
0100
1000
1010
0000
,  // measure 47
0001
0000
0011
0001
0100
0010
1000
1000
,  // measure 48
0001
0000
0010
0100
0010
0000
0001
0000
1000
0000
0010
0100
0010
0000
1000
0000
,  // measure 49
0002
0000
0010
1003
,  // measure 50
1001
1000
0200
0001
0000
0310
0002
0000
,  // measure 51
1003
0010
0100
0010
0001
0010
0100
0010
,  // measure 52
2000
0000
3100
0002
0000
1003
0010
0001
,  // measure 53
1000
0010
0110
0000
0001
0010
0110
0000
,  // measure 54
1001
0001
0200
1000
0000
0310
2000
0000
,  // measure 55
3001
0010
0100
0010
1000
0010
0100
0010
,  // measure 56
0002
0000
0103
2000
0000
3001
0010
1000
,  // measure 57
0001
0010
0200
0000
2300
0000
3020
0000
,  // measure 58
1030
0001
0010
0200
0001
0000
0010
0000
,  // measure 59
1300
0010
0100
0010
1000
0100
0010
0000
,  // measure 60
0001
1000
0010
0200
1000
0000
0010
0000
,  // measure 61
0301
0010
0100
0010
0001
0100
0010
0000
,  // measure 62
1000
0010
1000
0100
0010
0001
0100
0100
,  // measure 63
0010
0000
2000
0100
0000
3002
0010
0000
,  // measure 64
1003
0010
0100
0001
0010
0100
1000
0001
,  // measure 65
1001
0000
0000
1010
0000
0000
0101
0000
,  // measure 66
1000
0100
0010
0100
0001
1000
0010
0100
,  // measure 67
1000
0001
0100
0010
0001
1000
0100
0010
,  // measure 68
1000
0100
0010
0100
0001
1000
0010
0100
,  // measure 69
1000
0001
0100
0010
0001
0010
1000
1000
,  // measure 70
0001
0100
0010
0100
1000
0001
0010
0100
,  // measure 71
0001
1000
0100
0010
1000
0001
0100
0010
,  // measure 72
0001
0100
0010
0100
1000
0001
0010
1000
,  // measure 73
0001
0000
0010
0000
0100
0000
1000
0000
0010
0000
0100
0000
,  // measure 74
0001
0000
1000
0000
0100
00M0
0100
0000
0002
0000
0010
0000
0000
0000
1003
0000
,  // measure 75
0010
0100
1000
0100
0010
1000
0001
0000
,  // measure 76
1000
0000
0001
0000
0010
0M00
0010
0000
2000
0000
0100
0000
0000
0000
3001
0000
,  // measure 77
0001
1000
0100
0002
0000
0103
0010
0000
,  // measure 78
1001
0000
0001
0000
0100
00M0
0100
0000
2000
0000
0010
0000
0000
0000
3001
0000
,  // measure 79
0100
0010
0001
0010
0100
0002
1000
0003
,  // measure 80
1000
0000
0001
0000
0010
0M00
0010
0000
2000
0000
0100
0000
0000
0000
3001
0000
,  // measure 81
0001
1000
0100
0001
0100
1000
0010
1000
,  // measure 82
2002
0000
0000
0000
,  // measure 83
3003
0000
0000
0000
;
