#TITLE:黒紅掬い;
#SUBTITLE:;
#ARTIST:猫叉Master feat. 霜月はるか;
#TITLETRANSLIT:Kurobeni sukui;
#SUBTITLETRANSLIT:;
#ARTISTTRANSLIT:;
#GENRE:;
#CREDIT:;
#MUSIC:Kurobeni sukui.ogg;
#BANNER:Kurobeni sukui.png;
#BACKGROUND:Kurobeni sukui-bg.png;
#CDTITLE:;
#SAMPLESTART:70.807;
#SAMPLELENGTH:17.320;
#SELECTABLE:YES;
#OFFSET:0.154;
#BPMS:0.000=104.000
,192.000=93.000
,194.000=86.000
,195.000=78.000
;
#STOPS:;
#BGCHANGES:;
#FGCHANGES:;

//--------------- dance-single - Pandemonium X ----------------
#NOTES:
     dance-single:
     Pandemonium X:
     Beginner:
     3:
     0,0,0,0,0:
0000
0000
0000
0000
,
0000
0000
0000
0000
,
0000
0000
0000
0000
,
0000
0000
0000
0000
,
0000
0000
0000
0000
,
0000
0000
0000
0000
,
0001
0000
0010
0000
,
0001
0000
1000
1000
,
0100
0000
1000
0000
,
0001
0000
0000
0000
,
0100
0000
0100
0000
,
0100
0000
0000
0000
,
0010
0000
1000
0000
,
0001
0000
0200
0300
,
0010
0000
1000
0000
,
0100
0100
0000
0000
,
0010
0000
0001
0000
,
1000
0000
0002
0003
,
1001
0000
0000
0000
,
0110
0000
0000
0000
,
1001
0000
0000
0000
,
0110
0000
0000
0000
,
1001
0000
0010
0000
,
1001
0000
0100
0000
,
0110
0000
1000
0000
,
0001
0000
1000
0000
,
0200
0000
0000
0000
,
0300
0000
0000
0000
,
0000
0000
0000
0000
,
0000
0000
0000
0000
,
0002
0000
0003
1000
,
1001
0000
0001
0001
,
0000
0000
0100
0100
,
0000
0010
0000
1000
,
0000
0001
1000
0000
,
0010
0000
0100
0000
,
0010
0010
0000
0100
,
0000
0001
2000
0000
,
3000
0000
1001
0000
,
1000
1000
0000
0000
,
0001
0001
0000
0100
,
0000
0010
0000
1000
,
1000
0000
0010
0010
,
0000
0000
0100
0100
,
0000
0001
0000
1000
,
1001
0000
0000
0000
,
0001
0000
0010
0000
,
0001
0000
2000
0000
,
3000
0000
0002
0000
,
0003
0000
0000
0000
;

//--------------- dance-single - Pandemonium X ----------------
#NOTES:
     dance-single:
     Pandemonium X:
     Easy:
     6:
     0,0,0,0,0:
0000
0000
0000
0000
,
0000
0000
0000
0000
,
0000
0000
0000
0000
,
0000
0000
0000
0000
,
0000
0000
0000
0000
,
0000
0000
0000
0000
,
0001
0000
0010
0000
,
0100
0000
0010
0001
,
0101
0000
0010
1000
,
1100
0000
1000
0001
,
0100
0000
0010
0000
,
0100
0002
0003
1000
,
0100
0000
1000
0001
,
0100
0000
0020
0030
,
1000
0000
0001
0000
,
0010
0100
0000
0010
,
0200
0300
0010
0001
,
2000
0000
3020
0030
,
0100
0001
0100
0000
0000
0000
0000
0000
,
0010
1000
0010
0000
0000
0000
0000
0000
,
1000
0001
1000
0000
0000
0000
0000
0000
,
0001
0010
0001
0000
0000
0000
0000
0000
,
0100
1000
0100
0000
0000
0000
0000
0000
,
1000
0010
1000
0000
0000
0000
0000
0000
,
0010
0100
0010
0000
0000
0000
0000
0000
,
0100
0000
0001
0000
,
1000
0000
0000
0000
,
0000
0000
0001
1000
,
0110
0000
1000
0001
,
0110
0000
0000
0000
,
0000
0000
0000
0100
,
1001
0000
0000
0001
1000
0000
1000
0000
,
0000
0100
0000
0010
0100
0000
0010
0010
,
0000
0001
1000
0010
,
0100
0000
0001
1000
0001
0000
0000
1000
,
0100
0000
0010
0100
0000
0010
0000
0000
,
0001
0000
0100
0010
0000
0000
0100
0000
,
0001
1000
0200
0000
,
0300
0000
0010
0000
2001
0000
3000
0001
,
1000
0000
1000
0000
0000
0010
0000
0100
,
0010
0000
0100
0100
0000
0000
0010
0000
,
1000
0000
0001
0000
0010
0000
0100
0010
,
0100
0000
0000
0000
0010
0000
0001
1000
,
0000
0010
0000
0100
0001
0000
1000
0100
,
0000
0010
0100
1000
,
2002
0000
0000
3003
,
1000
0000
0010
0000
,
1000
0000
0001
1000
,
0110
0000
0001
1000
,
0110
0000
0000
0000
;

//--------------- dance-single - Pandemonium X ----------------
#NOTES:
     dance-single:
     Pandemonium X:
     Medium:
     9:
     0,0,0,0,0:
0000
0000
0000
0000
,
0000
0000
0000
0000
,
0000
0000
0000
0000
,
0000
0000
0000
0000
,
0000
0000
0000
0000
,
0000
0000
0000
0000
,
0101
0000
1100
0000
,
1001
0000
0000
0000
0000
0000
1000
0010
1000
0000
0010
0000
0100
0000
0001
0000
,
0010
0000
0000
0000
0000
0000
0000
0000
0100
0000
0010
0000
0001
0000
0000
1000
0000
0000
0010
0000
0000
1000
0000
0000
,
0100
0000
0000
1000
0100
0010
0001
1000
,
1001
0000
0000
0001
1001
0000
0000
1000
,
0010
0010
0200
0000
0300
0010
0001
0010
,
1000
0000
0000
0100
0001
0100
0010
0001
,
2000
0000
3020
0230
,
0301
0000
0000
1000
1001
0000
0000
0001
,
1001
1000
0010
0000
0000
1000
0100
1000
,
0002
0000
0003
0010
0001
0010
1000
0010
,
0200
0000
0000
0000
2300
3200
0320
0032
,
1003
1000
1000
0000
0000
0000
0000
0000
,
0010
0010
0010
0000
1001
0000
0101
0000
,
0010
0010
0010
0000
0000
0000
0000
0000
,
0100
0100
0100
0000
1001
0000
0011
0000
,
0010
0001
0011
0000
1000
0000
0001
0000
,
1000
0010
1010
0000
1000
0000
0001
0000
,
1000
0100
1100
0000
1000
0000
0001
0000
,
0200
0000
0320
0000
,
2000
0030
0001
0000
,
3001
0000
0000
0000
1000
0100
0010
0001
,
1000
0000
0000
0000
1000
0100
0010
0001
,
1001
0000
0000
0000
0000
0000
0000
0010
,
0200
0000
0300
0010
,
2001
0000
0000
3001
2000
0000
3200
0000
,
0300
0020
0000
0130
0010
0001
1000
1000
,
0000
0000
1000
0001
0100
0010
0001
0010
,
1000
0000
0001
1000
2001
0000
0000
3010
,
0100
0100
0001
1000
0000
0200
0000
0310
,
0001
0010
1000
0010
0000
0000
0010
0001
,
0010
0100
0001
1000
0200
0000
1300
0000
,
1001
0000
0000
0000
0100
0000
0001
0000
2001
0000
0000
0000
0000
0000
3001
0100
,
0001
0000
0000
0000
1000
0000
0000
0000
0000
0000
0100
0000
0000
0000
0010
0100
,
0010
0100
1000
1000
0000
0000
0001
0010
,
0001
1000
0010
0100
0001
0000
1001
0010
,
1002
0000
0000
0000
0003
0000
1000
0010
1000
0000
0010
0000
0100
0000
0100
0000
,
0000
0000
0001
0000
0000
0000
0100
0001
0100
0000
0001
0000
1000
0000
1000
0000
,
0000
0000
0100
0010
0100
1000
0001
0100
,
0020
0000
0000
0030
,
1001
0000
1000
0000
,
0010
0000
0000
0000
1000
0100
0010
0001
,
1000
0000
0000
0000
1000
0100
0010
0001
,
1001
0000
0000
0000
;

//--------------- dance-single - Pandemonium X ----------------
#NOTES:
     dance-single:
     Pandemonium X:
     Hard:
     11:
     0,0,0,0,0:
0000
0000
0000
0000
,
0000
0000
0000
0000
,
0000
0000
0000
0000
,
0000
0000
0000
0000
,
0000
0000
0000
0000
,
0000
0000
0000
0000
,
0101
0000
0001
0010
0100
0000
1000
0000
1100
0000
0100
0000
0010
0000
0001
0000
,
1001
0000
0001
0100
0010
0000
0010
1000
0100
0000
0010
0000
1000
0000
0010
0000
,
0002
0000
0000
0000
0000
0000
0103
0000
0010
0000
1000
0000
0100
0000
0000
0001
0000
0000
0100
0000
0000
1000
0000
0000
,
0001
0000
0000
0010
0100
1000
0100
0010
,
1001
0000
0000
0000
1000
0000
0001
0000
1010
0000
0000
0000
0001
0000
1000
0001
,
1000
0100
0120
0000
0030
0100
0001
0100
,
2000
0000
0000
0000
3000
0000
0010
0001
0010
0000
0100
0000
0001
0000
1000
0001
,
0200
0000
0000
0000
0000
0300
0001
0010
0200
0000
0310
0100
2000
0000
3010
0100
,
0001
0000
0000
0000
1000
0000
0100
0000
1001
0000
0000
0000
1000
0000
0001
1000
,
0100
0010
1001
0000
0000
1000
0100
1000
,
0002
0000
0000
0000
0003
0000
0100
0001
1000
0000
0100
0000
0001
0000
0100
0000
,
2000
0000
0000
0000
0010
0000
3100
0010
0001
1000
0100
0010
0100
1000
0001
0000
,
1010
0000
0101
0000
1010
0000
1000
0100
0010
0000
0100
0000
1000
0001
1000
0000
,
0011
0000
1100
0000
0011
0000
0001
1000
0002
0000
0000
0000
1003
0000
0000
0000
,
0101
0000
0011
0000
1100
0000
0001
0010
0100
0000
0010
0000
0001
1000
0001
0000
,
0011
1100
1001
0001
2000
0000
3001
0000
,
0101
1010
0101
0001
0100
1000
0100
0001
,
0011
1100
0011
0001
0020
0000
0100
0130
,
1001
0110
1001
0001
0100
1000
0100
0001
,
2000
0000
0000
0000
0000
0000
0000
0000
3000
0000
0000
0000
0100
0000
0010
0000
0002
0000
0000
0000
0000
0000
0000
0000
0003
0000
0000
0000
0010
0000
0000
0100
,
0000
2000
0000
0000
0000
0000
0000
0000
3001
0000
0000
0000
0000
0000
0000
0000
,
1000
0000
0000
0000
1000
0001
0010
0100
,
1000
0000
0000
0000
1000
0001
0010
0100
,
1100
0000
0000
0000
0000
0000
0000
1000
,
0004
4000
0000
0000
0000
0000
0000
0000
0000
0000
0000
0000
3003
0000
0000
0000
0000
0000
0100
0000
0000
0000
0000
0000
,
1002
0000
0000
0000
1003
0000
0100
0010
0001
0000
0000
0000
0011
0000
0000
0000
,
0001
0000
0200
0000
0000
0000
0301
0010
0001
0000
0010
0000
0100
0000
0010
0000
,
0001
0000
1000
0100
0010
0100
1000
0001
,
0100
0000
0000
0000
1100
0000
0101
0000
1002
0000
0000
0000
0013
0000
0010
1000
,
0010
0000
0001
0000
1000
0000
0010
0000
0000
0000
0200
0000
0000
0000
1300
0100
,
0001
0010
0100
0010
0000
0000
0100
0010
,
0001
0100
0001
1000
0020
0000
0100
0000
,
1000
0000
0000
0000
0130
0000
0001
0000
2001
0000
0000
0000
3010
0000
0100
0001
,
0010
0000
0000
0000
1100
0000
0000
0000
0000
0000
0011
0000
0000
0000
0001
0100
,
0010
0001
0010
1000
0000
0000
0001
0010
,
1000
0010
0100
0010
0001
0000
1100
0011
,
0201
0000
0000
0000
0310
0000
0001
0010
0001
0000
0010
0000
1000
0000
0001
0000
,
0000
0000
0011
0000
0000
0000
1000
0100
1000
0000
0100
0000
0010
0000
1000
0000
,
0000
0000
0010
0001
1000
0010
0001
0010
,
0200
0001
1000
0001
,
0310
0000
0100
0000
,
0010
0000
0000
0000
1000
0001
0010
0100
,
1000
0000
0000
0000
1000
0001
0010
0100
,
1100
0000
0000
0000
;

//--------------- dance-double - Pandemonium X ----------------
#NOTES:
     dance-double:
     Pandemonium X:
     Easy:
     6:
     0,0,0,0,0:
00000000
00000000
00000000
00000000
,
00000000
00000000
00000000
00000000
,
00000000
00000000
00000000
00000000
,
00000000
00000000
00000000
00000000
,
00000000
00000000
00000000
00000000
,
00000000
00000000
00000000
00000000
,
00001000
00000000
00100000
00000000
,
00010000
00000000
10000000
00010000
,
01000000
00000000
00010000
00100000
,
00001000
00000000
00010000
00000100
,
00001000
00000000
00000001
00000000
,
00000100
00000100
00000000
00000010
,
00001000
00000000
00000100
00010000
,
00001000
00000000
01000000
00010000
,
00100000
00000000
01000000
00000000
,
10000000
10000000
00000000
00010000
,
00100000
00000000
00010000
01000000
,
00001000
00000000
00000000
00000000
00020000
00000000
00000000
00030000
,
00000100
00001000
00000100
00000000
00000000
00000000
00000000
00000000
,
00001000
00000010
00001000
00000000
00000000
00000000
00000000
00000000
,
00000010
00000100
00000010
00000000
00000000
00000000
00000000
00000000
,
00001000
00000001
00001000
00000000
00000000
00000000
00000000
00000000
,
00000100
00010000
00000100
00000000
00000000
00000000
00000000
00000000
,
00010000
00001000
00010000
00000000
00000000
00000000
00000000
00000000
,
00001000
01000000
00001000
00000000
00000000
00000000
00000000
00000000
,
01000000
00000000
00010000
00000000
,
20000000
00000000
00000000
00000000
,
30000000
00000000
01000000
00100000
,
00010000
00000000
00001000
00000100
,
00000010
00000000
00000000
00000000
,
00000002
00000000
00000003
00000100
,
00001001
00000000
00000001
00000001
,
00000000
00001000
00000000
00000000
00000100
00000000
00010000
00010000
,
00000000
00001000
01000000
00010000
,
00100000
00000000
01000000
10000000
01000000
00000000
00000000
00000000
,
00100000
00000000
00010000
00000000
00000000
10000000
00000000
00000000
,
00100000
00000000
01000000
01000000
00000000
00000000
00010000
00000000
,
00100000
00001000
00022000
00000000
,
00033000
00010000
00000100
00000000
,
00001000
00000000
00001000
00000000
00000000
00000010
00000000
00000000
,
00000100
00000000
00000001
00000001
00000000
00000000
00000010
00000000
,
00000001
00000000
00001000
00000000
00000100
00000000
00010000
00001000
,
00010000
00000000
00000000
00000000
00001000
00000000
01000000
01000000
,
00000000
00010000
00000000
00000000
00100000
00000000
00010000
00010000
,
00000000
10000000
00010000
01000000
,
00002000
00000000
00000000
00003000
,
00010000
00000000
00001000
00000000
,
00010000
00000000
00001000
00001000
,
00001000
00000000
00010000
00010000
,
00010000
00000000
00000000
00000000
;

//--------------- dance-double - Pandemonium X ----------------
#NOTES:
     dance-double:
     Pandemonium X:
     Medium:
     9:
     0,0,0,0,0:
00000000
00000000
00000000
00000000
,
00000000
00000000
00000000
00000000
,
00000000
00000000
00000000
00000000
,
00000000
00000000
00000000
00000000
,
00000000
00000000
00000000
00000000
,
00000000
00000000
00000000
00000000
,
00001000
00000000
00100000
00000000
,
00010000
00000000
00000000
00000000
00000000
00000000
10000000
01000000
10000000
00000000
01000000
00000000
10000000
00000000
00100000
00000000
,
01000000
00000000
00000000
00000000
00000000
00000000
00000000
00000000
00020000
00000000
00000000
00000000
00130000
00000000
00000000
01000000
00000000
00000000
10000000
00000000
00000000
00010000
00000000
00000000
,
01000000
00000000
00000000
00000000
00100000
00000000
01000000
00010000
,
00100000
00000000
00000000
00100000
00001000
00000000
00000000
00010000
,
00000100
00001000
00000020
00000000
00000030
00000100
00001000
00000100
,
00000002
00000000
00000003
00001000
00000100
00000100
00010000
00001000
,
02000000
00000000
00000000
03100000
10000000
00100000
01000000
00010000
,
00100000
00000000
00000000
00100000
01000000
00000000
00000000
01000000
,
00100000
00010000
00001000
00000000
00000000
00010000
00000100
00001000
,
00000020
00000000
00000000
00000130
00001000
00000100
00000001
00001000
,
00000200
00000000
00010300
00010000
,
00001000
01000000
01100000
00000000
00000000
00000000
00000000
00000000
,
00100000
10000000
11000000
00000000
00200000
00000000
00302000
00000000
,
00013000
00000100
00001100
00000000
00000000
00000000
00000000
00000000
,
00001000
00000010
00000110
00000010
00000200
00000000
00000302
00000000
,
00000013
00000010
00000110
00000000
00000100
00000000
00010000
00000000
,
00001000
00001000
00011000
00000000
00001000
00000000
01000000
00000000
,
01000000
01000000
01010000
00000000
00010000
00000000
00100000
00000000
,
02000000
00000000
23000000
00000000
,
30200000
00000000
01300000
00000000
,
00010000
00000000
00000000
00000000
00100000
00010000
00100000
00010000
,
01000000
00000000
00000000
00000000
00001000
01000000
00001000
01000000
,
00010000
00000000
00000000
00000000
00000000
00000000
00000000
00100000
,
00002000
00000000
00003000
00020000
,
00030200
00000000
00000300
00001000
00001010
00000000
00001100
00000000
,
00000000
00000100
00000000
00000100
00000010
00000001
00001000
00001000
,
00000000
00000000
00000001
00000100
00000001
00001000
00000100
00000010
,
00000001
00000000
00000010
00000001
00000021
00000000
00000030
00000100
,
00000100
00001000
00000100
00010000
00000000
00002000
00000000
00103000
,
00010000
00010000
10000000
00100000
00000000
00000000
00100000
00010000
,
00100000
10000000
01000000
00010000
02000000
00000000
00000000
00000000
,
03000000
00000000
00100000
01000000
11000000
00000000
00000000
00010000
,
01000000
00000000
00001000
00000000
00000000
00011000
00000000
00010000
,
00000100
00001000
00000010
00000010
00000000
00000000
00000100
00001000
,
00000100
00000001
00000010
00000100
00001000
00000000
00000100
00000100
,
00010100
00000000
00000000
00001000
01000000
00010000
00100000
00100000
,
00000000
01000000
00000000
00010000
01000000
10000000
00100000
01000000
,
00000000
00000000
10000000
01000000
00010000
00100000
00001000
00010000
,
00001000
00000000
00000000
00000000
,
00010000
00000000
00000010
00000000
,
00000100
00000000
00000010
00010000
,
00011000
00000000
00100000
00001000
,
00011000
00000000
00000000
00000000
;

//--------------- dance-double - Pandemonium X ----------------
#NOTES:
     dance-double:
     Pandemonium X:
     Hard:
     11:
     0,0,0,0,0:
00000000
00000000
00000000
00000000
,
00000000
00000000
00000000
00000000
,
00000000
00000000
00000000
00000000
,
00000000
00000000
00000000
00000000
,
00000000
00000000
00000000
00000000
,
00000000
00000000
00000000
00000000
,
00100000
00001000
00010000
00010000
00010100
00000100
00001000
00001000
,
00001010
00000000
00000010
00000000
00000100
00000000
00000001
00000010
00000100
00000000
00000010
00000000
00000001
00000000
00000100
00000000
,
00001010
00000000
00000000
00000000
00000000
00000000
00000000
00000000
00000100
00000000
00010000
00000000
00001000
00000000
00000000
00010000
00000000
00000000
00001000
00000000
00000000
01000000
00000000
00000000
,
00110000
00000000
00000000
00010000
01000000
10000000
00100000
00010000
,
10010000
00000000
00000000
00000000
00000000
00000000
01000000
00000000
10010000
00000000
00000000
00000000
00000000
00000000
10000000
00100000
,
01000000
00010000
00200000
00000000
00300000
00010000
00100000
00001000
,
00020000
00000000
00000000
00000000
00030000
00000000
00000100
00001000
00000010
00000000
00000001
00000000
00000010
00000000
00001000
00000000
,
00000002
00000000
00000000
00000000
00000003
00000000
00000010
00000001
00000100
00000000
00000100
00000001
00000010
00000000
00000010
00000100
,
00001000
00000000
00000000
00000000
00000000
00000000
00001000
00000000
00000101
00000000
00000000
00000000
00000000
00000000
00000001
00001000
,
00000100
00010000
00002000
00000000
00003000
00010000
00001000
01000000
,
00200000
00000000
00300000
01000000
10000000
01000000
00001000
00010000
,
00000200
00000000
00000000
00000000
00000300
00000000
00001000
00000010
00000100
00000001
00000100
00000010
00001000
00000010
00001000
00000000
,
00011000
00101000
00011000
00000000
00000000
00000000
00000000
00000000
,
00011000
00001100
00011000
00000000
00002000
00000000
01003000
00000000
,
00110000
00011000
00110000
00000000
00000000
00000000
00000000
00000000
,
00011000
00001100
00011000
00010000
00000200
00000000
00010300
00000000
,
00011000
01001000
01100000
00100000
00010000
00100000
10000000
01000000
,
01100000
00110000
00011000
00001000
00020000
00000000
00000100
00030100
,
00001100
00000110
00001001
00000001
00000010
00001000
00000010
00000001
,
00000200
00000000
00000000
00000000
00000000
00000000
00000000
00000000
00000000
00000000
00000000
00000000
00001300
00000000
00010000
00000000
00200000
00000000
00000000
00000000
00000000
00000000
00000000
00000000
00300000
00000000
00000000
00000000
01000000
00000000
00000000
00010000
,
00000000
00200000
00000000
00000000
00000000
00000000
00000000
00000000
01300000
00000000
00000000
00000000
00000000
00000000
00000000
00000000
,
01000000
00000000
00000000
00000000
00100000
00010000
00001000
00000100
,
00000010
00000000
00000000
00000000
00000001
00000100
00001000
00010000
,
00011000
00000000
00000000
00000000
00000000
00000000
00000000
00001000
,
02000000
00000000
00000000
03100000
,
10010000
00000000
00000000
00000000
10000000
00000000
01000000
00100000
00010000
00000000
00000000
00000000
00011000
00000000
00000000
00000000
,
00000000
00000000
00010100
00000000
00000000
00000000
00000100
00001000
00000010
00000000
00000001
00000000
00000010
00000000
00001000
00000000
,
00000000
00000000
00000100
00010000
00001000
01000000
00001000
00010000
,
00000100
00000000
00000000
00000000
00001100
00000000
00000011
00000000
00001002
00000000
00000000
00000000
00000003
00000000
00001000
00000010
,
00000100
00000000
00001000
00000000
00000100
00000000
00000001
00000000
00000000
00000000
00001010
00000000
00000000
00000000
00000100
00010000
,
00000100
00010000
00001000
00001000
00000000
00000000
00010000
00001000
,
01000000
00001000
01000000
00010000
00200000
00000000
01000000
00000000
,
00310000
00000000
00000000
00000000
00100000
00000000
01000000
00000000
21000000
00000000
00000000
00000000
30100000
00000000
01000000
10000000
,
01000000
00000000
00000000
00000000
01010000
00000000
00000000
00000000
00000000
00000000
00101000
00000000
00000000
00000000
00001000
00010000
,
00000100
00000100
00001000
00001000
00000000
00000000
00000010
00000001
,
00000010
00001000
00010000
01000000
00100000
00000000
01010000
10100000
,
10020000
00000000
00000000
00000000
00130000
00000000
10000000
00100000
10000000
00000000
00100000
00000000
00010000
00000000
00001000
00000000
,
00000000
00000000
00021000
00000000
00000000
00000000
00030100
00001000
00000100
00000000
00001000
00000000
00000010
00000000
00000010
00000000
,
00000000
00000000
00000010
00000100
00001000
00010000
00100000
01000000
,
00020000
00000000
00000000
00030000
,
00100000
00000000
00001000
00000000
,
00100000
00000000
00000000
00000000
00001000
00100000
00001000
00010000
,
00000010
00000000
00000000
00000000
00010000
00000010
00010000
00001000
,
00100000
00000000
00000000
00000000
;
