#TITLE:子猫のパヤパヤ;
#SUBTITLE:;
#ARTIST:ワンカップP feat. 初音ミク & MEIKO;
#TITLETRANSLIT:Koneko no Payapaya;
#SUBTITLETRANSLIT:;
#ARTISTTRANSLIT:Onecup-P feat. Hatsune Miku & MEIKO;
#GENRE:Vocaloid;
#CREDIT:Melody Love;
#MUSIC:Koneko no Payapaya.ogg;
#BANNER:Koneko no Payapaya.png;
#BACKGROUND:Koneko no Payapaya-bg.png;
#CDTITLE:;
#SAMPLESTART:47.490;
#SAMPLELENGTH:11.760;
#SELECTABLE:YES;
#OFFSET:-0.248;
#BPMS:0.000=160.000
,301.500=146.000
,302.000=160.000
,309.000=163.000
,311.000=160.000
,315.500=156.000
,317.000=160.000
;
#STOPS:;
#DISPLAYBPM:160.000;
#LASTSECONDHINT:123.000;
#JACKET:Koneko no Payapaya-jacket.png;
#BGCHANGES:1.647=Koneko no Payapaya.mp4=1.000=1=0=0=StretchNoLoop==CrossFade==,
99999.000=-nosongbg-=1.000=0=0=0=StretchNoLoop====
;
#FGCHANGES:;

//--------------- dance-single - Melody Love ----------------
#NOTES:
     dance-single:
     Melody Love:
     Beginner:
     2:
     0,0,0,0,0:
0000
0000
0000
0000
,
0000
0000
0000
0000
,
0000
0000
0000
0000
,
0000
0000
0000
0000
,
0000
0000
0000
0000
,
0000
0000
1000
0000
,
0000
0000
0000
0000
,
0000
0000
0001
0000
,
0000
0000
0000
0000
,
0000
0000
0100
0000
,
0000
0000
0000
0000
,
0000
0000
0001
0000
,
0000
0000
0000
0000
,
0000
0000
1000
0000
,
0000
0000
0100
0000
,
0000
0000
1000
0000
,
0000
0000
0000
0000
,
0000
0000
0001
0000
,
0000
0000
0100
0000
,
0000
0000
0001
0000
,
0000
0000
0000
0000
,
0000
0000
1000
0000
,
0000
0000
0001
0000
,
0000
0000
0100
0000
,
0000
0000
0000
0000
,
0000
0000
0001
0000
,
0000
0000
1000
0000
,
0000
0000
0100
0000
,
0000
0000
0100
0000
,
0000
0000
1000
0000
,
0000
0000
0001
0000
,
0000
0000
1000
0000
,
0000
0000
1000
0000
,
0000
0000
0001
0000
,
0000
0000
0001
0000
,
0000
0000
0100
0000
,
0000
0000
0100
0000
,
0000
0000
0010
0000
,
0000
0000
0010
0000
,
0000
0000
1000
0000
,
0000
0000
0100
0000
,
0000
0000
1000
0000
,
0000
0000
0001
0000
,
0000
0000
0001
0000
,
0000
0000
0100
0000
,
0000
0000
0001
0000
,
0000
0000
0100
0000
,
0000
0000
0001
0000
,
0000
0000
1000
0000
,
0000
0000
0100
0000
,
0000
0000
1000
0000
,
0000
0000
0001
0000
,
0001
0000
0001
0000
,
0000
0000
1000
0000
,
1000
0000
1000
0000
,
0000
0000
1001
0000
,
0000
0000
0000
0000
,
0000
0000
1001
0000
,
0000
0000
0000
0000
,
0000
0000
0100
0000
,
0000
0000
0001
0000
,
0000
0000
1000
0000
,
0000
0000
0100
0000
,
0000
0000
1000
0000
,
0000
0000
0001
0000
,
0000
0000
0100
0000
,
0000
0000
0010
0000
,
0010
0000
1000
0000
,
0000
0000
0001
0000
,
0000
0000
1000
0000
,
0000
0000
0001
0000
,
0000
0000
0010
0000
,
0000
0000
0100
0000
,
0000
0000
0010
0000
,
0000
0000
0001
0000
,
0001
0000
1000
0000
,
0000
0000
0000
0000
,
0000
0000
0000
0000
,
0000
0000
0000
0000
,
0000
1001
0000
0000
;

//--------------- dance-single - Melody Love ----------------
#NOTES:
     dance-single:
     Melody Love:
     Easy:
     5:
     0,0,0,0,0:
0000
0000
0000
0000
,
0000
0000
0000
0000
,
0000
0000
0000
0000
,
0000
0000
0000
0000
,
0000
0000
0000
0000
,
0000
0000
1000
0000
,
0001
0000
0100
0000
,
0000
0000
0001
0000
,
1000
0000
0100
0000
,
0000
0000
1000
0000
,
0001
0000
0010
0000
,
0000
0000
0001
0000
,
1000
0000
0010
0000
,
0100
0000
1001
0000
,
1000
0000
1000
0100
,
0001
0000
1000
0000
,
0001
0000
0001
0100
,
0010
0000
1001
0000
,
0001
0000
0001
0100
,
1000
0000
0001
0000
,
1000
0000
1000
0100
,
0010
0000
1001
0000
,
0100
0000
0010
0010
,
0010
0000
1000
0000
,
0001
0000
0100
0000
,
0100
0000
1001
0000
,
0010
0000
1000
0000
,
0100
0100
0010
0000
,
0010
0000
0010
0000
,
0010
0010
0001
0000
,
0000
0000
1000
0000
,
0000
0000
0001
0000
,
1000
0000
0001
0001
,
0100
0000
0100
0000
,
0001
0000
1000
0001
,
1000
0000
1001
0000
,
1000
0000
0001
0000
,
1000
1000
0001
0010
,
0100
0000
0100
0010
,
0100
0000
0001
0000
,
0001
0000
1000
1000
,
1000
0000
0100
0000
,
0100
0000
1000
1000
,
1000
0000
0001
0100
,
0000
0000
0001
0100
,
0001
0000
0001
1000
,
0000
0000
0001
1000
,
0001
0000
1000
0100
,
0000
0000
1000
0100
,
1000
0000
1000
0001
,
0000
0000
1000
0001
,
1000
0000
0001
0000
,
0100
0000
1000
0000
,
0100
0000
0001
0000
,
0100
0000
1000
0000
,
0100
0000
1001
0000
,
0000
0000
0001
1000
,
0001
0000
1000
0000
,
0001
0000
0100
0100
,
0100
0000
1001
0000
,
1000
0000
0001
0100
,
0010
0000
0010
0000
,
1000
0000
0001
0010
,
0100
0000
0100
0000
,
1000
0000
0001
1000
,
0001
0000
0100
0000
,
0001
0000
1000
0000
,
0100
0000
1100
0000
,
0001
0000
0100
0001
,
0100
0000
0101
0000
,
1000
0000
0100
1000
,
0100
0000
1100
0000
,
0100
0000
0001
0100
,
0001
0000
0101
0000
,
0100
0000
0100
0010
,
0100
0000
1001
0000
,
0000
0000
0000
0000
,
0000
0000
0000
0000
,
0000
0000
0000
0000
,
0000
1001
0000
0000
;

//--------------- dance-single - Melody Love ----------------
#NOTES:
     dance-single:
     Melody Love:
     Medium:
     9:
     0,0,0,0,0:
0000
0000
0000
0000
,
0000
0000
0000
0000
,
0000
0000
0000
0000
,
0000
0000
0000
0000
,
0000
0000
0000
0000
,
0000
0000
0001
0100
,
0010
0000
0001
1000
,
0001
0001
1000
0100
,
0010
0000
1000
0001
,
1000
0000
1001
0001
,
0010
0000
1000
0001
,
0100
0100
0010
1000
,
0010
0000
0001
1000
,
0001
0000
0000
0000
1100
0000
0100
0010
,
0001
1000
0010
0100
,
0001
0001
1000
0100
,
0010
0000
1000
0001
,
1000
0000
0000
0000
0101
0000
0100
0010
,
1000
0001
0010
0100
,
1000
1000
0001
0100
,
0010
0000
0001
1000
,
0001
0000
1001
0000
,
0100
0000
0010
0010
,
0001
0000
1000
0000
0010
0000
0100
0010
,
0100
0000
0001
0000
0001
0000
1000
0001
,
1000
0100
0110
0000
,
0001
0001
1000
0010
,
0100
0000
0001
0100
0001
0000
1000
0000
,
0100
0000
1000
0100
1000
0000
0001
0000
,
0100
0001
1001
0000
,
0101
0000
1100
0000
,
1001
0000
0000
0000
0000
0000
1000
0100
,
1000
0000
0001
0000
0100
0000
0010
0100
,
0000
0010
0100
0000
0110
0000
0001
0100
,
0001
0000
1000
0000
0100
0000
0010
0100
,
0000
0000
0010
0000
0011
0000
1000
0001
,
1000
0001
0000
0100
0000
0100
0010
0000
,
1000
0000
0001
0000
0000
0000
0010
0100
,
0001
0000
0100
0000
0010
0000
0100
0010
,
1000
0000
1001
1000
,
0100
0000
0010
0000
0001
0000
0001
0100
,
0010
0010
1000
0001
,
0100
0000
0010
0000
1000
0000
1000
0100
,
0010
0000
1100
1000
,
0001
0000
0100
0001
0000
0001
0100
0000
,
0100
0000
0010
1000
0100
0000
0100
1000
,
0000
1000
0100
0000
0100
0000
0010
0000
,
0001
0000
1000
0001
0100
0000
0100
0001
,
0000
0001
0100
0000
0100
0000
0010
0100
,
0001
1000
0001
1001
,
0000
0000
0000
0000
,
0001
0000
1000
0000
1100
0000
0001
1000
,
0000
0000
1100
0000
0001
0100
0000
0000
,
0101
0000
1000
0001
0000
0000
0101
0000
,
1000
0100
0000
0000
1001
0000
0100
0010
,
0000
0100
1001
0000
,
0000
0000
1000
0001
,
0100
0100
0010
1000
,
0001
1000
1001
1001
,
1001
0000
1001
0000
0110
0000
0001
0100
,
0001
0000
1000
0000
0100
0000
0010
0100
,
0000
0010
0100
0000
0110
0000
1000
0100
,
1000
0000
0001
0000
0100
0000
0010
0100
,
0000
0000
0010
0000
1010
0000
0001
1000
,
0001
1000
0000
0100
0000
0100
0010
0000
,
0001
0000
1000
0000
0000
0000
0010
0100
,
1000
0000
0100
0000
0010
0000
0100
0010
,
0001
0000
1000
0000
1001
0000
0100
0010
,
0100
0010
1000
0001
,
0010
0000
0100
0000
1001
0000
0100
0010
,
0100
0010
0001
1000
,
0100
0000
0010
0000
1001
0000
0001
1000
,
0100
0001
1000
0010
,
0100
0000
0001
0000
1001
0000
1000
0001
,
0100
1000
0010
0100
,
0001
1000
0001
0000
1001
0000
0000
0000
,
0000
0000
0000
0000
,
0000
0000
0000
0000
0000
0000
0001
1000
,
0001
1000
0000
0110
0000
0100
0000
0010
,
0000
1001
0000
0000
;

//--------------- dance-single - Melody Love ----------------
#NOTES:
     dance-single:
     Melody Love:
     Hard:
     12:
     0,0,0,0,0:
0000
0000
0000
0000
,
0000
0000
0000
0000
,
0000
0000
0000
0000
,
0000
0000
0000
0000
,
0000
0000
0000
0000
,
0000
0000
0001
0100
,
0001
0000
1000
0000
0100
0000
0100
1000
,
0010
0001
1000
0100
,
1000
0000
0001
0000
0100
0000
0100
0001
,
0010
1000
1001
1000
,
0100
0000
1000
0000
0001
0000
0001
0100
,
0010
0001
1000
0001
,
1000
0000
0100
0000
1000
0000
1000
0100
,
0010
0000
0110
1000
,
0001
0000
0100
0010
0000
1000
0000
0100
,
0010
1000
0010
0100
,
0001
0000
0010
0100
0000
1000
0000
0010
,
0100
1000
1001
0001
,
1000
0000
0100
0010
0000
0001
0000
0100
,
0010
0001
0010
0100
,
1000
0000
0010
0100
0000
0001
0000
0010
,
0100
0000
0001
0000
1001
0000
0001
0100
,
0001
0100
0000
1000
0000
1000
0000
1000
,
0100
0000
0010
0000
1010
0000
1000
0100
,
1000
0100
0000
0001
0000
0001
0000
0001
,
0100
0000
0010
0000
0011
0000
0001
1000
,
0001
1000
0000
0010
0000
0010
0000
0010
,
0100
0000
0100
0001
1000
0100
1000
0001
,
1000
0100
0000
0010
0000
0001
1000
0001
,
0100
0001
1000
0000
0100
0000
0001
0000
,
0100
1000
0010
0001
,
0010
0000
1000
0000
1001
0000
1000
0100
,
1000
0100
0000
0010
0000
0010
0001
0010
,
0000
1000
0100
0010
0001
0000
0001
0100
,
0001
0100
0000
0010
0100
0001
1000
0100
,
0000
0000
1100
0000
0101
0000
1000
0001
,
1000
0001
0000
0100
0000
0100
0010
0100
,
1000
0100
0001
0000
1001
0000
0001
1000
,
0001
1000
0100
0010
0100
0010
1000
0010
,
0001
0000
0000
0000
0011
0000
0001
1000
,
0001
0100
0000
0100
0000
1000
0000
0100
,
0001
0000
1000
0000
1100
0000
1000
0001
,
1000
0100
0000
0100
0000
0001
0000
0100
,
1000
0001
1000
0000
1001
0000
0001
0100
,
0000
0100
0001
0100
0001
0000
1000
0001
,
0100
0010
1000
0100
1000
0000
1000
0100
,
0000
0100
1000
0100
1000
0000
0001
1000
,
0100
0010
0001
0100
0001
0000
0100
0001
,
0000
0001
0100
0001
0100
0000
0010
0100
,
0001
0010
0100
1000
0000
1001
0000
0000
,
0000
0000
0000
0000
,
1000
0000
0000
0001
0000
0000
1000
0000
1001
0000
0000
0000
0001
0000
0001
0000
,
0000
0010
0010
0000
1000
1000
0000
0100
,
0100
0000
0001
0001
0000
0010
0010
0000
,
1000
1000
0000
0100
0100
0000
0001
0001
,
0000
0010
0100
1000
0000
0000
0100
1000
,
0100
1000
0001
0100
0000
0010
0000
1000
,
0000
0001
0000
1000
0000
0100
0010
0001
,
0100
0001
0000
1000
1100
0000
0101
0000
,
1100
0000
0101
0000
1001
0000
0001
0100
,
0001
0100
0010
0100
0000
0010
1000
0010
,
0000
0001
0100
0010
1000
0000
1000
0100
,
1000
0100
0010
0001
0010
0100
1000
0001
,
0000
0000
0101
0000
1100
0000
0001
1000
,
0001
1000
0000
0100
0000
0100
0010
0100
,
0001
0100
1000
0000
1001
0000
1000
0001
,
1000
0001
0100
0010
0100
0010
0001
0010
,
1000
0001
0100
0101
0000
0000
1000
0100
,
0010
0100
1000
0010
0000
0001
1000
0100
,
0000
1000
0100
1100
0000
0000
0001
0100
,
0010
0100
0001
0010
0000
1000
0001
0100
,
0000
0001
0010
0011
0000
0000
0001
0010
,
0100
0001
0100
0010
0000
0100
0001
0100
,
1000
0010
1000
1010
0000
0000
1000
0010
,
0100
1000
0100
0010
0000
0100
0001
1000
,
0100
1000
0001
1001
0000
0000
0000
0000
,
0000
0000
0000
0000
,
0000
0000
0000
0000
0000
0000
0001
1000
,
0001
1000
0000
0100
0000
0010
0001
1000
,
0000
1001
0000
0000
;
