#TITLE:ここからよろしく大作戦143;
#SUBTITLE:;
#ARTIST:BEMANI Sound Team "あさき隊";
#TITLETRANSLIT:Koko kara yoroshiku daisakusen 143;
#SUBTITLETRANSLIT:;
#ARTISTTRANSLIT:BEMANI Sound Team "Asaki-tai";
#GENRE:;
#CREDIT:;
#MUSIC:Koko kara yoroshiku daisakusen 143.ogg;
#BANNER:Koko kara yoroshiku daisakusen 143.png;
#BACKGROUND:;
#CDTITLE:;
#SAMPLESTART:24.619;
#SAMPLELENGTH:15.000;
#SELECTABLE:YES;
#OFFSET:0.000;
#BPMS:0.000=184.000;
#STOPS:;
#BGCHANGES:;
#FGCHANGES:;

//--------------- dance-single - ----------------
#NOTES:
     dance-single:
     :
     Beginner:
     5:
     0.181352,0.22331,0.076937,0.06155,0,165,155,10,8,0,0,0.181352,0.22331,0.076937,0.06155,0,165,155,10,8,0,0:
0000
0000
0000
0000
,
0000
0000
0000
0000
,
0000
0000
0000
0000
,
1000
0000
0001
0000
,
0010
0010
0010
0000
,
0001
0000
1000
0000
,
0100
0100
0100
0000
,
1000
0000
0010
0000
,
0100
0100
0100
0000
,
0001
0001
0001
0000
,
1000
1000
1000
0000
,
0001
0000
0001
0000
,
0010
0000
0010
0000
,
0100
0000
0100
0000
,
1000
0000
1000
0000
,
0001
0000
1000
0000
,
0010
0010
1000
0000
,
0001
0001
1000
1000
,
0100
1000
0100
0000
,
2000
0000
0000
3000
,
0002
0000
0000
0003
,
0100
0000
0010
0000
,
0010
0010
1000
0000
,
0010
0010
0010
0000
,
0100
0100
0100
0000
,
0001
0000
1000
0000
,
2002
0000
3003
0000
,
1000
0000
1000
0000
,
0001
0100
0001
0000
,
1000
0000
1000
0000
,
0001
0010
0001
0000
,
1000
0000
0001
0000
,
0001
0000
0010
0000
,
0010
0000
0110
0000
,
2002
0000
3003
0000
,
1000
1000
1000
0000
,
0001
0001
0001
0000
,
0100
0100
0010
0010
,
1000
0010
1000
0000
,
0001
0001
0001
0000
,
1000
1000
1000
0000
,
0100
0000
0110
0000
,
2002
0000
3003
0000
,
0001
0010
0001
0000
,
0001
0100
0001
0000
,
1000
0010
1000
0000
,
1000
0100
1000
0000
,
0001
0001
0001
0000
,
1000
1000
1000
0000
,
0010
0100
0010
0100
,
0020
0000
0030
0000
,
1000
1000
1000
0000
,
0001
0001
0001
0000
,
0100
0000
0010
0000
,
1000
0010
0100
0000
,
0001
0000
0001
0000
,
0001
0010
0100
0000
,
1000
0000
1000
0000
,
1000
0010
0100
0000
,
0002
0000
0000
0003
,
2000
0000
0000
3000
,
0010
0010
1000
0000
,
0100
0100
1000
0000
,
0002
0000
0000
0003
,
2000
0000
0000
3000
,
0001
0100
0001
0100
,
0001
0010
0010
0000
,
2002
0000
0000
0000
,
0000
0000
0000
0000
,
0000
0000
0000
0000
,
0000
0000
3003
0000
,
0010
0000
0110
0000
,
2002
0000
3003
0000
,
0001
0001
0001
0000
,
1000
1000
1000
0000
,
0100
0100
0010
0010
,
0001
0010
0001
0000
,
1000
1000
1000
0000
,
0001
0001
0001
0000
,
0100
0000
0110
0000
,
2002
0000
3003
0000
,
1000
0010
1000
0000
,
1000
0100
1000
0000
,
0001
0010
0001
0000
,
0001
0100
0001
0000
,
1000
1000
1000
0000
,
0001
0001
0001
0000
,
0100
0100
0100
0000
,
2002
0000
0000
3003
,
0001
0000
1000
0000
,
0010
0010
0010
0000
,
1000
0000
0001
0000
,
0100
0100
0100
0000
,
0001
0000
0010
0000
,
0100
0100
0100
0000
,
1000
1000
1000
1000
,
0001
0001
0001
0001
;

//--------------- dance-single - ----------------
#NOTES:
     dance-single:
     :
     Easy:
     7:
     0.323137,0.372184,0.100018,0.146181,0,294,281,13,19,0,0,0.323137,0.372184,0.100018,0.146181,0,294,281,13,19,0,0:
0000
0000
0000
0000
,
0000
0000
0000
0000
,
0000
0000
0000
0000
,
1000
0000
0001
0000
0010
0000
0001
2000
,
0000
3010
0010
0100
,
0001
0000
0010
0000
0001
0000
0100
0020
,
0000
1030
1000
0001
,
0010
0000
0100
0000
1000
0000
0001
0200
,
0000
0310
0010
1000
,
0000
0001
0001
0000
0010
0010
0000
0100
,
0000
1000
1000
0000
1100
0000
0011
0000
,
0001
0000
0000
0001
0100
0000
0000
0010
,
1000
1000
0100
0100
,
0010
0000
0010
0000
0001
1000
0000
0100
,
0000
1000
0000
0000
1100
0000
0011
0000
,
0001
0002
0000
0000
0103
0000
0010
0000
,
1000
0010
0100
0001
,
0010
0100
1000
0001
,
0100
0000
0100
0010
0000
0010
0000
1000
,
0100
0000
0000
0100
1000
0000
0000
1000
,
0010
0100
0001
0010
,
0010
0000
0001
0000
0100
0000
0010
2000
,
0000
3001
0001
0010
,
0110
0000
0001
0001
,
0001
1000
0010
0100
,
0001
1000
0100
0010
,
0110
2002
0000
3003
,
2000
0100
3100
0000
,
0002
0100
0103
0010
,
2000
0001
0001
3002
,
0023
0230
0320
0030
,
0002
0000
0000
0013
0000
0000
0200
0000
,
0000
1300
0000
0000
2002
0000
3003
0000
,
0001
0001
1000
1000
,
0010
0000
0010
0200
0000
0000
0300
0000
,
0001
0010
0001
0010
,
0001
0100
0001
0100
,
0010
1000
0010
1000
,
0100
0100
0100
0000
,
1000
0001
1000
0100
,
1000
0010
0100
0001
,
1000
0000
0001
0001
0000
0010
0000
0100
,
0000
1000
0000
0001
0000
0100
0100
0000
,
0010
1000
0100
1000
,
0010
1000
0100
0000
,
0010
0001
0100
0001
,
0010
0001
0100
0010
,
1000
1000
0001
0001
,
0010
0100
1000
0010
,
0100
0100
0010
0010
,
1000
1000
0000
0001
0001
0000
0001
0000
,
0100
0100
0010
0000
,
0010
0010
0100
0000
,
0001
0001
0010
0010
,
0100
0100
2000
0000
,
3001
0001
0000
0100
0000
0100
0000
0010
,
0000
2000
0000
0001
3001
0000
0000
0000
,
0001
0001
0000
0010
0000
0100
0000
1000
,
0000
0002
0000
1000
1003
0000
0001
0000
,
0100
0100
0100
0000
,
0010
0010
0010
0000
,
1000
0001
0010
0001
,
0100
0100
0010
0010
,
1000
0010
1000
0010
,
1000
0100
1000
0100
,
1000
0001
1000
0001
,
0100
0001
0100
0001
,
0020
0000
0130
0000
,
2000
0000
3001
0000
,
0200
0000
0320
0000
,
2030
0000
3002
0000
,
1003
0000
1000
0000
1000
0000
0001
0001
,
0000
0100
0020
0000
0000
0000
0030
0000
,
1000
0100
1000
0100
,
1000
0010
1000
0010
,
0100
0001
0100
0001
,
0010
0010
0010
0000
,
0001
1000
0001
0010
,
0001
0100
0010
1000
,
0001
0000
1000
1000
0000
0100
0000
0010
,
0000
0001
0000
1000
0000
0010
0010
0000
,
0100
0001
0010
0001
,
0100
0001
0010
0000
,
0100
1000
0010
1000
,
0100
1000
0010
0100
,
0001
0001
1000
1000
,
0100
0010
0001
0100
,
0010
0010
0100
0100
,
0020
0000
0030
1001
,
0001
0000
1000
0000
0010
0000
1000
0002
,
0000
0013
0010
0100
,
1000
0000
0010
0000
1000
0000
0100
0020
,
0000
0031
0001
1000
,
0010
0000
0100
0000
0001
0000
1000
0200
,
0000
0310
0010
0001
,
0000
1000
1000
0000
0010
0010
0000
0100
,
0000
0001
0001
0000
0101
0000
1010
0000
;

//--------------- dance-single - ----------------
#NOTES:
     dance-single:
     :
     Medium:
     13:
     0.420957,0.483839,0.146181,0.176956,0,383,364,19,23,0,0,0.420957,0.483839,0.146181,0.176956,0,383,364,19,23,0,0:
0000
0000
0000
0000
,
0000
0000
0000
0000
,
0000
0000
0000
0000
,
0001
1000
0010
0000
1010
0000
0001
0200
,
0000
0310
2000
0000
3001
0001
0001
0000
,
1000
0100
0010
0000
0110
0000
0001
2000
,
0000
3010
0200
0000
0310
0010
0010
0000
,
1000
0001
0010
0000
0011
0000
1000
0200
,
0000
0310
0002
0000
1003
1000
1000
0010
,
0000
1000
0100
1000
0001
1000
0000
0100
,
0000
0010
0001
1000
1001
0000
0110
0000
,
1000
0000
0010
0100
0001
0000
1000
0200
,
0000
0310
0001
1000
0100
0000
1100
0000
,
0011
0000
0001
0100
0010
0010
0000
0110
,
0000
1001
0000
1000
0100
0000
0110
0000
,
0001
2000
0000
3000
0100
0010
0100
0001
,
0000
1000
0100
0010
0200
0000
0320
0000
,
0031
1000
0001
1000
0001
0100
0010
0100
,
0010
1000
0100
2000
0000
0001
3001
0100
,
0020
0000
1030
0100
0020
0000
0031
0020
,
0000
0130
1000
0100
2000
0000
3001
0100
,
2000
0000
3200
0000
0302
0000
1003
0100
,
0002
0203
2300
3001
,
0100
0000
0110
0000
1000
0010
0100
0001
,
0000
1000
0100
0010
0000
0011
0000
1100
,
0000
1000
0001
0010
0000
0001
1000
0010
,
0100
0100
0100
0020
0000
0000
0030
0000
,
0000
1000
0100
1000
0001
1000
0000
0001
,
0010
0001
1000
0001
0000
0100
0100
0010
,
0000
1000
0100
0001
0100
1000
0000
0001
,
0100
1000
0100
0001
1000
1000
1000
0000
,
1000
0010
0100
0001
0010
0001
1000
0100
,
1000
0010
0100
0001
0010
0001
0100
0010
,
1000
0001
0011
1100
,
1000
0001
1000
2002
0000
0000
3000
0000
,
0103
0010
1000
0001
0010
0001
0100
0000
,
0010
1000
0010
0100
0001
1000
0100
0000
,
0010
0001
0010
0100
0010
0001
1000
0020
,
0000
0100
0130
0000
0010
0000
1001
0000
,
1000
0100
1000
0010
0100
0001
1000
0000
,
0001
0010
0001
0010
0100
0010
0001
0000
,
0100
0000
0010
0010
0000
0110
0000
1001
,
0000
1000
0100
0020
0000
0001
0031
0000
,
1000
0100
1000
0001
0010
0001
0100
1000
,
0100
0001
0010
0200
0000
0010
0310
0000
,
0001
0100
0001
1000
0010
1000
0100
0001
,
0100
1000
0010
0200
0000
0310
0010
1000
,
0001
1001
0100
0110
,
1000
1100
0110
0011
,
0001
1000
1000
1000
0001
1000
1000
1000
,
0010
0100
0000
0100
0010
0010
0100
0001
,
0000
1000
0100
0010
0100
1000
0000
0001
,
0100
0010
0100
0001
0000
1000
1000
0001
,
0001
0010
0000
0001
0100
0010
0010
1000
,
0000
0100
0100
1000
0020
0000
0000
0000
,
1030
1000
0000
1100
0000
1010
0000
1001
,
0000
1010
0000
1000
0200
0000
0320
0000
,
0031
0001
0000
0011
0000
0101
0000
1001
,
0000
0001
0101
0000
0001
0100
0010
1000
,
0002
0000
0000
0000
0000
1003
0000
1000
,
0200
0000
0000
0310
0010
0001
1000
0010
,
0100
0100
0001
0001
1000
1000
0100
0100
,
0010
0001
0010
0100
1000
0100
0010
0001
,
2000
0000
0000
0000
0000
0000
3010
0100
,
0001
0100
0010
0100
1000
0100
0010
0100
,
0001
1000
1000
0100
0010
0010
0001
1000
,
1000
0010
0100
0100
0001
1000
0010
1000
,
0002
0000
0203
0000
0310
2000
0000
3002
,
0000
1003
0100
1000
0100
2000
0000
3002
,
0000
0103
0010
0100
0001
0010
0000
0110
,
0000
2002
0000
3003
0000
1000
0100
2000
,
0000
0000
0010
0000
0001
3001
0000
0011
,
0000
1000
2002
0000
0000
0000
0003
0000
,
3100
0010
0001
1000
0010
1000
0100
0000
,
0010
0001
0010
0100
1000
0001
0100
0000
,
0010
1000
0010
0100
0010
1000
0001
0020
,
0000
0100
0130
0000
0010
0000
1001
0000
,
0001
0100
0001
0010
0100
1000
0001
0000
,
1000
0010
1000
0010
0100
0010
1000
0000
,
0100
0000
0010
0010
0000
0110
0000
1001
,
0000
0001
0100
0020
0000
1000
1030
0000
,
0001
0100
0001
1000
0010
1000
0100
0001
,
0100
1000
0010
0200
0000
0010
0310
0000
,
1000
0100
1000
0001
0010
0001
0100
1000
,
0100
0001
0010
0200
0000
0310
0010
0001
,
1000
1001
0100
0110
,
0001
0101
0110
1010
,
1000
0001
0001
0001
1000
0001
0001
0001
,
0200
0000
0000
0000
0000
0300
1001
0000
,
1000
0100
1000
0000
0011
0000
1000
0200
,
0000
0310
0002
0000
1003
1000
1000
0000
,
0001
0010
0100
0000
0110
0000
1000
0002
,
0000
0103
0020
0000
1030
1000
0100
0010
,
0001
0100
0001
0000
1010
0000
0001
0200
,
0000
0310
2000
0000
0001
0001
3001
0010
,
0000
0100
0100
0010
0100
0010
0000
0001
,
0000
1000
1000
0010
0110
0000
1001
0000
;

//--------------- dance-single - ----------------
#NOTES:
     dance-single:
     :
     Hard:
     17:
     0,0,0,0,0:
0000
0000
0000
0000
,
0000
0000
0000
0000
,
0000
0000
0000
0000
,
1000
0100
1000
0000
0011
0000
0001
0200
,
0000
0310
1000
0001
1000
0100
0110
0000
,
0001
0010
0001
0000
0101
0000
1000
0020
,
0000
0130
0001
1000
0200
0010
0310
0000
,
0001
0100
0001
0000
1010
0000
1000
0200
,
0000
0000
0310
0000
0001
0000
1000
0000
0001
0000
0100
0001
0100
0001
0100
0001
,
0000
0000
1000
0000
1000
0000
1000
0000
0010
1000
0001
0000
0010
0000
0011
0000
,
0000
0000
1100
0000
0100
0000
0010
0000
0001
0100
0001
0100
0010
1000
0010
1000
,
0100
0000
0100
1000
0100
0000
0100
0020
,
0000
0031
0100
0010
1000
0000
1010
0000
,
0101
0000
0001
0001
0100
0010
1000
0001
,
0010
0001
0010
0001
1000
0010
1000
0010
0100
0001
0100
0001
1000
0100
1000
0100
,
0010
0000
0011
0001
0001
0010
0100
1000
,
0010
0000
1010
1000
1000
0010
0100
0001
,
0010
0000
0110
0100
0100
0010
0001
1000
,
0100
1000
0100
1000
0001
0100
0001
0100
0010
1000
0010
0100
0001
1000
0100
0010
,
0001
0100
0101
0000
0100
0010
1000
2000
,
0000
0000
3001
0000
0001
0000
0010
0000
0100
0000
0000
0000
1000
0100
0010
0001
,
0010
0000
0011
0000
1100
0000
1000
0002
,
0000
0103
0020
0000
0130
0010
1001
0000
,
1000
0000
1010
0000
1000
0001
0100
0020
,
0000
0000
0130
0000
0100
0000
0001
0000
1000
0000
0000
0000
0001
0010
0100
1000
,
0100
0000
1001
0000
1000
1000
0010
0100
,
0001
0000
0001
0000
0010
0000
0100
0000
1000
0001
1000
0001
1000
0001
1000
0000
,
0000
1000
1000
0010
1010
1010
0000
0001
,
0001
0100
0101
0101
0000
1000
0100
0010
,
0000
0001
0001
0010
0011
0011
0000
1000
,
1000
0100
1100
1100
1000
0010
0100
0001
,
2000
0000
3100
0010
0001
0010
0002
0000
0103
0010
1000
0010
2000
0000
3100
0010
,
0001
1000
0200
0000
0310
0001
1000
0010
0200
0000
0010
0000
0310
0000
0000
0000
,
1000
0000
0100
0010
0001
0000
1000
0010
0100
0000
0001
1000
0010
0000
1000
0100
,
0010
0010
0110
2002
0000
0000
3003
0000
,
0001
0000
0100
0000
0010
1000
0010
0000
1000
0100
1000
0000
0010
1000
0010
0000
,
0100
0000
0001
0000
1000
0100
1000
0000
0001
0010
0001
0000
0100
0001
0100
0000
,
0010
0000
1000
0000
0001
0010
0100
0000
1000
0010
0100
0000
0001
1000
0100
0000
,
0010
0001
0012
0000
1003
0010
0100
0010
,
1000
0000
0010
0000
0100
0001
0100
0000
0001
0010
0001
0000
1000
0100
1000
0000
,
0010
0000
0100
0000
0001
1000
0001
0000
0010
0001
0010
0000
0100
1000
0100
0000
,
1000
0000
0000
0000
1010
0000
0000
0000
0101
0000
0001
0100
0010
1000
0002
0000
,
0000
1003
1000
2000
0000
3100
0010
0001
,
1000
0000
0010
0000
0100
0000
0010
0000
1000
0000
0100
0000
1000
0000
0010
0100
,
0001
0010
0100
2000
0000
3001
0001
0010
,
0100
0000
0010
0000
0001
0000
0100
0000
0001
0000
0010
0100
1000
0000
0010
0000
,
0100
0000
0100
0000
0100
0000
0010
0000
0010
0000
0010
1000
0010
1000
0001
0100
,
0010
1000
1010
0000
1000
0100
1100
0000
,
0001
0010
0011
0001
0100
0010
1001
0000
,
1000
0000
0010
1000
0010
1000
0010
1000
0001
0010
0001
0010
0001
0010
0001
0100
,
0010
0000
1000
0001
1000
0000
0001
0000
0001
0100
0010
1000
0001
0000
0001
0000
,
0000
2000
0010
0010
0010
3010
0000
0002
,
0010
0000
0010
0000
0010
0000
0013
0000
0000
0000
1000
0010
0100
0000
0100
0000
,
0001
0000
0001
0000
0000
0000
0010
0100
1000
0000
1000
0000
0001
0000
0100
0000
,
0000
0000
0010
1000
0001
0100
0010
1000
0010
0100
0001
1000
0100
1000
0100
0010
,
0001
0001
0000
0001
1100
0001
0000
0001
,
0000
0001
0000
0001
1010
0010
0100
0010
,
1000
1000
0000
1000
0011
1000
0000
1000
,
0000
0000
1010
0000
0101
0000
0000
0000
0001
0010
0100
1000
0001
0010
0100
1000
,
0002
0000
0000
0000
0000
0000
0000
0000
0000
0000
2003
0000
0000
0000
3010
0100
,
0002
0000
0000
0000
0000
0000
1003
0100
0010
0000
0010
0000
0001
0000
1000
0000
,
0100
0000
1000
0010
1000
0000
0001
0010
0001
0000
1000
0100
1000
0000
0001
0100
,
0001
0000
1000
0100
0010
0000
0001
1000
0010
0000
0100
0010
0100
0000
0001
0000
,
2000
0000
0000
0000
0000
0000
0000
0000
0000
0000
3000
0000
0001
1000
0001
1000
,
0010
0100
0001
1000
0001
1000
0100
0010
0001
1000
0001
1000
0010
0100
0010
0100
,
0001
0000
1000
0000
0100
0010
0001
0010
0100
0000
1000
0001
0010
0001
1000
0000
,
0010
0100
0001
0100
0010
0000
1000
0100
1000
0100
0010
0001
1000
0010
0100
0001
,
2000
0000
0000
0000
,
0000
0000
3000
0000
,
0002
0000
0000
0000
,
0003
0000
0000
1000
0010
0100
0001
0100
0010
1000
0100
0010
,
0002
0000
0000
0000
1000
0000
1000
0000
1000
0000
1000
0000
1003
0010
0100
0000
,
0000
0110
2002
0000
0000
0000
3003
0000
,
1000
0000
0100
0000
0010
0001
0010
0000
0001
0100
0001
0000
0010
0001
0010
0000
,
0100
0000
1000
0000
0001
0100
0001
0000
1000
0010
1000
0000
0100
1000
0100
0000
,
0010
0000
0001
0000
1000
0010
0100
0000
0001
0010
0100
0000
1000
0001
0100
0000
,
0010
1000
2010
0000
3001
0010
0100
0010
,
0001
0000
0010
0000
0100
1000
0100
0000
1000
0010
1000
0000
0001
0100
0001
0000
,
0010
0000
0100
0000
1000
0001
1000
0000
0010
1000
0010
0000
0100
0001
0100
0000
,
0001
0000
0000
0000
0011
0000
0000
0000
1100
0000
1000
0100
0010
0001
2000
0000
,
0000
3001
0001
0002
0000
0103
0010
1000
,
0001
0000
0010
0000
0100
0000
0010
0000
0001
0000
0100
0000
0001
0000
0010
0100
,
1000
0010
0100
0002
0000
1003
1000
0010
,
0100
0000
0010
0000
1000
0000
0100
0000
1000
0000
0010
0100
0001
0000
0010
0000
,
0100
0000
0100
0000
0100
0000
0010
0000
0010
0000
0010
0001
0010
0001
1000
0010
,
0100
0001
0101
0000
1000
0100
1100
0000
,
1000
0010
1000
0010
0100
0001
0100
0001
1000
0100
1000
0100
0010
0001
0010
0001
,
1000
0010
0100
0001
1000
0100
0010
0001
1000
0010
0100
0010
1000
0001
0010
0100
,
0010
0000
0000
0000
0000
0000
0000
0000
0000
0000
0000
0000
0001
1000
0000
0000
,
0001
0100
0001
0000
1010
0000
1000
0200
,
0000
0310
0001
1000
0001
0100
0110
0000
,
1000
0010
1000
0000
1100
0000
0001
0020
,
0000
0130
1000
0001
0200
0010
0310
0000
,
1000
0100
1000
0000
0011
0000
0001
0200
,
0000
0000
0310
0000
1000
0000
0001
0000
1000
0000
0100
1000
0100
1000
0100
1000
,
0000
0000
0001
0000
0001
0000
0001
0000
0010
0001
1000
0000
0010
0000
1010
0000
,
0000
1100
0100
0010
0011
0000
1001
0000
;
