#VERSION:0.83;
#TITLE:恋するMonstro;
#SUBTITLE:;
#ARTIST:sei☆shin feat.あまねこゆ;
#TITLETRANSLIT:Koisuru Monstro;
#SUBTITLETRANSLIT:;
#ARTISTTRANSLIT:sei shin feat. Amanekoyu;
#GENRE:;
#CREDIT:;
#MUSIC:Koisuru Monstro.ogg;
#BANNER:;
#BACKGROUND:;
#JACKET:;
#DISCIMAGE:;
#CDIMAGE:;
#SELECTABLE:YES;
#LYRICSPATH:;
#CDTITLE:;
#SAMPLESTART:52.396;
#SAMPLELENGTH:13.521;
#OFFSET:1.055;
#BPMS:0.000=142.000;
#STOPS:;
#WARPS:;
#DELAYS:;
#SPEEDS:;
#SCROLLS:;
#TICKCOUNTS:;
#TIMESIGNATURES:;
#LABELS:;
#COMBOS:;
#FAKES:;
#BGCHANGES:;
#FGCHANGES:;
#ATTACKS:;

//---------------dance-single - XO---------------
#NOTEDATA:;
#CHARTNAME:;
#CHARTSTYLE:;
#CREDIT:Talkion;
#STEPSTYPE:dance-single;
#DESCRIPTION:XO;
#DIFFICULTY:Hard;
#METER:12;
#METERF:12;
#RADARVALUES:0,0,0,0,0;
#NOTES:
// measure 0
0000
0000
0000
0000
,  // measure 1
0000
0000
0000
0000
,  // measure 2
0000
0000
0000
0000
,  // measure 3
0000
0000
0000
0000
,  // measure 4
0000
0000
0000
0000
,  // measure 5
2100
0000
0000
0000
3001
0000
0000
0000
2100
0000
0000
0100
0000
0000
3002
0000
,  // measure 6
0000
0000
0103
0000
0010
0000
0000
0000
2010
0000
0000
0010
0000
0000
3002
0000
,  // measure 7
0000
0000
0013
0000
0100
0000
0010
0000
0002
0000
0000
1000
0000
0000
0203
0000
,  // measure 8
0000
0000
0301
0000
1000
0000
0100
0000
1000
0001
0000
1000
0001
0000
0000
0000
,  // measure 9
0102
0000
0000
0000
1003
0000
0000
0000
0102
0000
0000
0100
0000
0000
2003
0000
,  // measure 10
0000
0000
3100
0000
0010
0000
0000
0000
0012
0000
0000
0010
0000
0000
2003
0000
,  // measure 11
0000
3010
0001
0000
0010
0100
0001
0000
,  // measure 12
1000
0100
1000
0001
0010
0001
1000
0000
0000
0000
0000
0000
,  // measure 13
1010
0000
0010
0000
0100
0010
1000
0000
,  // measure 14
0001
0010
0100
0000
1000
0001
0010
0001
,  // measure 15
0100
0000
0010
0000
0100
0010
1000
0000
,  // measure 16
0100
0010
0100
0010
0001
1000
0010
1000
,  // measure 17
0100
0000
1000
0000
0100
0010
0001
0000
,  // measure 18
1000
0010
0100
0000
0001
1000
0010
1000
,  // measure 19
0100
0000
1000
0000
0100
0010
0001
0100
,  // measure 20
0000
0220
0000
0330
0001
0000
1000
0100
,  // measure 21
0010
0000
0000
0010
0001
0000
0000
0001
,  // measure 22
0100
0000
0000
0100
0020
0000
0000
0000
,  // measure 23
1030
0000
0000
0001
0020
0000
0000
0031
,  // measure 24
1000
0000
0000
1000
0000
0000
0010
0000
0100
0000
0001
0000
0100
0000
0010
0000
,  // measure 25
1000
0000
1000
0001
0010
0000
0010
0100
,  // measure 26
1000
0000
0000
1000
0000
0000
0010
0000
0100
0000
0000
0000
0010
0000
1000
0000
,  // measure 27
0001
0010
0001
0010
0100
1000
0010
0100
,  // measure 28
0000
0001
2000
0000
3200
0000
2300
0000
,  // measure 29
3001
0010
0001
0010
0000
0000
0100
1000
0100
1000
0000
0000
,  // measure 30
0001
0000
0001
0100
0000
0100
0010
0000
0010
1000
0000
1000
,  // measure 31
0200
0000
0000
0000
0000
0300
0000
0000
,  // measure 32
0110
0000
0000
0010
0000
0000
0001
0000
1000
0000
0010
0000
1000
0000
0000
0100
,  // measure 33
0000
0010
0001
0000
1000
0001
0010
0001
,  // measure 34
0100
0000
0000
0010
0000
0000
1000
0000
0001
0000
0010
0000
0100
0000
0000
0001
,  // measure 35
0000
0100
0010
0000
0001
1000
0100
1000
,  // measure 36
0010
0000
0000
0100
0000
0000
0001
0000
1000
0000
0100
0000
1000
0000
0000
0010
,  // measure 37
0000
0100
0001
0000
1000
0001
0100
0001
,  // measure 38
0010
0000
0000
0100
0000
0000
1000
0000
0001
0000
0000
0100
0000
0000
0020
0000
,  // measure 39
0000
2030
0000
0000
3001
1000
0010
1000
,  // measure 40
0100
0000
0100
0000
0100
0000
0010
0001
,  // measure 41
0200
0000
0310
0000
1000
0001
0100
0001
,  // measure 42
0010
0000
0000
0100
0000
0000
1000
0000
0001
0000
0100
0000
0010
0000
0000
0001
,  // measure 43
0000
0010
0100
0000
0001
1000
0010
1000
,  // measure 44
0100
0000
0000
0010
0000
0000
0001
0000
1000
0000
0010
0000
1000
0000
0000
0100
,  // measure 45
0000
0010
0001
0000
1000
0001
0010
0001
,  // measure 46
0200
0000
0000
0000
0310
0000
0000
0000
0200
0000
0000
0001
0000
0000
0310
0000
,  // measure 47
1000
0000
0100
0010
0001
0010
0100
1000
,  // measure 48
0001
0100
0001
1000
0010
1000
0001
0000
0000
0000
0000
0000
,  // measure 49
0021
0000
2030
0000
0000
3010
0100
1000
,  // measure 50
0001
0000
0000
0100
0000
0000
0010
0000
0000
0000
2000
0000
0010
0000
3001
0000
,  // measure 51
1000
0010
0100
0001
0010
0100
0000
0002
,  // measure 52
0000
0000
0103
0000
0010
0000
0000
0001
0000
0000
2000
0000
0001
0000
3010
0000
,  // measure 53
1020
0000
0032
0000
0000
0013
0100
0001
,  // measure 54
1000
0000
0000
0100
0000
0000
0010
0000
0000
0000
0002
0000
0010
0000
1003
0000
,  // measure 55
0001
0010
0100
1000
0010
0100
0000
0001
,  // measure 56
1000
0100
0002
0000
0103
1000
0001
0000
,  // measure 57
0201
0000
0000
0000
1300
0000
0000
0000
0201
0000
0000
0010
0000
0000
2300
0000
,  // measure 58
0000
0000
3100
0000
0001
0000
0000
0000
1002
0000
0000
0010
0000
0000
2003
0000
,  // measure 59
0000
0000
3010
0000
0010
0000
0010
0000
2000
0000
0000
0001
0000
0000
3200
0000
,  // measure 60
0000
0000
1300
0000
0001
0000
0100
0000
0001
1000
0000
0001
1000
0000
0000
0000
,  // measure 61
1200
0000
0000
0000
0301
0000
0000
0000
1200
0000
0000
0010
0000
0000
0302
0000
,  // measure 62
0000
0000
0103
0000
1000
0000
0000
0000
2001
0000
0000
0010
0000
0000
3002
0000
,  // measure 63
0000
0013
1000
0000
0010
0100
1000
0000
,  // measure 64
0001
0100
0001
0100
0000
0000
0010
1000
0010
1000
0000
0000
,  // measure 65
0000
0000
1200
0000
0000
0010
0000
0000
0002
0000
0000
0000
0000
0000
0000
0000
,  // measure 66
0300
0000
0000
0000
,  // measure 67
0000
0000
0000
0000
,  // measure 68
0003
0000
0000
0000
;

//---------------dance-single - XO FS- JU- SS----------------
#NOTEDATA:;
#CHARTNAME:;
#CHARTSTYLE:;
#CREDIT:Talkion;
#STEPSTYPE:dance-single;
#DESCRIPTION:XO FS- JU- SS-;
#DIFFICULTY:Challenge;
#METER:15;
#METERF:15;
#RADARVALUES:0,0,0,0,0;
#NOTES:
// measure 0
0000
0000
0000
0000
,  // measure 1
0000
0000
0000
0000
,  // measure 2
0000
0000
0000
0000
,  // measure 3
0000
0000
0000
0000
,  // measure 4
0000
0000
0000
0000
,  // measure 5
0201
0000
0000
0000
0310
0000
0000
0000
0101
0000
0001
0100
0000
0100
0020
0000
,  // measure 6
0000
0000
0130
0000
0001
0000
0000
0000
1001
0000
1000
0100
0000
0100
0020
0000
,  // measure 7
0000
0000
0031
0000
1000
0000
0010
0000
0100
0000
0001
1000
0000
1000
0200
0000
,  // measure 8
0000
0000
0310
0000
0010
0000
0001
1000
0010
1000
0000
0001
0100
0001
1000
0000
,  // measure 9
1200
0000
0000
0000
0310
0000
0000
0000
1100
0000
1000
0100
0000
0100
0020
0000
,  // measure 10
0000
0000
0130
0000
1000
0000
0000
0000
1001
0000
0001
0100
0000
0100
0020
0000
,  // measure 11
0000
0000
0130
0000
1000
0000
0100
0010
0100
0000
0001
0000
1000
0000
0000
0000
,  // measure 12
0100
0000
0000
0000
0010
0000
0000
0000
0001
0000
0000
0000
1000
0000
0000
0000
0010
0000
0000
0000
1000
0000
0000
0000
0100
0000
0000
0000
0000
0000
1000
0000
0000
0000
0000
0000
0001
0000
0000
0000
0000
0000
0100
0000
0000
00M0
0000
0000
,  // measure 13
1100
0000
0000
0000
0100
0000
1000
0001
1000
0000
0010
0000
1000
0000
0001
0000
,  // measure 14
0010
0000
0001
0000
0100
0000
0010
0000
1000
0001
0010
0001
1000
0000
0100
00M0
,  // measure 15
0102
0000
0013
0100
0010
0001
1000
0020
,  // measure 16
0100
0000
1000
0000
0100
0000
1000
0000
0130
0000
0001
1000
0001
0000
0010
0M00
,  // measure 17
1010
0000
0000
0000
0010
0000
1000
0001
1000
0000
0100
0000
1000
0000
0001
0000
,  // measure 18
0100
0000
0001
0000
0010
0000
0100
0000
1000
0001
0100
0001
1000
0000
0010
0M00
,  // measure 19
0012
0000
0000
0000
0103
0000
0010
1000
0010
0000
0100
0000
0001
0000
0010
0000
,  // measure 20
0000
0000
0000
0220
0000
0000
0000
0000
0000
0330
0000
0000
1000
0000
0000
0001
0000
0000
1000
0000
0010
0000
0100
0000
,  // measure 21
0001
0000
0000
1000
0100
0000
0000
1000
,  // measure 22
0001
0000
0000
0100
0000
0000
0010
0000
2010
0000
0000
0000
0000
0000
0000
0000
,  // measure 23
3001
0000
0000
0000
0000
0000
0000
0000
0000
0010
0000
0000
0001
0000
1000
0000
0010
0000
0100
0000
0001
0000
0100
0000
,  // measure 24
0010
0000
0000
1000
0000
0000
0001
0000
0010
0100
1000
0100
0010
0000
0001
0000
,  // measure 25
0100
0000
0000
0000
0100
0000
0010
0000
1000
0000
0001
0000
0010
0000
0100
0010
,  // measure 26
0001
0000
0000
0001
1000
0000
0010
0000
0100
0010
0000
0010
1000
0000
0001
0000
,  // measure 27
0010
0001
0100
0010
1000
0100
0010
0100
,  // measure 28
1000
0000
0001
0000
0100
0000
0001
0000
0010
0000
0100
1000
0100
0000
0010
0000
,  // measure 29
0001
1000
0010
1000
0000
0000
0001
0010
0001
1000
0000
0000
,  // measure 30
0001
0100
0010
1000
0010
0100
0001
0010
0001
1000
0100
1000
,  // measure 31
0020
0000
0000
0000
0000
0000
0000
0000
0000
0000
0130
0000
0010
0000
0001
M000
,  // measure 32
0102
0000
0000
1003
0000
0000
0100
0000
1000
0000
0010
0000
0100
0000
0001
2000
,  // measure 33
0000
0000
3100
0000
0100
0000
1000
0000
0001
0000
0010
0000
0100
0010
1000
000M
,  // measure 34
2100
0000
0000
3001
0000
0000
0100
0000
0010
0000
1000
0000
0100
0000
0010
1000
,  // measure 35
0000
1000
0010
0000
0100
0000
1000
0000
0001
0000
0100
0000
0010
0100
1000
000M
,  // measure 36
2010
0000
0000
3001
0000
0000
0010
0000
0001
0000
0100
0000
0010
0000
1000
0002
,  // measure 37
0000
0000
0013
0000
0010
0000
0001
0000
1000
0000
0100
0000
0010
0100
0001
M000
,  // measure 38
0012
0000
0000
1003
0000
0000
0010
0000
0100
0000
0001
1000
0000
1000
0002
0000
,  // measure 39
0000
0000
0013
0100
0010
0000
0001
0000
2000
0000
0010
0000
3002
0000
0100
0000
,  // measure 40
1003
0000
0000
0001
0000
0000
0010
0000
0100
0000
1000
0000
0001
0000
0010
0001
,  // measure 41
0100
0000
0001
0000
0002
0000
0000
0000
1003
0000
0010
0000
0100
0010
0001
M000
,  // measure 42
0102
0000
0000
1003
0000
0000
0100
0000
0010
0000
0001
0000
0100
0000
0010
0001
,  // measure 43
0000
0001
0010
0000
0100
0000
0001
0000
1000
0000
0100
0000
0010
0100
0001
M000
,  // measure 44
0012
0000
0000
1003
0000
0000
0010
0000
1000
0000
0100
0000
0010
0000
0001
2000
,  // measure 45
0000
0000
3010
0000
0010
0000
1000
0000
0001
0000
0100
0000
0010
0100
1000
000M
,  // measure 46
2010
0000
0000
0000
3001
0000
0000
0000
0010
0100
0000
0100
0010
0000
0001
0100
,  // measure 47
0010
1000
0001
0010
0001
0100
0010
1000
,  // measure 48
0001
0010
0100
1000
0010
0100
0001
0000
0000
0000
0000
0000
,  // measure 49
0021
0000
0000
0000
2030
0000
0000
0000
0000
0000
3010
0000
0100
0010
0001
0000
,  // measure 50
1000
0000
0010
0100
0000
0010
0100
0000
0001
1000
0002
0000
0010
0000
1003
0000
,  // measure 51
0001
0010
0100
0000
0010
0100
1000
0000
0001
0100
0010
0100
0000
0000
2000
0000
,  // measure 52
0000
0000
3100
0000
0001
1000
0100
0010
0000
0100
2000
0000
0001
0000
3010
0000
,  // measure 53
1020
0000
0000
0000
0032
0000
0000
0000
0000
0000
0013
0000
0100
0010
1000
0000
,  // measure 54
0001
0000
0010
0100
0000
1000
0100
0010
0000
0001
2000
0000
0010
0000
3001
0000
,  // measure 55
1000
0010
0100
0000
0010
0100
0001
0000
1000
0000
0100
0010
0000
0000
0001
1000
,  // measure 56
0010
0000
0000
0100
0000
0000
0000
0000
0000
0010
0000
0000
0002
0000
0000
0000
0000
0000
0000
0000
0000
0000
0000
0000
0013
0000
0000
0000
0100
0000
0000
0000
0001
0000
0000
0000
1000
0000
0000
0000
0010
0000
0000
0000
1000
0000
0000
0000
,  // measure 57
0200
0000
0000
0000
0301
0000
0000
0000
1100
0000
1000
0100
0000
0100
0002
0000
,  // measure 58
0000
0000
0103
0000
1000
0000
0000
0000
1001
0000
0001
0100
0000
0100
0020
0000
,  // measure 59
0000
0000
1030
0001
1000
0001
1000
0001
0010
0000
0000
0011
0000
0000
1020
0000
,  // measure 60
0000
0000
0130
0000
0001
0000
1000
0001
0010
0001
0000
1000
0100
1000
0001
0000
,  // measure 61
0201
0000
0000
0000
1300
0000
0000
0000
0101
0000
0001
0100
0000
0100
2000
0000
,  // measure 62
0000
0000
3100
0000
0001
0000
0000
0000
1001
0000
1000
0100
0000
0100
0020
0000
,  // measure 63
0000
0000
0130
0000
0001
0000
0100
0010
0100
0000
1000
0000
0020
0000
0000
0000
,  // measure 64
0130
0000
0000
0000
0001
0000
0000
0000
0010
0000
0000
0000
0100
0000
0000
0000
0000
0000
0000
0000
0000
0000
0000
0000
0010
0000
0000
0000
0100
0000
0000
0000
1000
0000
0000
0000
0010
0000
0000
0000
0000
0000
0100
0000
0000
0010
0000
0000
,  // measure 65
0200
0000
1000
0000
0000
0310
0000
0000
2002
0000
0000
0000
0000
0000
0000
0000
,  // measure 66
3000
0000
0000
0000
,  // measure 67
0000
0000
0000
0000
,  // measure 68
0003
0000
0000
0000
;
