#VERSION:0.83;
#TITLE:荒野のおイモ屋さん;
#SUBTITLE:;
#ARTIST:DJ TAKAWO;
#TITLETRANSLIT:Kohya no Oimoya-san;
#SUBTITLETRANSLIT:;
#ARTISTTRANSLIT:;
#GENRE:WESTERN REMIX;
#ORIGIN:;
#CREDIT:;
#BANNER:Kohya no Oimoya-san.png;
#BACKGROUND:Kohya no Oimoya-san-bg.png;
#PREVIEWVID:;
#JACKET:Kohya no Oimoya-san-jacket.png;
#CDIMAGE:;
#DISCIMAGE:;
#LYRICSPATH:;
#CDTITLE:cdtitle.png;
#MUSIC:Kohya no Oimoya-san.ogg;
#OFFSET:-0.063000;
#SAMPLESTART:20.373999;
#SAMPLELENGTH:15.000000;
#SELECTABLE:YES;
#DISPLAYBPM:174.000000;
#BPMS:0.000=120.000,
8.000=166.000,
16.000=174.113,
259.000=87.057,
265.000=174.113,
271.000=348.226,
275.000=174.113;
#STOPS:206.000=0.345,
259.000=1.378,
265.000=0.689;
#DELAYS:;
#WARPS:;
#TIMESIGNATURES:0.000=4=4;
#TICKCOUNTS:0.000=4;
#COMBOS:0.000=1;
#SPEEDS:0.000=1.000=0.000=0;
#SCROLLS:0.000=1.000;
#FAKES:;
#LABELS:0.000=Song Start;
#BGCHANGES:0.000=Kohya no Oimoya-san.avi=1.000=0=0=0=StretchNoLoop==CrossFade_Fastest==,
99999=-nosongbg-=1.000=0=0=0 // don't automatically add -songbackground-
;
#KEYSOUNDS:;
#ATTACKS:
;

//---------------dance-single - Daff_4K----------------
#NOTEDATA:;
#CHARTNAME:Daff_4K;
#STEPSTYPE:dance-single;
#DESCRIPTION:Daff_4K;
#CHARTSTYLE:;
#DIFFICULTY:Beginner;
#METER:4;
#RADARVALUES:0.133172,0.269674,0.116526,0.000000,0.000000,112.000000,98.000000,14.000000,0.000000,0.000000,0.000000,0.000000,0.000000,0.000000,0.133172,0.269674,0.116526,0.000000,0.000000,112.000000,98.000000,14.000000,0.000000,0.000000,0.000000,0.000000,0.000000,0.000000;
#CREDIT:Daff_4K;
#DISPLAYBPM:174.000000;
#NOTES:
0000
0000
0000
0000
,
0000
0000
0000
0000
,
0000
0000
0000
0000
,
0000
0000
0000
0000
,
1000
0000
0000
0000
,
0001
0000
0000
0000
,
1000
0000
0000
0000
,
0100
0000
0000
0000
,
0010
0000
0000
0000
,
0100
0000
0000
0000
,
0010
0000
0000
0000
,
0001
0000
0000
0000
,
1001
0000
0000
0000
,
0000
0000
0000
0000
,
1000
0000
0000
0000
,
0010
0000
0000
0000
,
1000
0000
0001
0000
,
1000
1000
1000
0000
,
0001
0000
0000
0000
,
0010
0000
0000
0000
,
0001
0000
1000
0000
,
0001
0001
0001
0000
,
1001
0000
0000
0000
,
0000
0000
0000
0000
,
1000
0000
0100
0000
,
1000
0000
0001
0000
,
0001
0000
0100
0000
,
0001
0000
1000
0000
,
1000
0000
0001
0000
,
1000
0000
0100
0000
,
0100
0000
0000
0000
,
0010
0000
0000
0000
,
0110
0000
0000
0000
,
0000
0000
0000
0000
,
0001
0000
0001
0000
,
0000
0000
0001
0000
,
1000
0000
1000
0000
,
0000
0000
1000
0000
,
0010
0000
0000
0000
,
0100
0000
0000
0000
,
0001
0000
1000
0000
,
0001
0000
0000
0000
,
1001
0000
0000
0000
,
0000
0000
0000
0000
,
1001
0000
0000
0000
,
0000
0000
0000
0000
,
1000
0000
0000
0000
,
0000
0000
0000
0000
,
1001
0000
0000
0000
,
0001
0000
0000
0000
,
1000
0000
0001
0000
,
0100
0100
0000
0001
,
0000
0000
0000
1000
,
0000
1000
0000
0100
,
0000
0000
0000
0010
,
0000
0001
0000
1000
,
0000
0000
0000
0001
,
0000
0001
0000
1001
,
0000
0000
0000
0000
,
0000
0000
0000
1001
,
0000
0000
0000
0000
,
0000
0000
0000
1001
,
0000
0000
0000
1001
,
0000
0000
0000
1001
,
0000
1001
0000
1001
,
0000
0000
0000
0000
,
0000
0000
0000
0100
,
0100
0100
0100
0100
,
0000
0000
0000
0000
,
0000
1000
0000
0000
,
0000
0100
0000
0000
,
0000
0010
0000
0001
,
0000
1000
1000
1000
,
0000
0001
0000
0000
,
0000
0100
0000
0000
,
0000
0010
0000
1000
,
0000
0001
0001
0001
,
0000
1001
0000
0000
,
0000
0000
0000
0000
,
0000
0100
0000
0000
,
0000
0000
0000
0100
,
0100
0000
0000
0000
;

//---------------dance-single - Daff_4K----------------
#NOTEDATA:;
#CHARTNAME:Daff_4K;
#STEPSTYPE:dance-single;
#DESCRIPTION:Daff_4K;
#CHARTSTYLE:;
#DIFFICULTY:Easy;
#METER:6;
#RADARVALUES:0.262778,0.336572,0.158142,0.124849,0.000000,221.000000,202.000000,19.000000,15.000000,0.000000,0.000000,0.000000,0.000000,0.000000,0.262778,0.336572,0.158142,0.124849,0.000000,221.000000,202.000000,19.000000,15.000000,0.000000,0.000000,0.000000,0.000000,0.000000;
#CREDIT:Daff_4K;
#DISPLAYBPM:174.000000;
#NOTES:
0000
0000
0000
0000
,
0000
0000
0000
0000
,
0000
0000
0000
0000
,
0000
0000
0000
0000
,
1000
0000
0100
0000
,
1000
0001
1000
0010
,
1000
0000
0001
0000
,
1000
0100
0010
0010
,
0001
0000
0100
0000
,
0001
1000
0001
0010
,
0001
0000
1000
0000
,
0001
0100
0010
0010
,
1001
0000
0110
0000
,
1001
0000
0000
1000
,
0002
0000
0013
0000
,
0200
0000
1300
0001
,
0100
0100
0010
1000
,
0100
0000
0010
0001
,
2000
0000
3010
0000
,
0200
0000
0301
1000
,
0100
0010
0001
1000
,
0010
0010
0100
0001
,
1001
0000
0000
0000
,
0000
0000
0000
0000
,
1000
0001
1000
0000
,
0001
0100
1000
0000
,
0100
0010
0100
0000
,
0010
1000
0100
0010
,
0001
1000
0001
0000
,
1000
0100
0001
0000
,
0100
0000
0010
0000
,
0001
1000
0001
0000
,
1001
0000
1001
0000
,
1001
0000
0110
0000
,
2000
0000
0001
0000
,
3001
0000
1000
0000
,
0200
0000
0010
0000
,
0310
0001
1000
0000
,
0001
0100
0010
0000
,
1000
0100
0010
0000
,
0002
0000
1000
0000
,
1003
0000
0001
0000
,
1001
0000
0000
0000
,
0000
0000
0000
0000
,
1000
0010
1000
1000
,
0010
0100
0010
0010
,
1000
1000
0001
0001
,
1000
0100
0020
0030
,
0001
0010
0001
0001
,
0010
0100
0010
0010
,
0001
0001
1000
1000
,
0001
0100
0010
1000
,
1000
0100
0100
1000
,
0001
1000
0001
0100
,
0100
0010
0010
1000
,
0001
0010
0010
0001
,
0001
0100
0100
0001
,
1000
0001
1000
1001
,
0000
0000
0000
0000
,
0000
0000
0000
1001
,
0000
0000
0000
0000
,
0000
0000
0000
1001
,
0000
0000
0000
1001
,
0000
0000
0000
1001
,
0000
1001
0000
1001
,
0000
0000
0000
0000
,
0000
0000
0000
0002
,
2003
3002
1003
1001
,
0000
0000
0000
0000
,
0001
2000
0000
3010
,
0100
0002
0000
1003
,
0001
0010
0100
0100
,
1000
0001
0100
0010
,
1000
0002
0000
0013
,
0100
2000
0000
3001
,
1000
0100
0010
0001
,
1000
0010
0010
0100
,
0001
1001
0000
0000
,
0000
0000
0000
0000
,
0000
0000
0100
0000
0000
0000
0000
1001
,
0000
0000
0000
0000
0000
0100
0000
0100
;

//---------------dance-single - Daff_4K----------------
#NOTEDATA:;
#CHARTNAME:Daff_4K;
#STEPSTYPE:dance-single;
#DESCRIPTION:Daff_4K;
#CHARTSTYLE:;
#DIFFICULTY:Medium;
#METER:9;
#RADARVALUES:0.355523,0.471930,0.357901,0.324608,0.000000,299.000000,256.000000,43.000000,39.000000,0.000000,0.000000,0.000000,0.000000,0.000000,0.355523,0.471930,0.357901,0.324608,0.000000,299.000000,256.000000,43.000000,39.000000,0.000000,0.000000,0.000000,0.000000,0.000000;
#CREDIT:Daff_4K;
#DISPLAYBPM:174.000000;
#NOTES:
0000
0000
0000
0000
,
0000
0000
0000
0000
,
0000
0000
0000
0000
,
0000
0000
0000
0000
,
1001
1000
0100
0010
,
0100
0001
0100
1000
,
0001
0100
0010
1000
,
0100
0010
0001
1000
,
1001
0001
0100
0010
,
0100
1000
0100
0001
,
1000
0100
0010
0001
,
0100
0010
1000
0001
,
0022
0033
2200
3300
,
2002
0000
3003
0001
,
2000
0010
0001
3010
,
0200
0001
0010
0301
,
1000
1100
0001
0101
,
1000
0000
0001
0000
0100
0010
0100
0000
,
0002
0010
1000
0013
,
0200
1000
0010
1300
,
0001
0101
1000
1100
,
0001
1000
0100
0010
,
2002
0000
0000
0000
,
0000
0000
0000
3003
,
0001
0100
0010
0100
,
0001
0000
0100
0000
0010
0000
1000
0001
,
1000
0100
0010
0100
,
1000
0000
0100
0000
0010
0000
0001
1000
,
0001
0100
0010
1000
,
0100
0000
0010
0000
0001
0000
1000
0001
,
1000
0010
0001
0010
,
1000
0100
0001
0100
,
2200
3300
2002
3003
,
0202
0303
2002
3003
,
2100
0000
0001
0000
,
0010
0010
3010
0000
,
0102
0000
1000
0000
,
0010
0010
0013
0000
,
0100
1000
0020
0030
,
0100
0001
0020
0030
,
0110
0000
1001
0000
,
1000
0000
0001
0000
0100
0010
0100
0000
,
1001
0000
0000
0000
,
0020
0100
0130
0000
,
1002
1000
0010
0010
,
1000
1000
0100
1003
,
2001
0001
0010
0010
,
0001
0001
0200
3300
,
1002
1000
0010
0103
,
2001
0001
0010
3100
,
1002
0103
2001
3100
,
0110
0110
1001
0001
,
0100
0000
1000
0000
0100
0000
0001
1000
,
0001
0010
0100
1000
,
0010
0000
0100
0000
0001
1000
0001
0000
,
0010
0100
0010
0000
0100
0000
1000
0000
,
0100
0000
0001
0000
0100
0000
1000
0001
,
1000
0010
0100
1001
,
0000
0000
0000
0000
,
0000
0000
0100
1001
,
0000
0000
0000
0000
,
0000
0000
0100
1001
,
0000
0000
0100
1001
,
0000
0000
0100
1001
,
0100
1001
0100
1001
,
0000
0000
0000
0000
,
0000
0000
0000
0000
0000
0000
0001
1000
,
0001
1000
0020
0000
0130
0000
1001
0000
,
0000
0000
0000
0000
,
1000
0002
0010
1000
,
0103
0020
1000
0100
,
1030
0001
0011
1000
,
1100
0000
0001
0000
0010
0000
0001
1000
,
0001
2000
0010
0001
,
3100
0020
0001
0100
,
0031
1000
1010
0001
,
0101
0000
1000
0000
0010
0000
1000
0001
,
1000
2002
0000
0000
,
0000
0000
0000
0000
,
3003
0000
0010
0100
0000
0000
0000
1001
,
0000
0000
0000
0000
0000
1001
0000
0010
,
0100
0000
0000
0000
;

//---------------dance-single - Daff_4K----------------
#NOTEDATA:;
#CHARTNAME:Daff_4K;
#STEPSTYPE:dance-single;
#DESCRIPTION:Daff_4K;
#CHARTSTYLE:;
#DIFFICULTY:Hard;
#METER:12;
#RADARVALUES:0.475616,0.606767,0.432810,0.499397,0.024970,400.000000,348.000000,52.000000,60.000000,0.000000,0.000000,0.000000,0.000000,0.000000,0.475616,0.606767,0.432810,0.499397,0.024970,400.000000,348.000000,52.000000,60.000000,0.000000,0.000000,0.000000,0.000000,0.000000;
#CREDIT:Daff_4K;
#DISPLAYBPM:174.000000;
#NOTES:
0000
0000
0000
0000
,
0000
0000
0000
0000
,
0000
0000
0000
0000
,
0000
0000
0000
0000
,
1000
0010
0100
0000
0010
1000
0001
0000
,
1000
0100
0010
0100
1000
0001
0100
0000
,
0010
1000
0100
0000
0010
0001
0100
0000
,
0010
1000
0100
0001
0100
1000
0010
0100
,
0001
0010
0100
0000
0010
0001
1000
0000
,
0001
0100
0010
0100
0001
1000
0100
0000
,
0010
0001
0100
0000
0010
1000
0100
0000
,
0010
0001
0100
1000
0100
0001
1000
0000
,
2001
3100
1002
0103
,
0001
0000
0000
1000
0000
0000
0100
0000
0020
0000
0000
0000
0031
0000
0200
0000
,
1000
0010
1000
0302
,
0023
0000
1000
0000
0100
0000
0031
1000
,
1010
0101
1010
1001
,
0001
0010
1000
0010
0001
0000
1000
0200
,
0001
0010
0001
2300
,
3020
0000
0001
0000
0100
0000
1030
0100
,
0020
0000
0031
0100
0020
0000
1030
0000
,
1100
0000
0011
0000
0001
0100
0010
1000
,
2002
0000
0000
0000
,
0000
0000
0000
3003
,
1002
0000
0013
0100
1000
0000
1002
0000
,
0103
0010
1000
0000
1100
0000
0011
0000
,
2001
0000
3010
0100
0001
0000
0021
0000
,
0130
1000
0001
0000
1000
0010
0001
0010
,
2000
0000
3010
0100
0001
0000
2001
0000
,
3100
0010
0001
0000
0101
0000
1010
0000
,
1002
0000
0013
0100
0010
0001
1000
0010
,
0100
0010
1000
0100
0010
0001
1000
0000
,
2020
3030
0202
0303
,
0022
0033
2200
3300
,
1002
0010
0100
0010
,
1003
0001
0100
0001
0020
0000
0130
0000
,
2001
0010
0100
0010
,
3001
1000
0100
1000
0020
0000
0130
0000
,
0201
1000
0301
1001
,
1200
0001
1300
1001
,
0102
0013
2100
3010
,
1002
0103
2001
3100
,
2002
0000
0000
3003
,
0020
0100
0200
0330
,
2001
0001
0010
0010
,
0001
0100
0001
3010
,
1002
1000
0010
0010
,
1000
0100
0020
0033
,
2100
0100
0001
3010
,
0102
0100
1000
0013
,
2100
3010
0102
0013
,
1001
0000
0110
0000
1001
0000
1000
0010
,
0100
0000
0010
0000
1000
0000
0000
0001
0000
0000
1000
0000
0100
0000
0010
0000
,
0001
0000
0100
0010
1000
0000
0100
0010
,
0100
0000
1000
0000
0001
0000
0000
1000
0000
0000
0010
0000
0100
0000
0001
0000
,
0010
0000
0100
1000
0010
0100
0001
0010
,
0100
0000
0010
0000
0001
0000
0000
1000
0000
0000
0001
0000
0100
0000
0010
0000
,
1000
0000
0100
0010
0001
0000
1001
0000
,
0000
0000
0000
0000
,
0000
0000
0100
1001
,
0000
0000
0000
0000
,
0000
0000
0100
1001
,
0000
0000
0100
1001
,
0000
0000
0100
1001
,
0100
0000
1001
0000
0100
0010
1001
0000
,
0000
0000
0000
0000
,
0000
0000
0000
0000
0200
0000
0000
0000
0300
0000
0000
0000
0001
1000
0001
0000
,
1000
0001
1000
0000
0001
0000
0010
0000
0100
0000
1000
0000
0002
0000
0000
0000
,
0000
0000
0000
0003
,
1000
0020
0001
0000
0100
0000
0001
0000
,
2030
3200
0001
0010
,
0301
0100
2000
0000
3001
0100
1000
0100
,
0001
0010
1000
0010
0001
0100
0010
1000
,
0001
0020
1000
0000
0100
0000
1000
0000
,
0032
0203
1000
0010
,
1300
0100
0001
0010
1000
0010
0001
0100
,
1000
0100
0001
1000
0001
1000
0100
0100
,
0010
0010
2002
0000
0000
0000
0000
0000
,
0000
0000
0000
0000
,
3003
0000
0010
0010
0000
0000
0000
1001
,
0000
0000
0000
0000
0000
0100
0000
0100
,
0100
0000
0000
0000
;

//---------------dance-single - 荒野のDaff_4Kさん----------------
#NOTEDATA:;
#CHARTNAME:荒野のDaff_4Kさん;
#STEPSTYPE:dance-single;
#DESCRIPTION:荒野のDaff_4Kさん;
#CHARTSTYLE:;
#DIFFICULTY:Challenge;
#METER:15;
#RADARVALUES:0.602843,0.741604,0.399517,0.416164,0.174789,507.000000,459.000000,48.000000,50.000000,0.000000,0.000000,0.000000,0.000000,0.000000,0.602843,0.741604,0.399517,0.416164,0.174789,507.000000,459.000000,48.000000,50.000000,0.000000,0.000000,0.000000,0.000000,0.000000;
#CREDIT:荒野のDaff_4Kさん;
#DISPLAYBPM:174.000000;
#NOTES:
// measure 0
0000
0000
0000
0000
,  // measure 1
0000
0000
0000
0000
,  // measure 2
0000
0000
0000
0000
,  // measure 3
0000
0000
0000
0000
,  // measure 4
1000
0010
0100
0000
0010
1000
0001
0000
,  // measure 5
1000
0100
0001
0100
1000
0100
0010
0001
,  // measure 6
1000
0010
0100
0000
0001
1000
0100
0000
,  // measure 7
0010
0000
0100
0000
1000
0000
0001
0000
0100
0000
0010
0100
0010
0000
1000
0000
,  // measure 8
0001
0010
0100
0000
0010
0001
1000
0000
,  // measure 9
0001
0100
1000
0100
0001
0100
0010
1000
,  // measure 10
0001
0010
0100
0000
1000
0010
0100
0000
,  // measure 11
0010
0000
1000
0000
0001
0000
0010
0100
0010
0000
0001
0000
1000
0000
0010
0000
,  // measure 12
0220
0330
2002
3003
,  // measure 13
2000
0000
0000
0001
0000
0000
0001
0000
3001
0000
0000
0000
1000
0000
0200
0000
,  // measure 14
0001
0000
0010
0000
1300
0001
1000
0020
,  // measure 15
0001
0000
0100
0000
1030
0100
0010
0001
,  // measure 16
0100
0000
0010
0100
0010
0000
1000
0001
1000
0000
0001
0000
0010
0000
1000
0000
,  // measure 17
0020
0000
0031
0100
0010
1000
0001
0200
,  // measure 18
1000
0000
0010
0000
0301
1000
0001
0020
,  // measure 19
1000
0000
0100
0000
0031
0100
0010
1000
,  // measure 20
0001
0000
0000
0001
0010
0000
0100
0000
1000
0000
0000
1000
0010
0000
0100
0000
,  // measure 21
0001
0000
1000
0100
1000
0000
0001
0100
0001
0000
0010
0000
0100
0000
1000
0000
,  // measure 22
2002
0000
0000
0000
,  // measure 23
0000
0000
0000
3003
,  // measure 24
1002
0000
0103
1000
0100
0001
1000
0000
,  // measure 25
0100
0000
0010
0000
0001
0000
0100
0000
0010
0000
1000
0001
1000
0000
0100
0000
,  // measure 26
0120
0000
0031
0100
1000
0100
0001
0000
,  // measure 27
0010
0000
0100
0000
1000
0000
0010
0000
0100
0000
0001
1000
0001
0000
1000
0000
,  // measure 28
2001
0000
3100
0001
0100
1000
0001
0000
,  // measure 29
0100
0000
0010
0000
1000
0000
0100
0000
0010
0000
0001
1000
0001
0000
0100
0000
,  // measure 30
0120
0000
1030
0100
0010
0100
1000
0001
,  // measure 31
0100
0000
0010
0000
0100
0000
0001
0000
1000
0000
0100
0010
0100
0000
0010
0000
,  // measure 32
0022
0033
0202
0303
,  // measure 33
2020
3030
2200
3300
,  // measure 34
1002
0000
0100
0000
0010
0000
0103
1000
,  // measure 35
0100
0001
1000
0000
0011
0000
1100
0000
,  // measure 36
2001
0000
0100
0000
0010
0000
3100
0001
,  // measure 37
0100
1000
0001
0000
1010
0000
0101
0000
,  // measure 38
0001
0010
1000
0000
0011
0000
1001
0000
,  // measure 39
1000
0010
0001
0000
1010
0000
1001
0000
,  // measure 40
2100
3010
0102
0013
,  // measure 41
2001
0000
0000
0000
3100
0000
0010
0000
0001
0000
1000
0001
1000
0000
0010
0000
,  // measure 42
0220
0000
0000
0330
,  // measure 43
0100
0000
0010
0100
0010
0000
0000
0000
1001
0000
1001
0000
0000
0000
0000
0000
,  // measure 44
0102
0000
1000
0000
0013
0001
0100
0010
,  // measure 45
0100
0001
0010
0001
0100
1000
0100
0001
,  // measure 46
0011
0000
1100
0000
1000
0010
0100
0010
,  // measure 47
1000
0100
0010
0001
2002
0000
3003
0000
,  // measure 48
2100
0000
0001
0000
3010
1000
0100
0010
,  // measure 49
0100
1000
0010
1000
0100
0001
0100
1000
,  // measure 50
1020
0000
0130
0001
0021
0000
0130
1000
,  // measure 51
0001
0000
1000
0010
1000
0000
0001
0010
0001
0000
0000
0000
1000
0000
0100
0000
,  // measure 52
0001
0000
0100
0000
1000
0000
0001
1000
0000
0001
0100
0000
0010
0000
1000
0100
,  // measure 53
0000
1000
0000
0001
0100
0000
0001
0000
0010
0000
0100
0000
1000
0000
0010
0000
,  // measure 54
0001
0000
0010
0000
1000
0000
0001
1000
0000
0001
0010
0000
0100
0000
0010
0000
,  // measure 55
0001
1000
0000
0001
1000
0000
0010
0000
0100
0010
0100
0000
0001
0000
0100
0000
,  // measure 56
1000
0000
0100
0000
0001
0000
1000
0001
0000
1000
0100
0000
0010
0000
0001
0000
,  // measure 57
0100
1000
0100
0001
1000
0001
1001
0000
,  // measure 58
0000
0000
0000
0000
,  // measure 59
0000
0000
0100
1001
,  // measure 60
0000
0000
0000
0000
,  // measure 61
0000
0000
0100
1001
,  // measure 62
0000
0000
0100
1001
,  // measure 63
0000
0000
0100
1001
,  // measure 64
0100
0000
1001
0000
0100
0100
1001
0000
,  // measure 65
0000
0000
0000
0000
,  // measure 66
0000
0000
0000
0000
0200
0000
0000
0000
0300
0000
0000
0000
0001
0100
0001
0100
,  // measure 67
0010
1000
0010
1000
0001
0010
0100
0000
0010
0100
1000
0000
0002
0000
0000
0000
,  // measure 68
0000
0000
0000
0003
,  // measure 69
1000
0200
0001
0000
0310
0100
1000
0010
,  // measure 70
0001
0020
1000
0000
0130
0010
1000
0001
,  // measure 71
0010
0000
0100
0000
1000
0000
0001
0100
0001
0000
1000
0100
1000
0000
0001
1000
,  // measure 72
0001
0010
0100
1000
0001
1000
0010
0100
,  // measure 73
0001
0200
1000
0000
0310
0100
0001
0010
,  // measure 74
1000
0020
0001
0000
0130
0010
0001
1000
,  // measure 75
0010
0000
0100
0000
0001
0000
0010
0100
0010
0000
0001
0000
1000
0000
0010
0100
,  // measure 76
0010
0000
1000
0000
0001
0010
0001
0000
1000
0010
1000
0000
0100
0000
0100
0000
,  // measure 77
0010
0010
1002
0000
0203
0000
0320
0000
,  // measure 78
2030
3200
0320
0032
,  // measure 79
1003
0000
0101
0101
0000
0000
0000
1001
,  // measure 80
0000
0000
0000
0000
0000
1001
0000
1100
,  // measure 81
1100
0000
0000
0000
;
