#TITLE:Karma;
#SUBTITLE:;
#ARTIST:Dareharu;
#TITLETRANSLIT:;
#SUBTITLETRANSLIT:;
#ARTISTTRANSLIT:;
#GENRE:;
#CREDIT:;
#MUSIC:karma.ogg;
#BANNER:bn.png;
#BACKGROUND:bg.png;
#CDTITLE:cdtitle-sorae.png;
#SAMPLESTART:60.000;
#SAMPLELENGTH:14.545;
#SELECTABLE:YES;
#OFFSET:0.000;
#BPMS:0.000=132.000;
#STOPS:;
#BGCHANGES:;
#FGCHANGES:;

//--------------- dance-single - sorae ----------------
#NOTES:
     dance-single:
     sorae:
     Hard:
     13:
     0,0,0,0,0:
0000
0000
0000
0000
,
1000
0010
1000
0000
0001
0000
0010
0000
0100
0000
1000
0000
0010
0000
1000
0000
,
0001
0010
0001
0000
1000
0000
0010
0000
0100
0000
0001
0000
0010
0000
0001
0000
,
1000
0000
0010
0000
0100
0000
0010
0000
2000
0000
0000
3100
0000
0000
1000
0000
,
0001
0000
0100
0000
0010
0000
0100
0000
0002
0000
0000
0013
0100
0000
1000
0000
,
0001
0010
0001
0000
1000
0000
0010
0000
0100
0000
0001
0000
0010
0000
0001
0000
,
1000
0010
1000
0000
0001
0000
0010
0000
0100
0000
1000
0000
0010
0000
1000
0000
,
0001
0000
0010
0000
0100
0000
0010
0000
0002
0000
0000
0103
0000
0000
0001
0000
,
1000
0000
1000
0000
0100
0010
0100
0000
1000
0000
0000
1000
0000
0000
0000
0000
,
0002
0000
0003
0001
0100
0000
0010
0000
1000
0000
0001
0000
0010
0000
0100
0000
,
2000
0000
3000
1000
0010
0000
0100
0000
0001
0000
1000
0000
0100
0000
0010
0000
,
0002
0000
0003
0001
0010
0000
0100
0000
1000
0000
0001
0000
0100
0000
0010
0000
,
2000
0000
3000
1000
0010
0000
0100
0000
0M00
0000
0000
0000
0000
0000
0000
0000
,
2000
0000
3000
1000
0100
0000
0010
0000
0100
0000
0000
1000
0000
0010
0100
0000
,
0002
0000
0003
0001
0100
0000
0010
0000
0100
0000
0000
0001
0000
0010
0100
0000
,
2000
0000
0000
0000
0000
0000
3000
0000
0000
1000
0000
0000
0001
0000
0000
0000
0100
0000
0000
0000
0000
0000
0000
0000
0001
0000
0000
0000
1000
0000
0000
0000
0000
0000
0000
0000
0100
0000
0000
0000
0010
0000
0000
0000
0000
0000
0000
0000
,
0002
0000
0003
0001
0000
0000
1000
0001
1000
0000
0000
0010
0000
0000
0100
0000
,
0002
0000
0003
0001
1000
0000
0100
0000
0010
0000
0100
0000
1000
0000
0010
0000
,
2000
0000
3000
1000
0001
0000
0100
0000
0010
0000
0100
0000
0001
0000
0010
0000
,
0002
0000
0003
0001
1000
0000
0100
0000
0010
0000
0001
0000
0100
0000
0010
0000
,
2000
0000
3000
1000
0002
0000
0003
0001
0020
0000
0000
0130
1000
0000
0001
0000
,
2000
0000
3000
1000
0010
0000
0100
0001
0000
1000
0000
0001
0010
0000
0100
0000
,
2000
0000
3000
1000
0001
0000
0100
0000
0010
0000
0100
0000
0001
0000
1000
0000
,
0002
0000
0003
0001
0010
0000
0100
1000
0000
0010
0000
1000
0100
0000
0010
0000
,
0012
0000
0003
1000
0000
0000
2010
0000
0000
0000
0000
0000
3001
0000
0000
0000
,
1000
0000
0010
0100
0000
0000
0001
0000
0020
0000
0000
0000
0031
0000
1000
0000
,
0001
0000
0010
0100
0000
0000
1000
0000
0020
0000
0000
0000
1030
0000
0001
0000
,
0200
0000
0310
1000
0001
1000
0100
0010
,
0011
0000
0000
0001
0000
0000
1000
0000
1010
0000
0000
1000
0000
0000
0001
0000
,
1001
0000
1000
0100
0020
0000
0031
1000
,
1001
0000
0001
0100
0020
0000
1030
0001
,
1001
0000
1000
0000
0100
0000
1000
0000
0001
0000
0100
0000
0010
0000
0000
0110
,
0000
0000
0000
0000
0000
0000
0000
0000
1000
0001
1000
0001
0040
0000
0000
0000
,
0031
0100
0010
1000
0200
1000
0310
0001
,
1000
0010
0100
0001
0020
0001
0130
1000
,
0020
0000
0130
0001
1000
0001
0010
0100
,
1000
0000
0010
0100
0000
0000
0201
0000
0000
0000
0310
0000
1000
0000
0001
0000
,
1000
0100
0010
0001
0200
0001
0310
1000
,
0001
0010
0100
1000
0020
1000
0130
0001
,
0020
0000
0130
1000
0001
1000
0010
0100
,
0001
0000
0010
0100
0000
0000
1200
0000
0000
0000
0310
0000
0001
0000
1000
0000
,
0002
0100
1003
0002
1000
0103
0010
1000
,
0200
0010
1300
0200
1000
0310
0100
1000
,
0002
0000
0010
0000
1003
0000
0002
0000
1000
0000
0013
0000
0100
0000
1000
0001
,
1000
0010
0100
0001
0010
0100
0010
0001
,
2000
0100
3001
2000
0001
3100
0010
0001
,
0200
0010
0301
0200
0001
0310
0100
0001
,
2000
0000
0010
0000
3001
0000
2000
0000
0001
0000
3010
0000
0100
0000
0001
1000
,
0001
0010
0100
1000
0010
0100
0010
1000
,
0001
0000
0000
0010
0001
0000
2000
0000
0000
0000
3010
0000
0100
0001
0100
0000
,
0010
0000
0000
1000
0001
0000
0020
0000
0000
0000
0130
0000
0010
0001
0010
0000
,
0100
0000
1000
0001
0000
0000
0100
0000
0010
0000
1000
0001
0000
0000
0010
0000
,
0100
0000
1000
0010
0000
0000
1002
0000
0000
0000
0013
0000
0100
0000
1000
0000
,
0001
0000
0100
0010
0000
1000
0000
0100
0000
1000
0000
0010
0000
1000
0000
0001
,
1000
0000
0100
0010
0000
0001
0000
0100
0000
0001
0010
0000
0100
0000
1000
0000
,
0001
0100
0001
0000
1000
0000
0100
0010
0100
0000
1000
0000
0001
0100
0001
0000
,
1000
0100
0010
0001
0100
0000
0210
0000
0000
0000
0301
0000
1000
0000
0100
0000
,
0010
0001
0000
0000
1000
0001
0000
0000
0100
0010
0100
0000
0001
1000
0001
1000
,
0200
0000
0300
0000
,
1000
0000
0001
0000
0100
0000
0010
0000
2000
0000
0000
3100
0000
0000
0000
0000
,
1000
0001
0010
0001
0200
0000
0310
0000
,
2010
0000
0000
3100
0000
0000
2010
0000
0000
0000
3100
0000
1000
0000
0001
0000
,
0012
0000
0000
0103
0000
0000
0012
0000
0000
0000
0103
0000
0001
0000
1000
0000
,
0001
0100
0010
1000
0200
1000
0310
0001
,
1000
0010
0100
0001
0020
0001
0130
1000
,
0020
0000
0130
0001
1000
0001
0010
0100
,
1000
0000
0010
0100
0000
0000
0201
0000
0000
0000
0310
0000
1000
0000
0001
0000
,
2000
0100
3001
2000
0001
3100
0010
0001
,
0200
0010
0301
0200
0001
0310
0100
0001
,
2000
0000
0010
0000
3001
0000
2000
0000
0001
0000
3010
0000
0100
0000
0001
1000
,
0001
0010
0100
1000
0010
0100
0010
1000
,
0002
0100
1003
0002
1000
0103
0010
1000
,
0200
0010
1300
0200
1000
0310
0100
1000
,
0002
0000
0010
0000
1003
0000
0002
0000
1000
0000
0013
0000
0100
0000
1000
0001
,
1000
0010
0100
0001
0010
0100
0010
0001
,
0200
0000
0000
0310
1000
0000
0002
0000
0010
0000
0103
0000
0001
0000
2000
0000
,
0010
0000
3100
0000
1000
0000
0001
0000
0100
0010
0100
0000
0001
0000
1000
0000
,
0200
0000
0000
0310
0001
0000
2000
0000
0010
0000
3100
0000
1000
0000
0002
0000
,
0010
0103
0001
1001
0000
1000
0100
1000
,
0002
0000
0000
0103
0020
0000
0000
1030
0001
0000
0010
0000
0100
0000
1000
0000
,
1001
0000
0000
0000
0000
0000
0001
0000
1000
0000
0010
0200
0000
0000
0301
0000
,
1001
0000
0000
0000
;

//--------------- dance-single - sorae ----------------
#NOTES:
     dance-single:
     sorae:
     Challenge:
     15:
     0,0,0,0,0:
0000
0000
0000
0000
,
1000
0100
1000
0000
0001
0100
0010
1000
0001
0000
0010
0000
0100
0000
0010
0000
,
0001
0100
0001
0000
1000
0100
0010
0001
1000
0000
0010
0000
0100
0000
0010
0000
,
1000
0000
0100
0000
0010
0000
0001
0000
0200
0000
0000
0301
1000
0000
0010
0000
,
1000
0000
0100
0000
0010
0000
0011
0000
0002
0000
1003
0010
1000
0000
0001
0010
,
0001
0100
0001
0000
1000
0100
0010
0001
1000
0000
0010
0000
0100
0000
0010
0000
,
1000
0100
1000
0000
0001
0100
0010
1000
0001
0000
0010
0000
0100
0000
0010
0000
,
0001
0000
0100
0000
0010
0000
1000
0000
0200
0000
0000
1300
0001
0000
0010
0000
,
0011
0000
1002
0000
0103
0010
0100
0000
1002
0000
0003
0011
0000
0000
0000
0000
,
0002
0000
0003
0001
1000
0010
1000
0000
0100
0000
0010
0001
0000
1000
0010
0000
,
2000
0000
3000
1000
0001
0000
0010
0001
1000
0000
0010
0100
0000
0000
0001
0000
,
2000
0000
3000
1000
0001
0000
0010
0000
0100
0000
1000
0000
0010
0000
0100
0000
,
0002
0000
0003
0001
0000
0000
1000
0100
0002
0000
0000
0000
0000
0000
0000
0000
,
0203
0000
0300
0100
0010
0000
0001
0000
0100
0000
0010
1000
0000
1000
0001
0000
,
0200
0000
0300
0100
0010
0000
1000
0000
0100
0000
0010
0001
0000
0001
1000
0000
,
0200
0000
0000
0000
0000
0000
0300
0000
0000
0100
0000
0000
1000
0000
0000
0000
0010
0000
0000
0000
1000
0000
0000
0000
0001
0000
0000
0000
0010
0000
0000
0000
0001
0000
0000
0000
1000
0000
0000
0000
0010
0000
0000
0000
1000
0000
0000
0000
,
0200
0000
0300
0100
0010
0000
0001
1000
0001
0000
0100
0010
0000
0100
0010
0000
,
2000
0000
3000
1000
0001
0010
0100
0010
0001
0000
1000
0010
0100
0010
1000
0000
,
0200
0000
0300
0100
1000
0001
0100
0000
0010
0000
0100
0001
1000
0100
1000
0000
,
0002
0000
0003
0001
0100
0000
0010
0000
1000
0000
0001
0000
0010
0000
0001
0000
,
0200
0000
0300
0100
0020
0000
0030
0010
2000
0000
0000
3001
1000
0001
0100
0001
,
0020
0000
0030
0010
0001
0000
1000
0010
0000
0001
0000
0010
0100
0000
0010
1000
,
0002
0000
0003
0001
0010
0000
0100
0000
1000
0001
1000
0010
0200
0000
0000
0000
,
0320
0000
0030
0010
1000
0000
0001
0010
0000
1000
0000
0010
0100
0000
0010
0000
,
0012
0000
0000
0103
0000
0000
2010
0000
0000
3100
1000
0000
0001
0010
0001
0000
,
1000
0000
0001
0100
0010
0000
0100
0000
2000
0000
3100
0000
0010
0000
1000
0000
,
0001
0000
1000
0100
0010
0000
0100
0000
0002
0000
0103
0000
0010
0000
0001
0000
,
0200
0000
0000
0310
1000
0000
0001
0000
1000
0000
0100
0000
0010
0000
0001
1000
,
2010
0000
3000
1002
0000
0003
0010
0000
1002
0000
0003
2010
0000
3001
0010
0000
,
0011
0001
1000
0100
1000
0001
0100
0010
,
1010
1000
0001
0100
0001
1000
0100
0010
,
0011
0000
0001
0000
1000
0000
0100
0000
1000
0000
0001
0000
0100
0000
0001
1001
,
0000
0000
0000
1000
0000
0000
1000
0000
0001
0010
0001
1000
0010
0100
0010
0100
,
0001
0000
1000
0100
0010
0000
0200
0000
0001
0000
0310
0001
1000
0000
0010
0000
,
1000
0000
0001
0100
0010
0000
0200
0000
1000
0000
0310
1000
0001
0000
1000
0100
,
0020
0000
0000
0031
1000
0000
0001
0100
0010
0100
0001
0000
1000
0000
0100
0010
,
0001
0000
0100
0010
1000
0000
2010
0000
0000
0000
3001
0000
1000
0000
0001
0010
,
0001
0000
1000
0010
0100
0000
0020
0000
0001
0000
0130
0001
1000
0000
0100
0000
,
1000
0000
0001
0010
0100
0000
0020
0000
1000
0000
0130
1000
0001
0000
1000
0010
,
0200
0000
0000
0301
1000
0000
0001
0010
0100
0010
0001
0000
1000
0000
0010
1000
,
0100
1000
0001
0010
0001
0000
0012
0000
0000
0000
1003
0000
0010
0000
0100
0010
,
0002
0000
0013
0100
0010
0000
0002
0000
0013
0100
0010
1000
0001
0000
0010
0100
,
0002
0000
0103
0010
0100
0000
0002
0000
0103
0010
0100
1000
0001
0000
0100
0010
,
0002
0000
0013
0100
0010
0000
0002
0000
0013
0100
0010
1000
0001
0000
0010
0100
,
0010
0000
0001
0100
0010
0000
1010
0000
1000
0000
0001
0000
1000
0000
0100
0010
,
2000
0000
3010
0100
0010
0000
2000
0000
3010
0100
0010
0001
1000
0000
0010
0100
,
2000
0000
3100
0010
0100
0000
2000
0000
3100
0010
0100
0001
1000
0000
0100
0010
,
2000
0000
3010
0100
0010
0000
2000
0000
3010
0100
0010
0001
1000
0000
0010
0100
,
0010
0000
1000
0100
0010
0000
0011
0000
0001
0000
1000
0000
0001
0000
0100
0010
,
1000
0000
0000
0001
0010
0000
0002
0000
1000
0000
0103
0000
0001
1000
0100
0010
,
0001
0000
0000
1000
0010
0000
2000
0000
0001
0000
3100
0000
1000
0001
0100
0010
,
1000
0000
0001
0010
0000
0001
0100
0000
0001
0000
1000
0010
0000
1000
0100
0000
,
1100
0000
1000
0001
0000
0000
0102
0000
0000
1003
0100
0010
0001
0010
0100
1000
,
0001
0100
0001
0100
0000
0010
0000
0010
0000
0100
0000
0100
0000
0002
0000
0000
,
1003
0100
1000
0100
0000
0010
0000
0010
0000
0100
1000
0010
1000
0001
1000
0000
,
0100
0010
1000
0010
0100
0000
1000
0010
0100
0010
0001
0010
0100
0001
1000
0100
,
0010
0001
0100
0010
1000
0100
0002
0000
0000
0000
0103
0000
1000
0001
0100
0010
,
1000
0100
1000
0000
0001
0100
0001
0000
1000
0001
1000
0100
1000
0010
0100
0001
,
0020
0000
0030
0000
,
0001
0000
1000
0000
0010
0000
0100
0000
0002
0000
0000
0013
0000
0000
0000
0000
,
0001
1000
0100
1000
0020
0000
0130
0001
,
2001
0000
0000
3100
0010
0001
0100
0000
0010
1000
0001
0000
0010
0001
1000
0000
,
1002
0000
0103
0010
1000
0100
0020
0000
0000
0000
0031
1000
0001
1000
0010
0000
,
1000
0000
0100
0010
0001
0000
0020
0000
1000
0000
0130
1000
0001
0000
0010
0000
,
0001
0000
0100
0010
1000
0000
0020
0000
0001
0000
0130
0001
1000
0000
0001
0010
,
0200
0000
0000
1300
0001
0000
1000
0010
0100
0010
1000
0000
0001
0000
0010
0001
,
0100
0001
1000
0010
1000
0000
2010
0000
0000
0000
3100
0000
0010
0000
0001
0010
,
2000
0000
3010
0100
0010
0000
2000
0000
3010
0100
0010
0001
1000
0000
0001
0100
,
2000
0000
3100
0010
0100
0000
2000
0000
3100
0010
0100
0001
1000
0000
0001
0010
,
2000
0000
3010
0100
0010
0000
2000
0000
3010
0100
0010
0001
1000
0000
0010
0100
,
0010
0000
1000
0100
0010
0000
0011
0000
0001
0000
0100
0000
0001
0000
1000
0010
,
0002
0000
0013
0100
0010
0000
0002
0000
0013
0100
0010
1000
0001
0000
1000
0100
,
0002
0000
0103
0010
0100
0000
0002
0000
0103
0010
0100
1000
0001
0000
1000
0010
,
0002
0000
0013
0100
0010
0000
0002
0000
0013
0100
0010
1000
0001
0000
0010
0100
,
0010
0000
0001
0100
0010
0000
1010
0000
1000
0000
0100
0000
1000
0000
0001
0100
,
2000
0000
0000
3001
0010
0000
0200
0000
0301
1000
0001
0000
0010
0000
0200
0000
,
0010
0000
1300
0000
0001
0000
1000
0100
1000
0001
0100
0001
0010
0000
0100
0000
,
0002
0000
0000
1003
0010
0000
0200
0000
1300
0001
1000
0000
0010
0000
0200
0000
,
0010
0000
0301
0000
1000
0000
1001
0000
0000
0001
1000
0100
1000
0001
0100
0000
,
0002
0000
0000
0013
0200
0000
0000
1300
0001
0100
0010
0000
1000
0100
0010
0000
,
0110
0000
0000
0000
0000
0000
0001
0000
1000
0000
0010
0100
2000
0000
3001
0000
,
0110
0000
0000
0000
;
