#VERSION:0.83;
#TITLE:随神;
#SUBTITLE:;
#ARTIST:影虎。;
#TITLETRANSLIT:Kannagara;
#SUBTITLETRANSLIT:;
#ARTISTTRANSLIT:Kagetora.;
#GENRE:;
#CREDIT:chronon;
#MUSIC:Kannagara.ogg;
#BANNER:Kannagara.png;
#BACKGROUND:Kannagara-bg.png;
#CDTITLE:;
#SAMPLESTART:76.613;
#SAMPLELENGTH:23.558;
#SELECTABLE:YES;
#OFFSET:-0.049;
#BPMS:0.000=163.000;
#STOPS:;
#BGCHANGES:;
#FGCHANGES:;

//--------------- dance-single - chronon ----------------
#NOTEDATA:;
#STEPSTYPE:dance-single;
#DESCRIPTION:chronon;
#DIFFICULTY:Beginner;
#METER:3;
#RADARVALUES:0,0,0,0,0;
#NOTES:
0000
0000
0000
0000
,
0000
0000
0000
0000
,
0000
0000
0000
0000
,
0000
0000
0000
0000
,
0000
0000
0000
0000
,
1000
0000
0010
0000
,
0010
0000
0000
0000
,
0100
0000
0001
0000
,
0001
0000
0000
0000
,
0001
0000
0010
0000
,
0010
0000
0000
0000
,
0200
0000
0000
0300
,
0000
0000
0000
0000
,
0000
0000
0000
0000
,
0000
0000
0000
0000
,
0000
0000
0000
0000
,
0000
0000
0000
0000
,
0000
0000
0000
0000
,
0000
0000
0000
0000
,
0000
0000
0000
0000
,
1001
0000
0000
0000
,
1000
0000
0010
0000
,
0100
0000
0100
0000
,
0001
0000
0010
0000
,
0100
0000
0100
0000
,
1000
1000
1000
0000
,
0001
0001
0001
0000
,
1000
0000
0010
0000
,
0100
0000
0001
0000
,
1000
0000
0001
0000
,
0000
0000
0001
0000
,
1000
0000
0100
0000
,
0000
0000
0100
0000
,
1000
0000
0100
0000
,
0010
0000
0010
0000
,
0001
0000
0100
0000
,
0010
0010
0010
0000
,
2000
0000
0000
0000
,
3000
0000
0000
0000
,
0000
0000
0000
0000
,
0000
0000
0000
0000
,
0000
0000
0000
0000
,
0000
0000
0000
0000
,
0000
0000
0000
0000
,
0000
0000
0000
0000
,
0000
0000
0000
0000
,
0000
0000
0000
0000
,
0000
0000
0000
0000
,
1001
0000
0000
0000
,
0000
0000
0000
0000
,
0000
0000
0000
0000
,
1001
0000
0000
0000
,
0001
0000
0010
0000
,
0100
0100
0100
0000
,
1000
0000
0010
0000
,
0100
0100
0100
0000
,
0001
0000
0100
0000
,
0010
0010
0010
0000
,
1000
0000
0100
0000
,
0010
0000
0001
1000
,
0001
0000
0100
0000
,
0010
0000
1000
0000
,
0001
0001
0001
0000
,
1000
1000
1000
0000
,
0100
0010
0100
0000
,
0010
0100
0010
0000
,
0001
0000
1000
0000
,
2002
0000
0000
3003
,
0001
0000
0100
0000
,
0010
0000
1000
0000
,
1000
0000
0010
0000
,
0100
0000
0000
0000
,
0001
0000
0010
0000
,
0100
0000
1000
0000
,
1000
0000
0100
0000
,
0010
0000
0001
0000
,
1000
0000
0000
0000
,
0002
0000
0000
0003
,
2002
0000
0000
0000
,
0000
0000
0000
0000
,
3003
0000
0000
0000
;

//--------------- dance-single - chronon ----------------
#NOTEDATA:;
#STEPSTYPE:dance-single;
#DESCRIPTION:chronon;
#DIFFICULTY:Easy;
#METER:7;
#RADARVALUES:0,0,0,0,0;
#NOTES:
0000
0000
0000
0000
,
0000
0000
0000
0000
,
0000
0000
0000
0000
,
0000
0000
0000
0000
,
0000
0000
0000
0000
,
0001
0010
0100
1000
,
0001
0100
0010
1000
,
0001
0001
1000
1000
,
0001
0010
0001
1000
,
1000
0010
0100
0001
,
1000
0100
0010
0001
,
2000
0000
0000
0000
,
3000
0000
0000
0000
,
0001
0000
0000
0000
,
0100
0000
0000
0000
,
0010
0000
0000
0000
,
1000
0000
0000
0000
,
0001
0000
1000
0000
,
0001
0000
1000
0000
,
0001
0000
0010
0000
,
0100
1000
0001
0000
,
1000
0010
0100
0100
,
0001
0010
0100
0000
,
1000
0100
0010
0010
,
0001
0100
0010
0000
,
0001
0010
1000
0000
,
0001
0010
1000
0000
,
0010
0100
1000
0001
,
1000
1000
0001
0001
,
0100
0000
1001
0000
,
0000
0000
1001
0000
,
0010
0000
1001
0000
,
0000
0000
1001
0000
,
1000
0000
0100
0000
,
0001
0100
1000
0000
,
0001
0000
0100
1000
,
0100
0000
0010
1000
,
0002
0000
0000
0000
,
0003
0000
0000
0000
,
0000
0000
0000
0000
,
2000
0000
0000
0000
,
3200
0000
0000
0000
,
0320
0000
0000
0000
,
0032
0000
0000
0000
,
2003
0000
0000
0000
,
3020
0000
0000
0000
,
0230
0000
0000
0000
,
0301
0000
0000
0000
,
0000
2000
3200
0320
,
0031
0002
0203
0320
,
2030
0000
0000
0000
,
3000
0020
0230
0302
,
1003
0000
0010
0000
0100
0010
0100
0000
,
0001
0000
0010
0000
0100
0010
0100
0000
,
1000
0000
0010
0000
0100
0001
0100
0000
,
0001
0000
0010
0000
0100
1000
0100
0000
,
1000
0000
0010
0000
0100
0010
0100
0000
,
0001
0000
0010
0000
0100
0010
0100
0000
,
1000
0100
0010
0001
,
1000
0000
0001
0000
1000
0001
1000
0000
,
0001
0100
0001
0000
1000
0010
1000
0000
,
1000
0100
1000
0000
0001
0010
0001
0000
,
0010
0100
1000
0001
,
1000
1000
0001
0001
,
1000
0010
0100
1000
,
0100
0010
0100
0001
,
1000
0100
0010
0001
,
2002
0000
0000
3003
,
0001
0000
0010
0000
0100
0010
0100
0000
,
1000
0000
0100
0000
0010
0100
0010
0000
,
0001
0100
0010
1000
,
0010
0100
0001
1000
,
1000
0000
0010
0000
0100
0010
0100
0000
,
0001
0000
0100
0000
0010
0100
0010
0000
,
1000
0001
1000
0001
,
0010
0100
0010
0100
,
2000
0000
3001
0000
,
2002
0000
0000
3003
,
0220
0000
0000
0000
,
0000
0000
0000
0000
,
0330
0000
0000
0000
;

//--------------- dance-single - chronon ----------------
#NOTEDATA:;
#STEPSTYPE:dance-single;
#DESCRIPTION:chronon;
#DIFFICULTY:Medium;
#METER:11;
#RADARVALUES:0,0,0,0,0;
#NOTES:
0000
0000
0000
0000
,
0000
0000
0000
0000
,
0000
0000
0000
0000
,
0000
0000
0000
0000
,
0000
0000
0000
0000
,
1000
0100
0010
0001
0100
0000
0010
0000
,
1000
0010
0100
0001
0010
0000
0100
0000
,
1000
0100
0010
0001
0100
0010
1000
0100
,
0010
0000
0000
0001
0000
1000
0000
0001
0000
0000
1000
0000
0002
0000
0003
0000
,
0001
0100
0010
1000
0100
0000
0010
0000
,
0001
0010
0100
1000
0010
0000
0100
0000
,
0001
0100
0001
0100
0010
1000
0010
1000
,
0001
0000
0000
0000
,
2000
0000
0000
0000
,
3100
0010
0001
0000
,
1000
0010
0100
0000
,
0010
0100
0001
0000
,
0001
0100
0010
0000
,
0100
0010
1000
0000
,
0001
0000
1000
0001
,
1000
0000
0200
0000
1300
0010
0100
0001
,
1000
0000
0010
0000
0100
0000
0001
0000
1000
0000
0000
0100
0000
0000
0010
0000
,
0001
0000
0000
0100
0000
0000
0010
0000
2000
0000
0000
0000
3001
0000
0000
0000
,
1000
0000
0000
0010
0000
0000
0100
0000
0000
0010
0000
0000
1000
0000
0001
0000
,
1000
0000
0000
0100
0000
0000
0010
0000
0000
0000
0001
0000
0100
0000
0001
0000
,
0101
0000
0000
0110
0000
0000
1010
0000
0000
0000
0000
0000
0000
0000
0000
0000
,
1100
0000
0000
0110
0000
0000
0011
0000
0000
0000
0000
0000
0000
0000
0000
0000
,
0001
0010
0001
0010
0001
1000
0001
1000
,
0001
0100
0001
0100
0010
0000
1000
0000
,
1020
0000
0130
0101
,
0000
0021
0130
1000
,
1200
0000
0000
0000
0000
0000
0310
0000
0001
0000
0010
0000
,
0000
0001
1000
0000
0010
0000
2000
3000
,
1000
0010
0100
0100
0001
0010
0100
0000
,
0001
0100
0010
0000
1000
0010
0100
1000
,
0001
0000
0000
0000
1000
0000
0000
0000
0010
0000
0000
1000
0000
0010
0000
1000
,
0001
0000
0000
1000
0000
0001
0000
1000
0000
0001
1000
0000
0002
0000
0003
0000
,
0002
0000
0000
0000
,
0003
0000
0000
0000
,
0000
0000
0000
0000
,
2000
0000
3002
0000
,
0023
0000
0230
0000
,
2300
3020
0230
0302
,
2003
0000
3002
0023
,
0032
0000
2003
0000
,
3020
0000
0230
0000
,
0302
0000
0000
0000
,
2000
0000
0000
3003
,
1001
0002
0023
0230
,
2300
3020
0230
0302
,
0023
0000
0000
0030
,
0011
0020
0230
2300
,
3001
0000
0010
0000
0100
0000
1000
0001
0000
1000
0000
0010
0000
0000
0000
0000
,
1000
0000
0010
0000
0100
0000
0001
1000
0000
0000
0001
0000
0010
0000
0001
0000
,
0010
0100
0010
0100
1000
0000
0001
0000
,
0100
0010
0100
0010
1000
0000
0001
0000
,
1000
0000
0010
0000
0100
0000
0001
1000
0000
0001
0000
0010
0000
0000
0000
0000
,
0001
0000
0000
0010
0000
0100
0000
1000
0000
0000
1000
0000
0010
0000
1000
0000
,
0010
0000
0000
0100
0000
0001
1000
0000
0100
0000
0000
0010
0000
0001
1000
0000
,
0010
0000
0100
0000
0001
1000
0001
0001
,
1000
0100
0100
0010
0001
0100
0100
0010
,
1000
0000
0010
0000
0010
0000
0100
0000
0001
0000
0000
0100
0000
0000
0010
0000
,
1000
0020
0100
1030
0020
0100
1030
0010
,
0200
0302
0023
0032
,
1003
0100
1000
0100
0010
0100
0001
0100
,
1000
0010
1000
0010
0100
0010
0001
0010
,
1000
0010
0100
0001
,
2002
0000
0000
3003
,
0001
0010
0100
1000
0010
0100
0010
0010
,
1000
0010
0100
0001
0010
0100
0010
0010
,
0100
1000
0010
0100
0001
0010
0100
1000
,
0010
0000
0000
0100
0000
0010
0000
1000
0000
0001
0000
0000
2000
0000
3000
0000
,
1000
0100
1000
0100
0010
0001
0010
0001
,
1000
0010
1000
0010
0100
0001
0100
0001
,
0101
0000
0000
0110
0000
0000
1010
0000
0000
1001
0000
0000
1000
0000
0100
0000
,
1100
0000
0000
0110
0000
0000
0011
0000
0000
1001
0000
0000
0001
0000
0100
0000
,
0020
0000
0130
0000
,
2002
0000
0000
3003
,
0220
0000
0000
0000
,
0000
0000
0000
0000
,
0330
0000
0000
0000
;

//--------------- dance-single - chronon ----------------
#NOTEDATA:;
#STEPSTYPE:dance-single;
#DESCRIPTION:chronon;
#DIFFICULTY:Hard;
#METER:15;
#RADARVALUES:0,0,0,0,0;
#NOTES:
0000
0000
0000
0000
,
0000
0000
0000
0000
,
0000
0000
0000
0000
,
0000
0000
0000
0000
,
0000
0000
0000
0000
,
0001
0000
0100
0000
0010
0000
1000
0000
0100
0000
1000
0100
0000
0010
0100
0000
,
1000
0000
0100
0000
0010
0000
0001
0000
0100
0000
0001
0100
0000
0010
0100
0000
,
0001
0100
0001
0000
1000
0000
0001
0010
0001
0000
1000
0000
0001
0100
0001
0000
,
1000
0000
0100
1000
0000
0100
0000
0010
0000
0001
2000
0000
0100
0000
3001
0000
,
1000
0000
0010
0000
0100
0000
0001
0000
0010
0000
0001
0010
0000
0100
0010
0000
,
0001
0000
0010
0000
0100
0000
1000
0000
0010
0000
1000
0010
0000
0100
0010
0000
,
1000
0010
1000
0010
0100
0001
0100
0001
1000
0001
1000
0001
1000
0000
0000
0000
,
1001
0000
0000
0000
,
0002
0000
0000
0000
,
0013
0100
1000
0000
,
0010
0100
0001
0000
,
0100
0010
1000
0000
,
1000
0100
0010
0100
,
0010
0001
1000
0001
,
1000
0000
0000
0000
0000
0000
0010
0000
0100
0000
0000
0001
0000
0000
1000
0000
,
0001
0000
0000
0000
0020
0000
0000
0000
0130
0010
0100
0000
1000
0001
1000
0000
,
0001
0000
0100
0001
0100
0000
0010
0000
1000
0000
0010
1000
0000
0001
0010
0000
,
0001
0000
0010
0001
0000
1000
0010
0000
0200
0000
0000
0000
0310
0000
0000
0000
,
1000
0000
0010
1000
0000
0010
0100
0000
0001
1000
0000
0001
0010
0000
0010
0000
,
0001
0000
0000
0010
0000
0000
0200
0000
0000
0000
1300
0001
1000
0000
0100
0000
,
1100
0000
0000
1001
0000
0000
1010
0000
0010
0000
0100
0000
0001
0000
0000
0000
,
0101
0000
0000
1001
0000
0000
0011
0000
0010
0000
0100
0000
1000
0000
0001
0000
,
1000
0010
1000
0010
0100
0001
0100
0001
,
1000
0001
1000
0100
0010
0001
1000
0010
,
0002
0023
0130
1001
,
0000
1001
0001
0010
,
1000
0000
0000
0010
0000
0000
0100
0000
0010
0000
0100
0000
,
1000
0001
1000
0000
0020
0000
0100
1030
,
0001
0000
1000
0000
0001
0010
0001
0010
0001
0000
1000
0000
0010
0000
0100
0000
,
0001
0010
0100
0000
0010
0000
0100
0000
1000
0010
0100
0000
0010
0100
0001
0000
,
1000
0000
0010
0000
0100
0001
0000
0100
0002
0010
0000
0010
0000
0013
0001
0000
,
1000
0000
0001
1000
0000
0001
0000
1000
0000
0001
2000
0000
0010
0000
3001
0000
,
2002
0000
0000
0000
,
3003
0000
0000
0000
,
0000
0000
0000
0000
,
2000
0000
3002
0000
,
0203
0000
0320
0000
,
2030
3200
0320
0032
,
2003
0000
3002
0203
,
0302
0000
2003
0000
,
3200
0000
0320
0000
,
0032
0000
0000
0000
,
2000
0000
0000
3003
,
1001
0002
0203
0320
,
2030
3200
0320
0032
,
0203
0000
0000
0300
,
0101
0200
0320
2030
,
3001
0000
0100
0001
0100
0000
0001
0010
0000
0100
0000
1000
0000
0100
1000
0100
,
1000
0000
0100
1000
0100
0000
1000
0010
0000
0100
0001
0000
1000
0000
0001
0000
,
0010
0001
0010
0000
0100
1000
0100
0000
1000
0010
0000
0100
0000
0001
0100
0000
,
0010
1000
0010
0000
0100
0001
0100
0000
0001
0010
0000
0100
1000
0000
0100
0000
,
1000
0000
0100
1000
0100
0000
1000
0010
0000
0100
0000
0001
0000
0100
0001
0100
,
0001
0000
0100
0001
0000
0010
0000
0100
0000
1000
0001
0000
1000
0000
0010
0000
,
1000
0000
0010
0100
0000
0001
0010
0000
0001
0000
0010
0100
0000
1000
0010
0000
,
0100
0000
0000
0000
0010
0000
0000
0000
1000
0001
1000
0001
1000
0000
0001
0000
,
1000
0000
0001
0010
0100
1000
0001
1000
0001
0000
1000
0010
0100
0001
1000
0001
,
1000
0000
0100
0010
0100
0010
0001
1000
0001
0000
0010
0100
0000
1000
0001
0000
,
1000
0200
1000
0000
0310
0000
0001
0200
0001
0000
0310
0000
1000
0100
1000
0000
,
0200
0320
0032
2003
,
3001
0001
0100
0100
0010
0010
0001
0010
,
1000
1000
0100
0100
0010
0010
1000
0010
,
0001
0010
0100
0000
0010
0100
1000
0000
1000
0010
0100
0000
0010
0100
0001
0000
,
1000
0001
1000
0001
1000
0001
1000
0001
1000
0001
1000
0001
1000
0000
0000
0000
,
0001
0000
0100
0001
0100
0000
0001
0000
0010
0000
0100
0010
0000
0010
0100
0000
,
1000
0000
0100
1000
0100
0000
1000
0000
0010
0000
0100
0010
0000
0010
0100
0000
,
0001
0100
0001
0100
0010
0000
1000
0100
1000
0100
0010
0000
0001
0100
0001
0100
,
0010
0000
0100
0010
0000
1000
0000
0001
0000
0010
0200
0000
0010
0000
1300
0000
,
0001
0000
0010
0001
0010
0100
1000
0000
0010
0000
0100
0010
0000
0100
0010
0000
,
1000
0000
0010
1000
0010
0100
0001
0000
0010
0000
0100
0010
0000
0100
0010
0000
,
0001
0000
0010
0100
0000
0010
1000
0000
0010
0100
0000
0010
0001
1000
0001
0000
,
1000
0000
0010
0100
0000
0010
0001
0000
0010
0100
0000
0010
1000
0001
1000
0000
,
2002
0000
3003
0000
,
0001
1000
0001
1000
0001
1000
0001
1000
0001
1000
0001
1000
0001
0000
0000
0000
,
0220
0000
0000
0000
,
0000
0000
0000
0000
,
0330
0000
0000
0000
;

//--------------- dance-single - chronon ----------------
#NOTEDATA:;
#STEPSTYPE:dance-single;
#DESCRIPTION:chronon;
#DIFFICULTY:Challenge;
#METER:17;
#RADARVALUES:0,0,0,0,0;
#NOTES:
0000
0000
0000
0000
,
0000
0000
0000
0000
,
0000
0000
0000
0000
,
0000
0000
0000
0000
,
0000
0000
0000
0000
,
1000
0000
0010
1000
0010
0000
0100
0000
0001
0000
1000
0001
0000
0010
0100
0010
,
0001
0000
0010
0001
0010
0000
0100
0000
1000
0000
0001
1000
0000
0010
1000
0010
,
0100
0001
1000
0010
1000
0000
0100
1000
0001
0010
0001
0000
0100
0001
1000
0010
,
1000
0000
0100
0010
0000
0010
0000
0001
0000
1000
0002
0000
1000
0000
0103
0000
,
0001
0000
0100
0001
0100
0000
0010
0000
1000
0000
0001
1000
0000
0100
0010
0100
,
1000
0000
0100
1000
0100
0000
0010
0000
0001
0000
1000
0001
0000
0100
0001
0100
,
0010
1000
0010
1000
0001
0010
0001
0010
0100
1000
0100
1000
0001
0100
0001
0100
,
0010
2000
3020
0230
,
0302
0000
0000
0000
0000
0000
1003
0001
,
1000
0100
0010
0001
2000
0000
3001
1000
,
0010
0000
0000
0010
0100
0000
0000
0100
0001
0000
0000
0000
1000
0000
0001
0000
,
2000
3200
0320
0000
,
0031
0000
0000
0001
0010
0000
0100
0000
1000
0000
0000
1000
0010
0000
0100
0000
,
0001
0000
0000
0001
0100
0000
0010
0000
2000
0000
0000
0000
3002
0000
0000
0000
,
2003
0000
0000
0000
3000
0000
0001
1000
0002
0000
0000
0023
0000
0000
0130
0000
,
1001
0000
0000
0000
2000
0000
0000
0000
3001
1000
0100
0010
0001
1000
0010
0100
,
0001
0000
0100
0001
0100
0010
1000
0001
1000
0000
0001
1000
0000
0100
1000
0000
,
0001
0000
1000
0001
0000
0100
0001
0000
0010
0000
0001
0000
0010
0100
0010
0000
,
0001
0000
0010
0100
0000
1000
0001
0000
1000
0010
0000
0100
0001
0100
0001
0000
,
1000
0000
0010
0100
0000
0001
1000
0000
0100
0000
0020
0000
0100
0000
0031
0000
,
0011
0000
0000
1001
0000
0000
1020
0000
0130
0000
0001
1000
0010
0000
1000
0000
,
1010
0000
0000
1001
0000
0000
0021
0000
0130
0000
1000
0001
0010
0000
0001
0000
,
0010
0000
0010
0000
0100
0000
0100
0000
1000
0000
1000
0000
0100
1000
0001
1000
,
0010
0000
1000
0000
0010
0000
0100
0001
0000
1000
0001
1000
0100
0000
0010
0001
,
0020
0100
1030
1010
,
0000
0011
0101
0100
,
0020
0000
0000
0100
0000
0000
0031
0000
0010
0000
0100
0000
,
0101
0001
1000
0000
1200
0000
1000
0310
,
0100
0000
0010
0000
0001
0010
0001
0010
0001
0000
1000
0001
1000
0000
0010
0000
,
0001
0010
0100
0010
1000
0000
0001
0000
1000
0100
0010
0100
0001
0000
0100
0000
,
0010
0100
1000
0000
0001
1000
0000
0010
0200
1000
0000
1000
0000
1300
0100
0010
,
1000
0000
0001
1000
0000
0001
0000
1000
0000
0001
0010
0002
1000
0000
0103
0000
,
0202
0000
0000
0000
,
0303
0000
0000
0000
,
0000
0000
0000
0000
0002
0203
0320
2030
,
3002
0000
2003
0000
,
3200
0000
0320
0000
,
0032
0203
0320
2030
,
3002
0000
2003
3200
,
2300
0000
3002
0000
,
0203
0000
0320
0000
,
2030
0000
0000
0000
,
0002
0000
0000
3003
,
1001
2000
3200
0320
,
0032
0203
0320
2030
,
3200
0000
0000
0300
,
1100
0200
0320
0032
,
1003
0000
0001
1000
0100
0010
0001
0100
0000
0001
0000
1000
0000
0010
1000
0001
,
1000
0000
0001
1000
0100
0010
0001
0100
0000
0001
0100
0000
1000
0000
0100
0000
,
0010
1000
0010
0100
0001
1000
0001
0010
0100
1000
0000
0100
0000
0010
0100
0000
,
0010
0001
0010
0100
1000
0001
1000
0010
0100
0010
0000
0001
0010
0000
0100
0000
,
0001
0000
1000
0001
0100
0010
1000
0100
0000
1000
0000
0001
0000
1000
0100
0010
,
0001
0000
0010
0100
0000
1000
0000
0010
0000
1000
0010
0000
0100
0001
0100
0000
,
0010
0100
0001
0010
0000
0100
0010
0000
0100
0010
0001
0100
0000
0010
0100
0000
,
0010
0000
1000
0010
0100
0000
0001
0100
1000
0100
1000
0100
0001
0000
0100
0000
,
0101
0000
0001
0010
0100
0010
0100
1000
0001
0000
1000
0010
0100
0010
0100
0001
,
1000
0000
0001
0010
0100
1000
0100
0010
0001
0000
1000
0001
0000
1000
0001
0100
,
0001
0100
0010
0200
1000
0000
0301
0100
0010
0200
1000
0000
0301
0100
0010
1000
,
0200
0320
0032
1003
,
0001
0000
0001
0000
0010
0000
0010
0000
0100
0000
0100
0000
0001
0100
0010
0100
,
1000
0000
1000
0000
0010
0000
0010
0000
0100
0000
0100
0000
1000
0100
0010
0100
,
0001
1000
0001
0010
0100
1000
0100
0010
0001
1000
0001
0100
0010
1000
0010
0100
,
0001
1000
0001
1000
0001
1000
0001
1000
0001
1000
0001
1000
0001
0000
0000
0000
,
1000
0000
0010
1000
0010
0100
0001
1000
0001
0010
0100
1000
0000
1000
0100
0010
,
0001
0000
0010
0001
0010
0100
1000
0001
1000
0010
0100
0001
0000
0001
0100
0010
,
0001
0010
0100
0010
1000
0000
0001
0010
0100
0010
1000
0000
0001
0100
0010
0100
,
1000
0100
0010
0100
0000
0110
0000
0011
0000
0001
0200
0000
0001
0000
0310
0000
,
0100
0010
0100
0001
1000
0100
0010
0100
1000
0100
0010
0001
0000
1000
0001
1000
,
0100
0010
0100
1000
0001
0100
0010
0100
0001
0100
0010
1000
0000
0010
0100
0001
,
0010
0100
1000
0010
0100
0001
0010
0100
1000
0010
0100
0001
1000
0100
0010
0001
,
0100
0010
1000
0100
0010
0001
0100
0010
1000
0100
0010
0001
1000
0010
0100
0001
,
2000
0000
3001
0000
,
1000
0001
1000
0001
1000
0001
1000
0001
1000
0001
1000
0001
1000
0000
0000
0000
,
0220
0000
0000
0000
,
0000
0000
0000
0000
,
0330
0000
0000
0000
;

//--------------- dance-double - chronon ----------------
#NOTEDATA:;
#STEPSTYPE:dance-double;
#DESCRIPTION:chronon;
#DIFFICULTY:Easy;
#METER:7;
#RADARVALUES:0,0,0,0,0;
#NOTES:
00000000
00000000
00000000
00000000
,
00000000
00000000
00000000
00000000
,
00000000
00000000
00000000
00000000
,
00000000
00000000
00000000
00000000
,
00000000
00000000
00000000
00000000
,
00001000
00010000
00001000
00001000
,
01000000
00010000
01000000
01000000
,
00001000
00001000
00010000
00010000
,
00001000
00010000
00001000
00000000
,
00010000
00001000
00010000
00010000
,
00000100
00001000
00000100
00000100
,
00000020
00000000
00000000
00000030
,
00000001
00000000
00000000
00000000
,
00000001
00000000
00000000
00000000
,
00000100
00000000
00000000
00000000
,
00000010
00000000
00000000
00000000
,
00001000
00000000
00000000
00000000
,
00000100
00000000
00000000
00000000
,
00010000
00000000
00000000
00000000
,
00001000
00000000
00000000
00000000
,
01000000
00000000
00010000
00000000
,
10000000
00100000
01000000
00000000
,
00100000
01000000
00010000
00000000
,
00100000
00001000
00010000
00000000
,
00000010
00001000
00000001
00000000
,
00000010
00000010
00000010
00000000
,
00000100
00000100
00000100
00000000
,
00001000
00000001
00001000
00000001
,
00001000
00000000
00000100
00000000
,
00010000
00000000
00011000
00000000
,
00000000
00000000
00011000
00000000
,
00001000
00000000
01001000
00000000
,
01000000
00000000
10010000
00000000
,
10000000
00000000
01000000
00000000
,
00010000
01000000
10000000
00000000
,
00010000
00000000
01000000
10000000
,
01000000
00000000
00100000
10000000
,
00020000
00000000
00000000
00000000
,
00030000
00000000
00000000
00000000
,
00000000
00000000
00000000
00000000
,
20000000
00000000
00000000
00000000
,
32000000
00000000
00000000
00000000
,
03200000
00000000
00000000
00000000
,
00320000
00000000
00000000
00000000
,
00032000
00000000
00000000
00000000
,
00003200
00000000
00000000
00000000
,
00000320
00000000
00000000
00000000
,
00000032
00000000
00000000
00000000
,
00000003
00002000
00003002
00002003
,
00003020
00000230
00000320
00000230
,
00000302
00000000
00000000
00000000
,
00001003
00002000
00003002
00002003
,
00003001
00000000
00000100
00000000
00000010
00000100
00000010
00000000
,
00010000
00000000
00001000
00000000
00010000
00001000
00010000
00000000
,
01000000
10000000
00100000
00000000
,
01000000
00010000
00100000
00010000
,
10000000
00000000
00100000
00000000
01000000
00100000
01000000
00000000
,
00001000
00000000
00010000
00000000
00001000
00010000
00001000
00000000
,
00000100
00000000
00000010
00000000
,
00000001
00000000
00001000
00000000
00000001
00001000
00000001
00000000
,
00000001
00000100
00001000
00010000
,
00100000
10000000
00010000
00000000
,
10000000
01000000
00010000
00001000
,
00000010
00000001
00001000
00000000
,
00000001
00000100
00000010
00010000
,
00001000
00100000
00010000
10000000
,
00010000
01000000
00001000
00010000
,
00022000
00000000
00000000
00033000
,
00010000
00000000
00001000
00000000
00010000
00001000
00010000
00000000
,
01000000
00000000
10000000
00000000
01000000
10000000
01000000
00000000
,
10000000
00100000
01000000
00001000
,
00010000
00010000
00010000
00000000
,
00001000
00000000
00010000
00000000
00001000
00010000
00001000
00000000
,
00000010
00000000
00000001
00000000
00000010
00000001
00000010
00000000
,
00000001
00001000
00000001
00001000
,
00000010
00000100
00000010
00010000
,
00002000
00000000
00013000
00000000
,
00022000
00000000
00000000
00033000
,
00022000
00000000
00000000
00000000
,
00000000
00000000
00000000
00000000
,
00033000
00000000
00000000
00000000
;

//--------------- dance-double - chronon ----------------
#NOTEDATA:;
#STEPSTYPE:dance-double;
#DESCRIPTION:chronon;
#DIFFICULTY:Medium;
#METER:11;
#RADARVALUES:0,0,0,0,0;
#NOTES:
00000000
00000000
00000000
00000000
,
00000000
00000000
00000000
00000000
,
00000000
00000000
00000000
00000000
,
00000000
00000000
00000000
00000000
,
00000000
00000000
00000000
00000000
,
00011000
00000000
00010000
00001000
01000000
00010000
01000000
00001000
,
00011000
00000000
00001000
00010000
00000100
00001000
00000100
00010000
,
00001000
00100000
00010000
10000000
00010000
00100000
00001000
00100000
,
00010000
00000000
00000000
00100000
00000000
01000000
00000000
00100000
00000000
00000000
00001000
00000000
00020000
00000000
00030000
00000000
,
00011000
00000000
00001000
00010000
00000010
00001000
00000010
00010000
,
00011000
00000000
00010000
00001000
00100000
00010000
00100000
00001000
,
00010000
00000100
00000010
00000001
00001000
00000001
00001000
00000001
,
00001000
00000000
00000000
00000000
,
00000002
00000000
00000000
00000000
,
00000103
00000010
00001000
00000000
,
00000100
00010000
00001000
00000000
,
01000000
00010000
10000000
00000000
,
10000000
01000000
00100000
00000000
,
00100000
00001000
00010000
00000000
,
00010000
00000000
00000010
00000100
,
00000001
00000000
00000200
00000000
00000310
00001000
00000001
00001000
,
00000001
00000000
00000010
00000000
00000100
00000000
00001000
00000000
00000100
00000000
00000000
00010000
00000000
00000000
00001000
00000000
,
01000000
00000000
00000000
00010000
00000000
00000000
10000000
00000000
00200000
00000000
00000000
00000000
10300000
00000000
00000000
00000000
,
10000000
00000000
00000000
00100000
00000000
00000000
01000000
00000000
00000000
00001000
00000000
00000000
00010000
00000000
00000100
00000000
,
00000010
00000000
00000000
00000001
00000000
00000000
00001000
00000000
00000000
00000000
00000010
00000000
00001000
00000000
00000010
00000000
,
00001010
00000000
00000000
00010010
00000000
00000000
00011000
00000000
00000000
00000000
00000000
00000000
00000000
00000000
00000000
00000000
,
00011000
00000000
00000000
00101000
00000000
00000000
00110000
00000000
00000000
00000000
00000000
00000000
00000000
00000000
00000000
00000000
,
00010000
10000000
00010000
10000000
01000000
00100000
01000000
00100000
,
00010000
10000000
00010000
10000000
00100000
00000000
01000000
00000000
,
01020000
00000000
00130000
00101000
,
00000000
00102000
00013000
00000000
,
00021000
00000000
00000000
00000000
00000000
00000000
00030100
00000000
00000010
00000000
00000001
00000000
,
00000000
00000001
00002000
00000000
00003010
00000000
00002000
00003000
,
00001000
00000001
00000010
00000010
00000001
00001000
00000010
00000000
,
00000001
00000010
00001000
00000000
00000001
00000010
00001000
00000000
,
00000010
00000000
00000000
00000000
00000100
00000000
00000000
00000000
00010000
00000000
00000000
00001000
00000000
00010000
00000000
00001000
,
00010000
00000000
00000000
00001000
00000000
01000000
00000000
00010000
00000000
00000000
10000000
00000000
00020000
00000000
00030000
00000000
,
00020000
00000000
00000000
00000000
,
00030000
00000000
00000000
00000000
,
00000000
00000000
00000000
00000000
,
20000000
00000000
32000000
00000000
,
03200000
00000000
00320000
00000000
,
00032000
00000000
00003200
00000000
,
00000320
00000000
00000032
00000003
,
00000002
00000000
00000203
00000000
,
00000320
00000000
00002030
00000000
,
00023000
00000000
00000000
00000000
,
00230000
00000000
00000000
00000000
,
01300000
20000000
32000000
03200000
,
00320000
00032000
00003200
00000320
,
00000032
00000000
00000000
00000000
,
00000103
00000002
00002003
00003001
,
00000001
00000100
00000010
00010000
00001000
01000000
00010000
00000000
,
10000000
01000000
00100000
00001000
00010000
00000100
00001000
00000000
,
00000001
00000100
00001000
00000000
00001000
00010000
00001000
00000000
,
00010000
01000000
10000000
00000000
10000000
00010000
10000000
00000000
,
10000000
00100000
01000000
00001000
00010000
00000010
00001000
00000000
,
00000001
00000010
00000100
00010000
00001000
00100000
00010000
00000000
,
10000000
00000000
00000000
00010000
00000000
01000000
00100000
00000000
10000000
00000000
00000000
00010000
00000000
00100000
01000000
00000000
,
10000000
00000000
01000000
00000000
00100000
00001000
00010000
00001000
,
00010000
00001000
00000100
00000001
00000010
00000001
00000010
00000000
,
00000001
00000010
00001000
00000010
00001000
00010000
00001000
00000000
,
00010000
00002000
00100000
00013000
00002000
00000010
00013000
00001000
,
00200000
02300000
23000000
30020000
,
10030000
00100000
10000000
00100000
01000000
00010000
00001000
00000010
,
00000100
00000001
00000010
00000001
00000010
00001000
00010000
01000000
,
10000000
00100000
01000000
00001000
,
00022000
00000000
00000000
00033000
,
00011000
00000000
00001000
00010000
00000100
00001000
00000100
00010000
,
00011000
00000000
00010000
00001000
01000000
00010000
01000000
00001000
,
00010000
00000010
00001000
00000001
00001000
00000010
00010000
00000010
,
00001000
00000000
00000000
00000010
00000000
00000100
00000000
00000010
00000000
00000000
00010000
00000000
00002000
00000000
00003000
00000000
,
00011000
00001000
00010000
00001000
00100000
00010000
00100000
00001000
,
00011000
00010000
00001000
00010000
00000010
00001000
00000010
00010000
,
00011000
00000000
00000000
00110000
00000000
00000000
11000000
00000000
00000000
10010000
00000000
00000000
00011000
00000000
00000000
00000000
,
00011000
00000000
00000000
00001100
00000000
00000000
00000011
00000000
00000000
00001001
00000000
00000000
00011000
00000000
00000000
00000000
,
00022000
00000000
00033000
00000000
,
00022000
00000000
00000000
00033000
,
00022000
00000000
00000000
00000000
,
00000000
00000000
00000000
00000000
,
00033000
00000000
00000000
00000000
;

//--------------- dance-double - chronon ----------------
#NOTEDATA:;
#STEPSTYPE:dance-double;
#DESCRIPTION:chronon;
#DIFFICULTY:Hard;
#METER:15;
#RADARVALUES:0,0,0,0,0;
#NOTES:
00000000
00000000
00000000
00000000
,
00000000
00000000
00000000
00000000
,
00000000
00000000
00000000
00000000
,
00000000
00000000
00000000
00000000
,
00000000
00000000
00000000
00000000
,
00011000
00001000
00000100
00000001
00000010
00000100
00010000
00001000
,
00011000
00010000
01000000
10000000
00100000
01000000
00001000
00010000
,
00001000
00000100
00001000
00010000
01000000
00010000
00001000
00000100
,
00000001
00000000
00000000
00000100
00000000
00000001
00000000
00000100
00000000
00000001
00001000
00000000
00000010
00000000
00010000
00000000
,
00011000
00010000
00100000
10000000
01000000
00100000
00001000
00010000
,
00011000
00001000
00000010
00000001
00000100
00000010
00010000
00001000
,
00010000
00001000
00010000
00000000
00001000
01000000
00001000
00000000
01000000
00010000
01000000
00000000
00010000
10000000
00010000
00000000
,
10010000
00000000
00000000
00000000
,
20000000
00000000
00000000
00000000
,
30100000
01000000
00010000
00000000
,
10000000
01000000
00100000
00000000
,
00010000
00001000
00000010
00000000
,
00000001
00000100
00000010
00000100
,
00001000
00010000
00001000
00010000
,
01000000
00000000
00000000
00000000
00000000
00000000
00000000
00000000
10000000
00000000
00000000
00010000
00000000
00000000
10000000
00000000
,
00100000
00000000
00000000
00000000
02000000
00000000
00000000
00000000
03010000
01000000
00010000
00000000
10000000
00100000
10000000
00000000
,
00010000
00000000
10000000
01000000
10000000
00000000
01000000
00000000
00100000
00000000
00010000
00100000
00000000
00001000
00010000
00000000
,
00000010
00000000
00001000
00000010
00000000
00000100
00000001
00000000
00002000
00000000
00000000
00000000
00003001
00000000
00000000
00000000
,
00000001
00000000
00000010
00000001
00000000
00000010
00000100
00000000
00010000
00001000
00000000
01000000
00010000
00000000
00010000
00000000
,
10000000
00000000
00000000
00100000
00000000
00000000
01000000
00000000
00010000
00000000
20000000
00000000
01000000
00000000
30010000
00000000
,
10010000
00000000
00000000
01010000
00000000
00000000
00011000
00000000
00000000
00000000
00000000
00000000
00000000
00000000
00000000
00000000
,
00011000
00000000
00000000
00001100
00000000
00000000
00001001
00000000
00000000
00000000
00000000
00000000
00000000
00000000
00000000
00000000
,
00000001
00000100
00000001
00000100
00000010
00001000
00000010
00001000
,
00000100
00010000
00001000
01000000
00010000
10000000
00100000
00000000
,
00020000
00130000
01000000
10010000
,
00000000
10010000
10000000
01000000
,
00020000
00000000
00000000
00031000
00000000
00000000
00010000
00000000
00001000
00000000
00010000
00000000
,
00001000
00000010
00000001
00000000
00002000
00000000
00000001
00003010
,
00001000
00000000
00000010
00000000
00000100
00000001
00000100
00000001
00001000
00000000
00000001
00000000
00000010
00000000
00000100
00000000
,
00001000
00000100
00001000
00000000
00010000
00000000
00100000
00000000
00010000
00100000
01000000
00000000
10000000
00100000
01000000
00000000
,
00010000
00000000
01000000
00000000
00100000
01000000
00000000
00100000
02000000
10000000
00000000
10000000
00000000
13000000
01000000
00000000
,
00010000
00000000
10000000
00010000
00000000
10000000
00000000
00010000
00000000
10000000
00020000
00000000
01000000
00000000
10030000
00000000
,
20020000
00000000
00000000
00000000
,
30030000
00000000
00000000
00000000
,
00000000
00000000
00010000
00010000
,
00200000
00000000
00302000
00000000
,
00003020
00000000
00000032
00000000
,
00000203
00000320
00002030
00003002
,
00002003
00000000
00003200
00020300
,
00032000
00000000
00203000
00000000
,
00320000
00000000
02030000
00000000
,
03020000
00000000
00000000
00000000
,
20000000
00000000
00000000
30030000
,
10010000
20000000
30200000
00320000
,
00032000
00003200
00000302
00002003
,
00003002
00000000
00000000
00000003
,
00001001
00002000
00003020
00000230
,
00000301
00000000
00000100
00000001
00000100
00000000
00000010
00000000
00001000
00000000
00010000
00000000
01000000
00000000
00010000
00000000
,
10000000
00000000
01000000
10000000
01000000
00000000
00100000
00000000
00010000
00000000
00001000
00000000
00000100
00000000
00001000
00000000
,
00000001
00000100
00000010
00000000
00000100
00000010
00001000
00000000
00010000
00000000
01000000
00000000
00100000
00000000
10000000
00000000
,
00010000
00100000
01000000
00000000
01000000
00100000
00010000
00000000
00001000
00000000
00000100
00000000
00000010
00000000
00000001
00000000
,
00000001
00000000
00000010
00000001
00000010
00000000
00000100
00000000
00001000
00000000
00010000
00000000
00100000
00000000
00010000
00000000
,
10000000
00000000
00100000
10000000
00000000
00100000
00000000
01000000
00000000
00100000
00010000
00000000
00001000
00000000
00000100
00000000
,
00000001
00000000
00000010
00000001
00000000
00000010
00000100
00000000
00001000
00000000
00010000
00100000
00000000
00010000
10000000
00000000
,
00100000
00000000
00000000
00000000
01000000
00000000
00000000
00000000
00010000
10000000
00010000
10000000
00010000
00000000
00000000
00000000
,
10000000
00000000
01000000
10000000
01000000
00100000
00010000
00000000
00001000
00000000
00000100
00001000
00000100
00000010
00000001
00000000
,
00001000
00000000
00000001
00000100
00000010
00001000
00000100
00000000
00010000
00000000
00001000
00010000
00000000
00001000
00010000
00000000
,
00001000
00000100
00001000
00000000
00010000
00000000
00010000
01000000
00010000
00000000
00001000
00000000
00001000
00000100
00001000
00000000
,
00020000
02030000
23000000
30200000
,
10300000
10000000
00100000
00100000
00010000
00010000
00001000
00000100
,
00000001
00000001
00000010
00000010
00001000
00001000
00010000
01000000
,
10000000
01000000
10000000
00000000
01000000
00100000
01000000
00000000
00100000
00010000
00100000
00000000
00001000
00010000
00001000
00000000
,
00010000
00001000
00010000
00001000
00010000
00001000
00010000
00001000
00010000
00001000
00010000
00001000
00010000
00000000
00000000
00000000
,
00011000
00000000
00001000
00000000
00000100
00000000
00000001
00000000
00000010
00000000
00000100
00000010
00000000
00000100
00010000
00000000
,
00011000
00000000
00010000
00000000
01000000
00000000
10000000
00000000
00100000
00000000
01000000
00100000
00000000
01000000
00001000
00000000
,
00010000
00000000
00001000
00000100
00001000
00000000
00010000
00000000
00001000
00000100
00001000
00000000
00010000
00000000
00001000
00000100
,
00001000
00000000
00000100
00000001
00000000
00001000
00000000
00000100
00000000
00010000
00002000
00000000
00000010
00000000
00013000
00000000
,
00011000
00000000
00001000
00000000
00000010
00000000
00000001
00000000
00000100
00000001
00000100
00000010
00000000
00010000
00001000
00000000
,
00011000
00000000
00010000
00000000
00100000
00000000
10000000
00000000
01000000
10000000
01000000
00100000
00000000
00001000
00010000
00000000
,
00001000
00000000
00000100
00001000
00000000
00001000
00010000
00000000
01000000
00010000
00000000
00010000
00001000
00010000
00001000
00000000
,
00010000
00000000
00100000
00010000
00000000
00010000
00001000
00000000
00000010
00001000
00000000
00001000
00010000
00001000
00010000
00000000
,
00011000
00000000
00000000
00000000
,
00001000
00010000
00001000
00010000
00001000
00010000
00001000
00010000
00001000
00010000
00001000
00010000
00001000
00000000
00000000
00000000
,
00022000
00000000
00000000
00000000
,
00000000
00000000
00000000
00000000
,
00033000
00000000
00000000
00000000
;

//--------------- dance-double - chronon ----------------
#NOTEDATA:;
#STEPSTYPE:dance-double;
#DESCRIPTION:chronon;
#DIFFICULTY:Challenge;
#METER:17;
#RADARVALUES:0,0,0,0,0;
#NOTES:
00000000
00000000
00000000
00000000
,
00000000
00000000
00000000
00000000
,
00000000
00000000
00000000
00000000
,
00000000
00000000
00000000
00000000
,
00000000
00000000
00000000
00000000
,
00011000
00000000
00010000
00001000
00010000
00000000
01000000
00000000
10000000
00000000
00010000
01000000
00000000
00001000
00010000
00000000
,
00011000
00000000
00001000
00010000
00001000
00000000
00000010
00000000
00000001
00000000
00001000
00000010
00000000
00010000
00001000
00000000
,
00010000
00001000
01000000
00010000
01000000
00000000
00001000
00010000
00000100
00001000
00000100
00000000
00010000
00001000
00010000
00000000
,
00000100
00000000
00000010
00000001
00000000
00000001
00000000
00001000
00000000
00000010
00000100
00000000
00000010
00010000
00001000
00000000
,
00011000
00000000
00010000
00001000
00010000
00000000
00100000
00000000
10000000
00000000
00010000
00100000
00000000
00001000
00010000
00000000
,
00011000
00000000
00001000
00010000
00001000
00000000
00000100
00000000
00000001
00000000
00001000
00000010
00000000
00010000
00001000
00000000
,
00010000
00001000
00010000
00001000
01000000
00010000
01000000
00010000
10000000
00100000
10000000
00100000
01000000
00000000
00000000
00000000
,
10010000
00020000
20030000
32000000
,
03200000
00000000
00000000
00000000
00000000
00000000
00301000
00010000
,
00000100
00000010
00000001
00001000
00000001
00000000
00000100
00000010
,
00001000
00000000
00000000
00001000
00000010
00000000
00000000
00000010
00010000
00000000
00001000
00000000
01000000
00000000
00010000
00000000
,
10000000
01000000
10000000
00000000
,
10000000
00000000
00000000
10000000
01000000
00000000
00010000
00000000
00001000
00000000
00000000
00001000
00000010
00000000
00000001
00000000
,
00001000
00000001
00000100
00000010
,
00010000
00000000
00000000
00000000
00000000
00000000
00001000
00010000
00001000
00000000
00000000
00010000
00000000
00000000
00001000
00000000
,
00021000
00000000
00000000
00000000
02030000
00000000
00000000
00000000
13000000
01000000
00100000
00010000
10000000
00010000
01000000
00100000
,
10000000
00000000
00100000
10000000
00010000
01000000
00001000
00010000
00001000
00000000
00010000
00000010
00000000
00000100
00000001
00000000
,
00001000
00000000
00000001
00000010
00000000
00000100
00001000
00000000
00000010
00000000
00001000
00000000
00000001
00000000
00000100
00000000
,
00000001
00000000
00000100
00000010
00000000
00001000
00000010
00000000
00010000
00001000
00000000
01000000
00010000
10000000
00010000
00000000
,
00100000
00000000
01000000
10000000
00000000
00000000
00010000
00000000
10000000
00000000
00200000
00000000
01000000
00000000
10300000
00000000
,
10100000
00000000
00000000
01010000
00000000
00000000
00011000
00000000
00010000
00000000
00001000
00010000
00001000
00000000
00010000
00000000
,
00011000
00000000
00000000
00001100
00000000
00000000
00000011
00000000
00000001
00000000
00000010
00000001
00000010
00000000
00000001
00000000
,
00001000
00001000
00000100
00000100
00010000
00010000
00001000
00001000
,
01000000
00000000
00010000
00000000
10000000
00000000
00100000
10000000
00000000
00010000
01000000
00000000
00010000
00000000
10000000
00010000
,
10000000
02000000
03010000
00011000
,
00000000
00012000
00003200
00000301
,
00000001
00000000
00000000
00000200
00000000
00000000
00001300
00000000
00010000
00000000
01000000
00000000
,
10000000
01000000
02000000
00000000
03010000
00000000
00022000
00033000
,
00010000
00000000
00001000
00000000
00000010
00000001
00000010
00000001
00001000
00000000
00000001
00001000
00000010
00000000
00010000
00000000
,
00001000
00010000
00001000
01000000
00010000
00000000
10000000
00000000
01000000
10000000
01000000
00100000
00010000
00000000
00001000
00000000
,
00010000
00001000
00010000
00000000
00000100
00000010
00000000
00000100
00000020
00001000
00000000
00001000
00000000
00001030
00000010
00000001
,
00001000
00000000
00000001
00001000
00000000
00000001
00000000
00001000
00000000
00000001
00002000
00000000
00000010
00000000
00003001
00000000
,
00002002
00000000
00000000
00000000
,
00003003
00000000
00000000
00000000
,
00000000
00000000
00000000
00000000
00000002
00000203
00000320
00002030
,
00003200
00000000
00020300
00000000
,
02030000
00000000
23000000
00000000
,
30200000
02300000
03020000
20030000
,
30020000
00000000
00230000
00302000
,
00023000
00000000
00030200
00000000
,
00002300
00000000
00003020
00000000
,
00002030
00000000
00000000
00000000
,
00000002
00000000
00000000
00003003
,
00001001
00000002
00000203
00002300
,
00023000
00230000
20300000
30020000
,
20030000
00000000
00000000
30000000
,
10010000
00020000
02030000
03200000
,
10300000
00000000
00100000
10000000
00010000
01000000
00001000
00010000
00000000
00000010
00000000
00001000
00000000
00000010
00000100
00000000
,
00000001
00000000
00000010
00000001
00001000
00000100
00010000
00001000
00000000
00100000
00010000
00000000
00100000
00000000
01000000
00000000
,
10000000
01000000
10000000
01000000
00100000
00010000
00100000
00001000
00010000
00001000
00000000
00010000
00000000
00001000
00010000
00000000
,
00000100
00001000
00000100
00001000
00000001
00000100
00000001
00000100
00000010
00000100
00000000
00001000
00000100
00000010
00000100
00000000
,
00000001
00000000
00000100
00000001
00001000
00000010
00010000
00001000
00000000
01000000
00000000
00010000
00000000
01000000
00100000
00000000
,
10000000
00000000
01000000
00100000
00000000
00001000
00000000
00010000
00000000
00000100
00000010
00000000
00000001
00000000
00001000
00000000
,
00000001
00000100
00000010
00000100
00000000
00001000
00010000
00000000
00000100
00010000
00001000
00010000
00000000
01000000
10000000
00000000
,
01000000
00000000
10000000
01000000
00100000
00000000
01000000
00010000
00001000
00010000
00001000
00010000
00001000
00000000
00010000
00000000
,
00011000
00000000
00001000
00010000
00001000
00000010
00000100
00000010
00000001
00000000
00000100
00000001
00000100
00001000
00010000
00000000
,
00011000
00000000
00010000
00001000
00010000
00100000
01000000
00100000
10000000
00000000
01000000
10000000
00000000
01000000
00100000
01000000
,
10000000
01000000
00100000
02000000
00010000
00000000
13000000
01000000
00100000
02000000
00010000
00000000
13000000
01000000
00100000
01000000
,
00020000
00032000
00003020
00000032
,
00001003
00000000
00001000
00000000
00000010
00000000
00000010
00000000
00010000
00000000
00010000
00000000
00001000
00010000
01000000
10000000
,
00010000
00000000
00010000
00000000
01000000
00000000
01000000
00000000
00001000
00000000
00001000
00000000
00010000
00001000
00000100
00000001
,
00001000
00000010
00001000
00000010
00000100
00000001
00000100
00000001
00001000
00000001
00000010
00000100
00000010
00000100
00001000
00000100
,
00010000
00001000
00010000
00001000
00010000
00001000
00010000
00001000
00010000
00001000
00010000
00001000
00010000
00000000
00001000
00000000
,
00011000
00000000
00010000
00001000
00000010
00000001
00001000
00000001
00000100
00000010
00010000
00001000
00000000
00010000
00001000
00000000
,
00011000
00000000
00001000
00010000
01000000
10000000
00010000
10000000
00100000
01000000
00001000
00010000
00000000
00001000
00010000
00000000
,
00001000
00000100
00001000
00010000
00001000
00000000
00010000
01000000
00010000
00001000
00010000
00000000
00001000
00000100
00001000
00010000
,
00001000
00010000
01000000
10000000
00000000
00010000
00000000
01000000
00000000
00010000
02000000
00000000
00010000
00000000
03001000
00000000
,
00010000
00001000
00010000
00001000
00000010
00000100
00000010
00000100
00001000
00000001
00001000
00000001
00000100
00000000
00001000
00000000
,
00010000
00001000
00010000
00001000
01000000
00100000
01000000
00100000
10000000
00010000
10000000
00010000
00100000
00000000
00010000
00000000
,
00001000
00010000
00001000
00000100
00000010
00000100
00001000
00000001
00001000
00000010
00000100
00000010
00001000
00000010
00001000
00000000
,
00010000
00001000
00010000
01000000
00100000
01000000
00010000
10000000
00010000
00100000
01000000
00100000
00010000
00100000
00010000
00000000
,
00200000
00000000
00302000
00000000
,
00013000
00001000
00010000
00001000
00010000
00001000
00010000
00001000
00010000
00001000
00010000
00001000
00010000
00000000
00000000
00000000
,
00022000
00000000
00000000
00000000
,
00000000
00000000
00000000
00000000
,
00033000
00000000
00000000
00000000
;
