#TITLE:カナデア;
#SUBTITLE:;
#ARTIST:佐藤美香;
#TITLETRANSLIT:Kanadea;
#SUBTITLETRANSLIT:;
#ARTISTTRANSLIT:Sato Mika;
#GENRE:;
#CREDIT:;
#BANNER:bn.png;
#BACKGROUND:bg.png;
#LYRICSPATH:;
#CDTITLE:;
#MUSIC:audio.ogg;
#OFFSET:-0.578000;
#SAMPLESTART:31.478001;
#SAMPLELENGTH:12.000000;
#SELECTABLE:YES;
#BPMS:0.000000=132.000000
;
#STOPS:
;
#BGCHANGES:;
#KEYSOUNDS:;
#ATTACKS:;

//---------------dance-single - Ama-tan----------------
#NOTES:
     dance-single:
     Ama-tan:
     Hard:
     16:
     0.777820,0.802911,0.652365,0.485092,0.794547,651.000000,573.000000,78.000000,58.000000,16.000000,0.000000,0.777820,0.802911,0.652365,0.485092,0.794547,651.000000,573.000000,78.000000,58.000000,16.000000,0.000000:
// measure 0
0000
0000
0000
0000
,  // measure 1
0000
0000
0000
0000
,  // measure 2
1000
0000
0100
0000
0010
0000
0002
0000
0000
0000
0103
0010
2000
0000
0000
0000
,  // measure 3
0000
0000
0000
0000
3000
0000
0100
0010
,  // measure 4
0011
0000
1001
0000
1010
0000
1000
0000
0010
0100
0001
0000
,  // measure 5
0101
0000
0000
1001
0000
0000
1100
0000
0000
0110
0000
0000
0001
0000
0100
0010
,  // measure 6
2000
0000
0000
0000
0000
0000
0000
0000
0000
3200
0000
0000
0010
0000
0000
0000
0000
0000
1300
0000
0000
0000
0000
0000
0001
0000
0000
0000
0000
0000
1000
0000
0010
0000
1000
0000
0010
0000
0000
0000
0000
0000
0200
0000
0000
0000
0000
0000
,  // measure 7
0000
0000
0301
0000
0101
0000
0100
0010
1000
0000
0100
0000
1100
0000
1000
0100
,  // measure 8
0010
0000
0000
0000
0000
0000
0001
0000
0000
0000
0000
0000
1000
0000
0000
0001
0000
0000
0100
0000
0000
0000
0000
0000
0110
0000
0000
0000
0000
0000
0000
0000
0110
0000
0000
0000
0000
0000
0000
0000
0110
0000
0000
0000
0000
0000
0000
0000
,  // measure 9
1001
0000
0000
1000
0100
0000
0000
0000
0010
0000
0000
0010
0000
0000
0001
0000
,  // measure 10
1000
0000
0010
0100
0010
0000
1000
0000
0001
0000
0000
0010
0100
0000
0000
0000
,  // measure 11
1000
0000
0010
0100
0001
0000
0010
0000
1000
0000
0010
0100
0001
0000
0100
0000
,  // measure 12
0000
0000
1000
0010
1000
0000
0001
0010
0100
0000
1000
0000
0010
0000
0100
0000
,  // measure 13
0101
0000
0000
0001
0100
0000
0000
0000
0010
0000
0000
1000
0000
0000
0001
0000
,  // measure 14
0000
0000
0010
0100
0010
0000
0001
0000
1000
0000
0000
0010
0100
0000
0001
0000
,  // measure 15
1000
0000
0100
0010
0001
0000
0100
0000
1000
0000
0100
0010
0001
0000
0010
0000
,  // measure 16
1000
0000
0001
1000
0001
0000
0010
0000
0100
1000
0000
0110
0000
0001
1000
0000
,  // measure 17
0201
0000
0000
0320
0000
0000
2030
0000
3100
0010
0100
0000
1000
0001
1000
0000
,  // measure 18
0010
0000
0100
0001
1000
0000
0000
0000
1001
0000
1000
0001
0010
0100
1000
0000
,  // measure 19
1100
0000
0000
0000
0000
0000
00M0
0000
0000
0100
0000
0000
0001
0000
0000
0000
0000
0000
0010
0000
0000
0000
0000
0000
1100
0000
0000
0000
0000
0000
00M0
0000
0000
0100
0000
0000
0001
0000
0000
0000
0010
0000
0000
0000
0100
0000
0000
0000
,  // measure 20
1100
0000
00M0
0100
0001
0000
0010
0000
1100
0000
0000
1001
0000
0000
0001
0000
,  // measure 21
0101
0000
00M0
0100
1000
0000
0010
0000
0101
0000
00M0
0100
1000
0000
0001
0000
,  // measure 22
0101
0000
00M0
0100
1000
0000
0010
0000
1001
0000
1000
0010
0000
1000
0001
1000
,  // measure 23
0100
0000
00M0
0100
0001
0000
0010
0000
1100
0000
00M0
0100
0001
0000
1000
0000
,  // measure 24
1100
0000
1000
0001
0100
0000
0201
0000
0000
0000
0310
0000
1000
0100
0010
0000
,  // measure 25
0011
0000
0M00
0010
1000
0000
0100
0000
0011
0000
0M00
0010
1000
0000
0001
0000
,  // measure 26
0012
0000
0000
1000
0000
0000
0103
0000
0010
0000
1000
0000
0100
0010
0100
0000
,  // measure 27
1200
0000
0000
0320
0000
0000
0032
0000
0103
0010
0100
0000
0001
1000
0001
0000
,  // measure 28
0010
0000
0100
1000
0001
0000
0000
0000
1001
0000
0001
1000
0010
0100
0001
0000
,  // measure 29
0101
0000
0000
0000
0000
0000
00M0
0000
0000
0100
0000
0000
1000
0000
0000
0000
0000
0000
0010
0000
0000
0000
0000
0000
0101
0000
0000
0000
0000
0000
00M0
0000
0000
0100
0000
0000
1000
0000
0000
0000
0010
0000
0000
0000
0100
0000
0000
0000
,  // measure 30
0101
0000
00M0
0100
1000
0000
0010
0000
1000
0001
0010
0100
0000
0010
0001
0000
,  // measure 31
0011
0000
0M00
0010
1000
0000
0100
0000
0011
0000
0M00
0010
1000
0000
0001
0000
,  // measure 32
0011
0000
0000
0000
0000
0000
0001
0000
1000
0000
0001
0000
1000
0000
0000
0000
0000
0000
1010
0000
0000
0000
0000
0000
0000
0000
0000
0000
0000
0000
1000
0000
0000
0000
0000
0000
0100
0000
0000
0010
0000
0000
0001
0000
0000
1000
0000
0000
,  // measure 33
0010
0000
0M00
0010
0001
0000
0100
0000
1010
0000
1000
0000
0001
0010
0100
0000
,  // measure 34
2100
0000
0000
0001
0000
0000
3020
0000
0230
0300
0000
0002
0003
0000
0020
0000
,  // measure 35
0230
0000
0000
1000
0000
0000
0001
0000
0320
0030
0000
0002
0003
0000
0200
0000
,  // measure 36
0310
1000
0010
1000
0100
0010
0100
0010
0001
0100
0001
0100
0010
0000
1000
0001
,  // measure 37
0200
0000
0000
0000
0001
0000
1000
0300
0200
0000
0000
0000
1000
0000
0001
0300
0100
0000
0001
0000
1000
0000
0001
0000
0200
0000
0000
0000
0001
0000
1000
0300
,  // measure 38
0100
0010
0001
0000
0011
0000
0001
1000
0001
0000
0000
0100
0010
0000
0100
0000
,  // measure 39
0001
0000
0000
0000
1000
0000
0020
0000
1000
0000
0000
0000
1000
0000
0001
0030
0010
0000
0001
0000
1000
0000
0001
0000
0020
0000
0000
0000
0001
0000
1000
0030
,  // measure 40
0010
0000
0000
0000
0000
0000
0200
0000
0000
0300
0000
0000
0001
0000
0000
0000
0000
0000
0010
0000
0001
0000
0010
0000
0001
0000
0000
1000
0000
0000
0010
0000
0000
0100
0000
0000
0010
0000
0000
1000
0000
0000
0002
0000
0000
0003
0000
0000
,  // measure 41
0020
0000
0000
0000
0001
0000
1000
0030
0020
0000
0000
0000
1000
0000
0001
0030
0020
0000
0000
0000
0001
0000
1000
0030
0020
0000
0000
0000
1000
0000
0001
0030
,  // measure 42
0010
0100
1000
0000
1100
0000
0000
0000
0002
0000
0000
0000
0103
0000
0010
1000
,  // measure 43
0001
0000
0000
0000
1000
0000
0200
0000
1000
0000
0000
0000
0010
0000
0001
0300
0100
0000
0010
0000
1000
0000
0010
0000
0200
0000
0000
0000
0001
0000
1000
0300
,  // measure 44
0100
0000
0010
0000
0011
0000
0001
0100
0010
1000
0010
0100
0001
0010
0100
0010
,  // measure 45
0002
0000
0000
0000
1000
0000
0100
0003
0002
0000
0000
0000
0100
0000
0010
0003
0002
0000
0000
0000
0100
0000
0010
0003
0002
0000
0000
0000
0010
0000
1000
0003
,  // measure 46
0001
0010
0100
1000
0001
0000
0000
0000
0110
0000
0000
1000
0010
0000
0100
0001
,  // measure 47
2000
0000
0000
0000
0100
0000
0010
3000
2000
0000
0000
0000
0010
0000
0100
3000
2000
0000
0000
0000
0010
0000
0100
3000
2000
0000
0000
0000
0100
0000
0001
3000
,  // measure 48
1000
0000
0000
0100
0000
0000
0010
0000
0000
0001
0000
0000
1000
0000
0000
0000
0000
0000
0001
0000
1000
0000
0001
0000
1000
0000
0000
0100
0000
0000
0010
0000
0000
0001
0000
0000
0100
0000
0000
0010
0000
0000
1000
0000
0000
0000
0000
0000
,  // measure 49
1010
1010
0000
1200
0000
0310
1001
0000
,  // measure 50
0011
0000
0011
0000
0000
0000
0201
0000
0000
0000
0310
1000
0001
0000
1200
0000
,  // measure 51
0000
0000
0000
0000
0010
0000
0001
0300
0200
0000
0000
0000
0010
0000
1000
0300
0200
0000
0000
0000
0010
0000
0001
0300
0200
0000
0000
0000
0010
0000
1000
0300
,  // measure 52
0100
0010
0001
1000
0001
0100
0010
0000
1010
0000
1001
0000
0011
0000
0000
0000
,  // measure 53
1100
0100
0010
0011
0000
0000
0101
0001
,  // measure 54
1000
0000
0000
0000
0000
0000
1010
0000
0000
0000
0000
0000
0000
0000
0000
0000
0000
0000
0001
0000
0000
0000
0000
0000
0011
0000
0000
0000
0000
0000
0001
0000
1000
0000
0100
0000
0010
0000
0000
0000
0000
0000
0001
0000
0000
1000
0000
0000
,  // measure 55
0002
0000
0000
0000
0000
0000
0000
0000
0000
0103
0000
0000
0010
0000
0000
0000
0000
0000
2000
0000
0000
0000
0000
0000
0000
0000
0000
0000
0000
0000
3100
0000
0000
0010
0000
0000
0001
0000
0000
0000
0100
0000
0000
0000
0010
0000
0000
0000
,  // measure 56
1000
0000
1000
0000
0100
0000
0010
0000
0010
0000
0001
0000
1001
0000
0000
0000
0000
0000
0001
0000
0000
1000
0000
0000
,  // measure 57
1010
0000
1001
0000
0011
0000
0001
0000
0010
0100
1000
0000
,  // measure 58
1100
0000
0000
1001
0000
0000
0101
0000
0000
0110
0000
0000
1000
0000
0100
0010
,  // measure 59
0002
0000
0000
0000
0000
0000
0000
0000
0000
0203
0000
0000
0010
0000
0000
0000
0000
0000
0301
0000
0000
0000
0000
0000
1000
0000
0000
0000
0000
0000
0001
0000
0010
0000
0001
0000
0010
0000
0000
0000
0000
0000
0200
0000
0000
0000
0000
0000
,  // measure 60
0000
0000
1300
0000
1100
0000
0100
0010
0001
1000
0001
0000
0101
0000
0100
0010
,  // measure 61
1000
0001
1000
0000
0001
0010
0100
0000
1000
0001
1000
0000
0001
0000
1002
0000
,  // measure 62
0000
0000
0013
0000
0011
0000
0010
0100
1000
0001
1000
0000
1010
0000
0010
0100
,  // measure 63
0001
0000
0000
1000
0000
0000
0001
0000
0000
0010
0000
0000
0100
0000
0000
1000
0000
0000
0001
0000
0000
0100
0000
0000
0001
0000
0000
0000
0000
0000
0000
0000
1001
0000
0000
0000
0000
0000
0000
0000
2200
0000
0000
0000
0000
0000
0000
0000
,  // measure 64
3300
0000
0000
0000
;

//---------------dance-single - ----------------
#NOTES:
     dance-single:
     :
     Medium:
     13:
     0.587845,0.613962,0.485092,0.769456,0.372182,492.000000,434.000000,58.000000,92.000000,0.000000,0.000000,0.587845,0.613962,0.485092,0.769456,0.372182,492.000000,434.000000,58.000000,92.000000,0.000000,0.000000:
0000
0000
0000
0000
,
0000
0000
0000
0000
,
1000
0000
0100
0000
0010
0000
0002
0000
0000
0000
0103
0010
2000
0000
0000
0000
,
0000
0000
0000
0000
3000
0000
0100
0010
,
0002
0000
0010
0000
0010
0000
2003
0000
3010
0100
0001
0000
,
2001
0000
0000
0010
0000
0000
0010
0000
0000
3002
0000
0000
0013
0000
0100
1000
,
0002
0000
0000
0203
0010
0000
0301
0000
1000
0000
0100
0000
0010
0000
0002
0000
,
0000
0000
1003
0000
1000
0000
0010
0100
0010
0000
1000
0000
1000
0000
0100
0010
,
0100
0000
0000
0000
0000
0000
1000
0000
0000
0000
0000
0000
0001
0000
0000
1000
0000
0000
0001
0000
0000
0000
0000
0000
0110
0000
0000
0000
0000
0000
0000
0000
0110
0000
0000
0000
0000
0000
0000
0000
0110
0000
0000
0000
0000
0000
0000
0000
,
1001
0000
0000
1000
0100
0000
0000
0000
0010
0000
0000
0010
0000
0000
0001
0000
,
1000
0000
0010
0000
0100
0000
0000
0000
0001
0000
0000
0010
0100
0000
0000
0000
,
1000
0100
0001
0000
0000
0100
0010
0001
,
0000
0000
1000
0010
1000
0000
0001
0010
0100
0000
1000
0000
0010
0000
0100
0000
,
0101
0000
0000
0001
0100
0000
0000
0000
0010
0000
0000
0010
0000
0000
1000
0000
,
0001
0000
0010
0000
0100
0000
0000
0000
1000
0000
0000
0010
0100
0000
0001
0000
,
1000
0100
0010
1000
0000
0010
0001
0100
,
0010
0000
1000
0001
1000
0000
0100
0000
0010
0001
0000
0001
0000
0000
1000
0000
,
2100
0000
0000
0001
0000
0000
3020
0000
0230
0000
0000
0000
0302
0000
0000
0000
,
0013
0000
0100
1000
0002
0000
0003
0000
1000
0000
0010
0000
0100
0000
0001
0000
,
2001
0000
0000
0001
0000
0000
3100
0000
0120
0000
0000
0001
0000
0000
0130
0000
,
2100
0000
0000
0001
0000
0000
3100
0000
0210
0000
0000
1000
0000
0000
0310
0000
,
1002
0000
0000
1000
0000
0000
0103
0000
0120
0000
0000
1000
0000
0000
0130
0000
,
0102
0000
0000
1000
0000
0000
0103
0000
0210
0000
0000
0001
0000
0000
0310
0000
,
1020
0000
0000
1000
0000
0000
0130
0000
1001
0000
0000
0000
0110
0000
0000
0000
,
1001
0000
0001
0010
0100
0000
2100
0000
0000
0000
3001
0000
0100
0010
0100
0000
,
1002
0000
0000
1000
0000
0000
0103
0000
2001
0000
0000
3200
0000
0000
0320
0000
,
0031
0000
0000
0001
0000
0000
0100
0000
0020
0000
1030
0000
0001
1000
0001
0000
,
0102
0000
0000
1000
0000
0000
0023
0000
0230
0000
0000
0000
2300
0000
0000
0000
,
3010
0000
0100
0001
2000
0000
3000
0000
0001
0000
0010
0000
0100
0000
1000
0000
,
1002
0000
0000
1000
0000
0000
0103
0000
0120
0000
0000
1000
0000
0000
0130
0000
,
0102
0000
0000
1000
0000
0000
0103
0000
1000
0000
0100
0010
0000
0010
0100
0000
,
2001
0000
0000
0001
0000
0000
3100
0000
0120
0000
0000
0001
0000
0000
0130
0000
,
1000
0000
0001
0100
0010
0000
2002
0000
3003
0000
1000
0000
0100
0000
0010
0000
,
0021
0000
0000
0001
0000
0000
0130
0000
2001
0000
0000
3100
0000
0000
0010
0000
,
2001
0000
0000
3010
0000
0000
0100
0000
1002
0000
0000
0013
0000
0000
0100
0000
,
1002
0000
0000
0103
0000
0000
0010
0000
2001
0000
0000
3010
0000
0000
0100
0000
,
1002
0023
0230
0000
,
2300
0000
0001
0000
0100
0000
0000
0000
0100
0000
0001
0000
3100
0000
0001
1000
,
0001
0000
0100
0000
0010
0000
1000
0000
0001
0000
0010
0000
0100
0000
1000
0001
,
0100
0000
0001
2000
0100
0000
0000
0000
0100
0000
0001
0000
0100
0000
0000
0000
,
3100
0000
0020
0030
0100
0000
0020
0030
0001
0000
2000
3000
0002
0000
0203
0000
,
0302
0000
1000
0000
0100
0000
0000
0000
0100
0000
1000
0000
0103
0000
1000
0001
,
1000
0000
0010
0000
0100
0000
0001
0000
1000
0000
0100
0000
0010
0000
0001
1000
,
0100
0000
1000
0002
0100
0000
0000
0000
0100
0000
1000
0000
0103
0000
1000
0001
,
1000
0100
0110
0000
1001
0000
0110
0000
,
1002
0100
2003
0000
3002
0100
2003
0000
,
3200
0010
2300
0010
3200
0010
2300
3001
,
2001
0100
3002
0000
2003
0100
3002
0000
,
0203
0000
0010
0000
0302
0000
0010
0000
0203
0000
0010
0000
0301
1000
0001
0000
,
0010
0010
0000
1200
0000
0310
1001
0000
,
0010
0010
0000
0201
0000
0310
2001
3200
,
0000
0010
2300
0010
3200
0010
2300
0010
,
3100
0010
0000
0100
0010
0000
0001
0000
1001
0000
1001
0000
1001
0000
0000
0000
,
0101
0100
0010
1010
0000
0000
1100
1000
,
0001
0000
0011
0000
0000
0000
1000
0000
1010
0000
0010
0100
0002
0000
0000
0000
,
1003
0000
0100
0000
0010
0000
0002
0000
0000
0000
0103
0010
2000
0000
0000
0000
,
3001
0000
1000
0000
0001
0000
1000
0000
0001
0000
1000
0000
0100
0000
0000
0000
0000
0000
0010
0000
0000
0100
0000
0000
,
2000
0000
0010
0000
0010
0000
3002
0000
0013
0100
1000
0000
,
1002
0000
0000
0010
0000
0000
0010
0000
0000
2003
0000
0000
3010
0000
0100
0001
,
2000
0000
0000
3200
0010
0000
1300
0000
0001
0000
0100
0000
0010
0000
2000
0000
,
0000
0000
3001
0000
0001
0000
0010
0100
0010
0000
0001
0000
0001
0000
0100
0010
,
0100
0001
0001
1000
0100
0100
0100
1002
,
0000
0000
1003
0000
1000
0000
0100
0010
0100
0000
1000
0000
1000
0000
0010
0100
,
0010
0000
0000
0000
0000
0000
1000
0000
0000
0001
0000
0000
1000
0000
0000
0000
0000
0000
0100
0000
0000
0000
0000
0000
0110
0000
0000
0000
0000
0000
0000
0000
0110
0000
0000
0000
0000
0000
0000
0000
0110
0000
0000
0000
0000
0000
0000
0000
;
