#TITLE:神の数式;
#SUBTITLE:;
#ARTIST:亜咲花;
#TITLETRANSLIT:Kami no Suushiki;
#SUBTITLETRANSLIT:;
#ARTISTTRANSLIT:Asaka;
#GENRE:;
#CREDIT:nobarben;
#BANNER:Kami no Suushiki.png;
#BACKGROUND:Kami no Suushiki-bg.png;
#LYRICSPATH:;
#CDTITLE:;
#MUSIC:Kami no Suushiki.ogg;
#OFFSET:0.386000;
#SAMPLESTART:52.917023;
#SAMPLELENGTH:14.366196;
#SELECTABLE:YES;
#DISPLAYBPM:142.000000;
#BPMS:0.000000=141.992004
,120.000000=212.988007
,123.500000=141.992004
;
#STOPS:120.000000=0.141000,
121.000000=0.071000,
121.500000=0.070000,
122.000000=0.071000,
122.500000=0.070000,
123.000000=0.070000
;
#BGCHANGES:;
#KEYSOUNDS:;
#ATTACKS:;

//---------------dance-single - ----------------
#NOTES:
     dance-single:
     :
     Hard:
     12:
     0.504680,0.578443,0.202397,0.570393,0.243797,384.000000,362.000000,22.000000,62.000000,0.000000,0.000000,0.504680,0.578443,0.202397,0.570393,0.243797,384.000000,362.000000,22.000000,62.000000,0.000000,0.000000:
// measure 0
0000
0000
0000
0000
,  // measure 1
0000
0000
0000
0000
,  // measure 2
0000
0000
0000
0000
,  // measure 3
0000
0000
0000
0000
,  // measure 4
0000
0000
0000
0000
,  // measure 5
0001
0000
1000
0010
0100
0010
0000
0010
,  // measure 6
1000
0000
0001
0010
0100
0000
0010
0000
,  // measure 7
0001
0000
1000
0100
0010
0100
0000
0100
,  // measure 8
2000
0000
0000
3000
,  // measure 9
1002
0000
0013
0001
0200
0000
1300
0000
,  // measure 10
0100
0000
0000
0001
0000
0000
0010
0000
0200
0000
0000
0000
0300
0000
0000
0000
,  // measure 11
2000
0000
0000
0000
3100
0000
0001
0000
0100
0000
0000
1000
0000
0000
0001
0000
,  // measure 12
0020
0000
0000
0031
0100
0010
1000
0000
,  // measure 13
2001
0000
3010
1000
0200
0000
0301
0000
,  // measure 14
0100
0000
0000
1000
0000
0000
0010
0000
0200
0000
0000
0000
0300
0000
0000
0000
,  // measure 15
0002
0000
0103
1000
0200
0000
0301
0000
,  // measure 16
1000
0000
0000
0001
0000
0000
0010
0000
0200
0000
0320
0000
0032
0000
0003
0000
,  // measure 17
1000
0000
0000
1000
0000
0000
1000
0000
0010
0000
0100
0000
0001
0000
0000
0000
,  // measure 18
0020
0000
0031
0100
2000
0000
3100
0001
,  // measure 19
0020
0000
1030
0010
0001
1000
0200
0000
,  // measure 20
0310
0000
0001
0100
0020
0000
0031
0010
,  // measure 21
0200
0000
0000
0301
0010
0100
2000
0000
,  // measure 22
3020
0000
1030
0100
0002
0000
0103
1000
,  // measure 23
0020
0000
0031
0010
1000
0001
0200
0000
,  // measure 24
0310
2000
3200
0302
,  // measure 25
0203
0000
0000
1300
0010
0100
0001
0000
,  // measure 26
0012
0000
1000
0000
0203
0000
0301
1000
,  // measure 27
2010
0000
0000
0000
0001
0000
0000
0000
3200
0000
0000
0000
1300
0000
0001
0010
,  // measure 28
0100
0000
0100
0000
1000
0000
1000
0000
0001
0000
0000
0010
0000
0000
0010
0000
,  // measure 29
0001
0000
1000
0000
0010
0100
0010
0000
1000
0000
0001
0000
0010
0100
0010
0000
,  // measure 30
0002
0003
0000
0000
0000
0000
0000
0000
0000
0000
0000
0000
0000
0000
0000
0000
1000
0000
0000
0000
0000
0000
0000
0000
1000
0000
0000
0000
0000
0000
0000
0000
0001
0000
0000
0000
0000
0000
0000
0000
0001
0000
0000
0000
0000
0000
0000
0000
1000
0000
0000
0000
0000
0000
0000
0000
0020
0000
0000
0000
0000
0000
0000
0000
,  // measure 31
0000
0000
0200
0000
0000
0000
0330
0000
0001
1000
0000
0001
0010
0000
0100
0000
,  // measure 32
1000
0100
0000
1000
0100
0000
0010
0000
0001
0100
0000
0001
0100
0000
0010
0000
,  // measure 33
1000
0101
0011
1010
,  // measure 34
0001
0100
0000
0001
0100
0000
0010
0000
1000
0100
0000
1000
0100
0000
0010
0000
,  // measure 35
0001
1100
1010
0011
,  // measure 36
1000
0000
0001
0100
1000
0100
0000
0002
,  // measure 37
0000
0013
0100
0010
1000
0010
0002
0000
,  // measure 38
1003
0100
0002
0000
0103
1000
0020
0000
,  // measure 39
0130
0001
0000
0010
0100
0000
1000
0001
2000
0000
0000
0000
3100
0000
0000
0000
,  // measure 40
1000
0010
0000
0100
0010
0000
1000
0000
0001
0010
0000
0100
0010
0000
0001
0000
,  // measure 41
1000
0101
0011
1010
,  // measure 42
0001
0010
0000
0100
0010
0000
0001
0000
1000
0010
0000
0100
0010
0000
1000
0000
,  // measure 43
0001
1100
1010
0011
,  // measure 44
1000
0000
0001
0100
1000
0100
0001
1000
,  // measure 45
0100
0000
0100
0010
0001
0000
1000
0001
,  // measure 46
0010
0000
0000
0100
0010
0000
0001
0000
0100
0000
0000
0001
1000
0000
0010
0000
,  // measure 47
0100
0000
0000
0010
1000
0000
0200
0000
0320
0000
0230
0000
2300
0000
3020
0000
,  // measure 48
0130
0000
0001
0000
0010
0100
0010
0000
0001
0000
1000
0000
0010
0100
0010
0000
,  // measure 49
1000
0000
0000
0000
,  // measure 50
0000
0000
0000
0000
0000
0000
0000
0000
1000
0100
0000
0010
0001
0000
0100
0000
,  // measure 51
0001
0100
0000
0001
0010
0000
0100
0000
1000
0100
0000
1000
0010
0000
0100
0000
,  // measure 52
1000
0101
0011
1010
,  // measure 53
1000
0100
0000
1000
0010
0000
0100
0000
0001
0100
0000
0001
0010
0000
0100
0000
,  // measure 54
0001
1100
1010
0011
,  // measure 55
0001
0000
0010
0000
0100
0000
0010
0001
2000
0000
0000
0000
3020
0000
0000
0000
,  // measure 56
1030
0100
0000
0100
0010
0000
0001
0000
2000
0000
0000
0000
3100
0000
0000
0000
,  // measure 57
1000
0000
0010
0000
0100
0000
0010
1000
0002
0000
0000
0000
0023
0000
0000
0000
,  // measure 58
0031
0100
0000
0100
0010
0000
1000
0000
0001
1000
0001
1000
0002
0000
0000
0000
,  // measure 59
1003
1000
0010
0100
0002
0100
0003
0100
,  // measure 60
0001
0001
0010
2000
3020
0032
1003
0000
,  // measure 61
0001
0001
0100
0010
2000
0000
3000
0010
,  // measure 62
1000
1000
0200
0302
0203
2300
3002
0003
;

//---------------dance-double - ----------------
#NOTES:
     dance-double:
     :
     Hard:
     12:
     0.463937,0.548428,0.101199,0.441595,0.216197,353.000000,342.000000,11.000000,48.000000,0.000000,0.000000,0.463937,0.548428,0.101199,0.441595,0.216197,353.000000,342.000000,11.000000,48.000000,0.000000,0.000000:
00000000
00000000
00000000
00000000
,
00000000
00000000
00000000
00000000
,
00000000
00000000
00000000
00000000
,
00000000
00000000
00000000
00000000
,
00000000
00000000
00000000
00000000
,
00020000
00000000
00031000
00000010
00001000
00010000
00000000
00001000
,
00010000
00000000
00001000
00010000
00100000
10000000
00010000
00000000
,
10000000
00000000
01000000
00010000
00001000
00010000
00000000
00010000
,
00000200
00000000
00000000
00000300
,
00001200
00000000
00000310
00000001
00000200
00000000
00001300
00000000
,
00000100
00000000
00000000
00000001
00000000
00000000
00000010
00000000
00000200
00000000
00000000
00000000
00000000
00000000
00000000
00000000
,
00000320
00000000
00000000
00000000
00001030
00000000
00000010
00000000
00000001
00000000
00000000
00001000
00000000
00000000
00000001
00000000
,
00000200
00000000
00000000
00001300
00010000
00100000
10000000
00000000
,
02010000
00000000
03100000
10000000
02000000
00000000
03010000
00000000
,
01000000
00000000
00000000
10000000
00000000
00000000
00100000
00000000
02000000
00000000
00000000
00000000
00000000
00000000
00000000
00000000
,
03200000
00000000
00310000
00100000
20000000
00000000
30010000
00000000
,
00100000
00000000
00000000
01000000
00000000
00000000
00010000
00000000
00001000
00000000
00000010
00000000
00000001
00000000
00000000
00000000
,
00001000
00000000
00000000
00001000
00000000
00000000
00000001
00000000
00000100
00000000
00001000
00000000
00010000
00000000
00000000
00000000
,
00002000
00000000
00013000
01000000
20000000
00000000
30100000
00010000
,
00002000
00000000
00003100
00000001
00000010
00001000
00020000
00000000
,
02030000
00000000
03010000
01000000
20000000
00000000
30010000
10000000
,
02000000
00000000
00000000
03010000
00001000
00000010
00000200
00000000
,
00020300
00000000
00031000
00000100
00000002
00000000
00000013
00001000
,
00020000
00000000
01030000
10000000
00100000
00010000
00002000
00000000
,
00003200
00001000
00000010
00000302
,
00000023
00000000
00000000
00001030
00010000
01000000
10000000
00000000
,
10020000
00000000
00100000
00000000
02030000
00000000
03100000
00010000
,
00021000
00000000
00000000
00000000
00000010
00000000
00000000
00000000
00030200
00000000
00000000
00000000
00000310
00000000
00000001
00001000
,
00000001
00000000
00000001
00000000
00000100
00000000
00000100
00000000
00000010
00000000
00000000
00001000
00000000
00000000
00000100
00000000
,
00000010
00000000
00000100
00000000
00010000
00001000
00010000
00000000
01000000
00000000
00100000
00000000
00001000
00010000
00001000
00000000
,
00011000
00000000
00001000
00001000
00010000
00010000
00001000
00020000
,
00000000
00002000
00000000
00033000
00000000
00000000
00010000
00000100
,
00000010
00000100
00000000
00001000
00000100
00000000
00010000
00000000
00001000
01000000
00000000
00010000
01000000
00000000
00100000
00000000
,
20000000
00010000
00100000
31000000
,
01000000
00100000
00000000
00010000
00100000
00000000
00001000
00000000
00010000
00000010
00000000
00001000
00000010
00000000
00000100
00000000
,
00000002
00001000
00000010
00000103
,
00000001
00000000
00000100
00001000
00010000
00001000
00000000
00000020
,
00000000
00001030
00010000
00001000
01000000
00100000
20000000
00000000
,
31000000
00010000
00002000
00000000
00003100
00001000
00020000
00000000
,
00031000
00010000
00000000
00001000
00010000
00000000
00001000
00010000
00000200
00000000
00000000
00000000
00000310
00000000
00000000
00000000
,
00000001
00000100
00000000
00000001
00001000
00000000
00000100
00000000
00010000
00001000
00000000
01000000
00010000
00000000
10000000
00000000
,
00200000
00010000
01000000
10300000
,
10000000
01000000
00000000
10000000
00010000
00000000
01000000
00000000
00001000
00010000
00000000
00000100
00001000
00000000
00000001
00000000
,
00000020
00001000
00000100
00000031
,
00001000
00000000
00000001
00000100
00001000
00010000
00100000
10000000
,
00000000
00000000
00010000
10000000
01000000
00000000
00100000
00010000
,
10000000
00000000
00000000
00100000
00000000
00000000
00010000
00000000
00100000
00000000
00000000
01000000
00000000
00000000
00001000
00000000
,
00010000
00000000
00000000
00000100
00000000
00000000
00000010
00000000
00000001
00000000
00000010
00000000
00000100
00000000
00001000
00000000
,
00000001
00000000
00000100
00000000
00001000
00010000
00001000
00000000
00010000
00000000
01000000
00000000
10000000
00010000
10000000
00000000
,
00010000
00000000
00000000
00000000
,
00000000
00000000
00000000
00000000
,
10000000
01000000
00000000
00100000
00010000
00000000
01000000
00000000
00001000
00010000
00000000
00000100
00000010
00000000
00000001
00000000
,
00001000
00000011
00001010
00001100
,
00000001
00000100
00000000
00000010
00001000
00000000
00000100
00000000
00010000
00001000
00000000
01000000
00100000
00000000
10000000
00000000
,
00010000
10100000
00110000
01010000
,
10000000
00000000
01000000
00000000
00100000
00000000
00001000
00010000
00002000
00000000
00000000
00000000
00003200
00000000
00000000
00000000
,
00000301
00000000
00000000
00000001
00000000
00000000
00001000
00000000
00000020
00000000
00000000
00000000
00000130
00000000
00000000
00000000
,
00000001
00000000
00000010
00000000
00000100
00000000
00010000
00001000
00020000
00000000
00000000
00000000
02030000
00000000
00000000
00000000
,
13000000
00000000
00000000
10000000
00000000
00000000
00010000
00000000
01000000
00100000
01000000
00100000
02000000
00000000
00000000
00000000
,
03100000
00000000
10000000
01000000
00010000
00000000
00001000
00000000
,
00010000
00000000
01000000
00010000
00001000
00000010
00000001
00000000
,
00000010
00000000
00000001
00000100
00001000
00000000
00010000
00000000
,
00001000
00000000
00000100
00001000
00010000
00100000
10000000
00000000
;

//---------------dance-single - ----------------
#NOTES:
     dance-single:
     :
     Medium:
     10:
     0.362738,0.432970,0.055199,0.478394,0.068999,276.000000,270.000000,6.000000,52.000000,0.000000,0.000000,0.362738,0.432970,0.055199,0.478394,0.068999,276.000000,270.000000,6.000000,52.000000,0.000000,0.000000:
0000
0000
0000
0000
,
0000
0000
0000
0000
,
0000
0000
0000
0000
,
0000
0000
0000
0000
,
0000
0000
0000
0000
,
0001
0000
0000
0100
0010
0000
0000
0000
,
1000
0100
0110
0000
,
1000
0000
0000
0010
0100
0000
0000
0000
,
2002
0000
0000
3003
,
0001
0000
1000
0001
0100
0000
0001
0000
,
0010
0010
0100
0000
,
1000
0000
0001
1000
0010
0000
0100
0000
,
0002
0000
0000
0000
0013
0100
1000
0000
,
0010
0000
0100
0001
1000
0000
0001
0000
,
0010
0100
1100
0000
,
1000
0000
0001
0100
0010
0000
0100
0000
,
0001
1000
1001
0000
,
0220
0000
0330
1001
,
0002
0000
0103
0001
2000
0000
3100
1000
,
0002
0000
0013
0000
0001
1000
0002
0000
,
0103
0000
0010
1000
0010
0000
1000
0001
,
2000
0000
0000
3001
0010
0100
1000
0000
,
0002
0000
0103
0001
2000
0000
3100
1000
,
0002
0000
0013
0000
0001
1000
0020
0000
,
0130
0020
2030
3002
,
0023
0000
0000
0031
1000
0010
0100
0000
,
0002
0000
0013
0000
0020
0000
0130
0100
,
2000
3010
0020
0130
,
0001
1000
0001
0000
0010
0100
0010
0000
,
0001
0100
0010
1000
0001
0100
0010
1000
,
0001
0000
1000
0001
1000
0001
2000
0002
,
0000
0000
0000
0000
3003
0000
1000
0100
,
0010
0000
0000
0010
0000
0000
0010
0000
0001
0000
0000
0001
0000
0000
0001
0000
,
1000
0002
0203
0320
,
1030
0000
0000
1000
0000
0000
1000
0000
0001
0000
0000
0001
0000
0000
0001
0000
,
0010
0200
2300
3002
,
0103
0000
0010
1000
0001
1000
0000
0010
,
0000
0100
0001
0100
0001
1000
0100
0000
,
0010
0002
2003
3020
,
0130
0000
0000
0100
0000
0000
0100
0000
0002
0000
0000
0000
1003
0000
0000
0000
,
0001
0000
0000
0100
0000
0000
0001
0000
1000
0000
0000
0100
0000
0000
1000
0000
,
0100
0020
0230
2300
,
3010
0000
0000
1000
0000
0000
0010
0000
0100
0000
0000
0001
0000
0000
0100
0000
,
0001
0020
0230
2300
,
3000
0000
0001
0100
0010
0100
0001
1000
,
0000
0000
0001
0010
0100
0000
1000
0100
,
0000
0010
0002
0000
0000
0000
0000
0000
,
0000
0000
0003
0100
0001
0100
0010
1000
,
0001
0000
1000
0100
0010
0100
1000
0001
,
0000
0000
0001
1000
0010
0000
0100
0002
,
0000
2000
0000
0000
0000
0000
3003
0000
,
0001
0000
0000
0100
0000
0000
0010
0000
1000
0000
0000
0001
0000
0000
1000
0000
,
0100
0020
0032
2003
,
3010
0000
0000
0100
0000
0000
0001
0000
1000
0000
0000
0100
0000
0000
0010
0000
,
0100
2000
3020
0230
,
0301
0000
1000
0100
0010
0000
0001
0000
,
1000
0000
0000
1000
0000
0000
0001
0000
0200
0000
0000
0000
0310
0000
0000
0000
,
1000
0000
0001
0010
0200
0000
1300
0000
,
0001
0000
0000
0001
0000
0000
0100
0000
0020
0000
0000
0000
0000
0000
0000
0000
,
1030
0000
0000
0001
0100
0001
0000
0000
,
1000
0000
0100
0010
0001
1000
0001
0000
,
1000
0000
0000
0010
0100
0010
0000
0000
,
1000
0000
0001
0100
1000
0100
0001
0000
;

//---------------dance-single - ----------------
#NOTES:
     dance-single:
     :
     Easy:
     6:
     0.258911,0.317511,0.128798,0.174798,0.000000,197.000000,183.000000,14.000000,19.000000,0.000000,0.000000,0.258911,0.317511,0.128798,0.174798,0.000000,197.000000,183.000000,14.000000,19.000000,0.000000,0.000000:
0000
0000
0000
0000
,
0000
0000
0000
0000
,
0000
0000
0000
0000
,
0000
0000
0000
0000
,
0000
0000
0000
0000
,
0001
0000
1000
0000
,
0010
0100
0001
0000
,
1000
0000
0001
0010
,
0200
0000
0000
0300
,
1000
0001
1000
0010
,
0100
0100
0001
0000
,
0001
1000
0001
0010
,
0200
0000
1300
0000
,
0001
1000
0010
0100
,
0001
0001
1000
0000
,
1000
0100
1000
0001
,
0100
0100
0010
0000
,
2002
0000
0000
3003
,
0001
0001
1000
1000
,
0100
0100
0010
0110
,
0001
1000
0001
0100
,
0010
1000
1001
0000
,
1000
0100
1000
0001
,
0010
0010
0001
1001
,
1000
0010
0100
0010
,
1000
0001
1001
0000
,
0002
0000
0023
0000
,
0230
0000
2300
0000
,
3001
1000
0100
0000
,
0010
0100
0010
0100
,
0220
0000
0000
0000
0000
0000
0000
0330
,
0000
0000
0000
0000
,
0001
0100
1000
0100
,
0002
1000
1000
1003
,
1000
0100
0001
0100
,
2000
0001
0001
3001
,
0100
0010
1000
0000
,
0001
0010
0100
0000
,
1000
0001
0100
0001
,
0010
0010
0020
0030
,
0001
0100
1000
0100
,
0002
1000
1000
1003
,
1000
0100
0001
0100
,
2000
0001
0001
3001
,
0100
0010
1000
0000
,
0001
0010
0100
0000
,
1000
0100
1000
0100
,
0010
0001
1001
0000
,
0001
0010
1000
0010
,
0001
0000
0000
0000
,
0000
0000
0000
0000
,
1000
1000
0001
0001
,
0020
0100
0100
0130
,
1000
1000
0001
0001
,
0200
0010
0010
0310
,
1000
0100
1000
0001
,
0010
0100
0110
0000
,
0001
0100
0001
1000
,
0010
0100
0220
0330
,
0001
0000
1001
0000
,
1000
0001
1001
0000
,
0100
0000
0110
0000
,
0010
0100
0110
0110
;
