#VERSION:0.83;
#TITLE:仮面ライダーBLACK;
#SUBTITLE:;
#ARTIST:Peaky P-key;
#TITLETRANSLIT:Kamen Rider BLACK;
#SUBTITLETRANSLIT:;
#ARTISTTRANSLIT:;
#GENRE:BLACK SUN RAVE;
#ORIGIN:;
#CREDIT:;
#BANNER:Kamen Rider BLACK.png;
#BACKGROUND:Kamen Rider BLACK-bg.png;
#PREVIEWVID:;
#JACKET:Kamen Rider BLACK-jacket.png;
#CDIMAGE:;
#DISCIMAGE:;
#LYRICSPATH:;
#CDTITLE:;
#MUSIC:Kamen Rider BLACK.ogg;
#OFFSET:1.038691;
#SAMPLESTART:54.946095;
#SAMPLELENGTH:17.199999;
#SELECTABLE:YES;
#BPMS:0.000=150.000;
#STOPS:;
#DELAYS:;
#WARPS:;
#TIMESIGNATURES:0.000=4=4;
#TICKCOUNTS:0.000=4;
#COMBOS:0.000=1;
#SPEEDS:0.000=1.000=0.000=0;
#SCROLLS:0.000=1.000;
#FAKES:;
#LABELS:0.000=Song Start;
#BGCHANGES:;
#KEYSOUNDS:;
#ATTACKS:
;

//---------------dance-single - ----------------
#NOTEDATA:;
#CHARTNAME:;
#STEPSTYPE:dance-single;
#DESCRIPTION:;
#CHARTSTYLE:;
#DIFFICULTY:Hard;
#METER:13;
#RADARVALUES:0.576245,0.588286,0.172013,0.421433,0.292423,469.000000,449.000000,20.000000,49.000000,0.000000,0.000000,0.000000,0.000000,0.000000,0.576245,0.588286,0.172013,0.421433,0.292423,469.000000,449.000000,20.000000,49.000000,0.000000,0.000000,0.000000,0.000000,0.000000;
#CREDIT:BlindedVanguard573;
#NOTES:
// measure 0
0000
0000
0000
0000
,  // measure 1
0000
0000
0000
0000
,  // measure 2
0000
0000
0000
0000
,  // measure 3
0000
0000
0000
0000
,  // measure 4
0000
0000
0000
0000
,  // measure 5
0102
0000
0000
0000
1003
0000
0002
0000
0010
0000
0000
0000
0103
0000
0001
1000
,  // measure 6
0200
0000
1300
0002
1000
0000
0013
0000
,  // measure 7
2100
0000
0000
0000
3001
0000
2000
0000
0010
0000
0000
0000
3100
0000
1000
0001
,  // measure 8
0100
0010
1000
0001
0010
0100
1000
0001
,  // measure 9
1000
0010
1000
0000
0000
0000
0000
0000
0001
0000
0000
0100
0000
0000
0010
0000
,  // measure 10
1000
0100
1000
0000
0000
0000
0000
0000
0001
0000
0000
0010
0000
0000
0100
0000
,  // measure 11
1000
0001
1000
0000
0000
0000
0000
0000
0001
0000
0000
0100
0000
0000
0010
0000
,  // measure 12
2000
0100
0000
0001
0000
0010
0000
3100
,  // measure 13
0000
0000
1000
0000
0100
0000
0010
0001
1000
0000
0001
1000
0001
0000
0000
0000
,  // measure 14
1000
0010
2000
0000
0010
0000
0000
0000
3001
0010
0002
0000
0010
0000
0000
0000
,  // measure 15
1003
0100
0000
0010
0001
0000
1001
0000
,  // measure 16
0001
0000
0000
0000
0100
0000
0010
0000
0001
0000
0001
0000
0000
0000
0010
0100
,  // measure 17
0001
0000
0000
0000
1000
0000
0000
0000
0100
0010
0000
0000
0100
0000
0100
1000
,  // measure 18
0001
0100
0002
0000
0100
0000
0000
0000
1003
0100
2000
0000
0100
0000
0000
0000
,  // measure 19
3001
0010
0000
0100
1000
0000
1001
0000
,  // measure 20
1000
0000
0010
0000
0100
0000
0010
0000
0001
0000
0001
0000
0000
0000
0010
0100
,  // measure 21
0001
0010
0100
1000
0001
0100
0010
1000
,  // measure 22
0001
0100
0010
0100
0000
0100
0010
0001
,  // measure 23
0010
1000
0000
0010
2000
0100
3002
0100
,  // measure 24
1003
0100
0000
0100
0010
0100
0000
0001
,  // measure 25
0100
1000
0000
0001
2000
0010
3002
0010
,  // measure 26
1003
0001
0010
0100
1000
0010
0100
1000
,  // measure 27
0100
0001
0000
1000
0002
0010
2003
0100
,  // measure 28
3001
0100
0000
0100
0010
0000
0001
0010
,  // measure 29
1000
0000
0100
0000
0010
0000
0001
0000
1000
0010
1000
0010
0200
0000
0300
0000
,  // measure 30
0001
0100
0000
0100
0010
1000
0000
1000
,  // measure 31
0100
0010
0100
0000
0000
0000
1000
0000
0001
0000
0000
0001
0000
0000
0100
0010
,  // measure 32
1000
0000
0000
0000
0000
0000
0100
0010
0001
0000
0000
0000
0000
0000
0100
0010
,  // measure 33
1000
0001
0010
0100
1000
0001
0100
0010
,  // measure 34
1000
0100
1000
0100
0000
0000
0010
0001
0010
0000
0000
0000
1001
0000
0000
0000
,  // measure 35
0001
0100
0010
0000
0100
0000
0001
0000
2000
0000
0000
0100
0000
0000
3001
0000
,  // measure 36
1000
0100
0010
0000
0100
0000
1000
0000
0002
0000
0000
0010
0000
0000
1003
0000
,  // measure 37
0001
0100
0010
0000
0100
0000
0001
0000
2000
0000
0010
0000
0000
0000
3001
0000
,  // measure 38
1000
0100
0010
0001
0011
0000
1001
0000
,  // measure 39
1000
0100
0010
0000
0100
0000
1000
0000
0002
0000
0000
0100
0000
0000
1003
0000
,  // measure 40
0001
0100
0010
0000
0100
0000
0001
0000
2000
0000
0000
0010
0000
0000
3001
0000
,  // measure 41
1000
0100
0010
0000
0100
0000
1000
0000
0002
0000
0000
0010
0000
0000
1003
0000
,  // measure 42
0001
0100
0010
1000
1010
0000
1001
0000
,  // measure 43
0001
0000
0000
0100
0001
0000
0100
0000
0010
0000
0000
1000
0010
0000
1000
0000
,  // measure 44
0100
0000
0000
1000
0100
0000
1000
0000
0001
0000
0000
0010
0001
0000
0010
0000
,  // measure 45
0012
0000
0000
0000
1003
0000
0002
0000
0010
0000
0000
0000
0103
0000
0001
1000
,  // measure 46
0200
0000
1300
0002
1000
0000
0013
0000
,  // measure 47
0001
0000
0010
0100
1000
0000
0001
0000
1000
0000
0010
0100
0001
0000
1000
0000
,  // measure 48
0020
0030
0200
0300
,  // measure 49
2010
0000
0000
0000
3001
0000
2000
0000
0100
0000
0000
0000
3010
0000
1000
0001
,  // measure 50
0020
0000
0031
2000
0001
0000
3100
0000
,  // measure 51
0012
0000
0000
0000
1003
0000
0002
0000
0100
0000
0000
0000
0013
0000
0001
1000
,  // measure 52
0000
0000
0001
0000
0100
0000
0010
1000
0001
0000
1000
0001
1000
0000
0000
0000
,  // measure 53
0100
0010
0001
0000
1000
0000
0000
0000
0001
0000
0000
0000
0100
0000
0000
0000
,  // measure 54
0010
1000
0001
0000
1000
0000
0000
0000
0100
0000
0000
0000
0010
0000
0000
0000
,  // measure 55
0001
0100
0010
0000
1000
0000
0000
0000
0001
0000
0000
0000
0010
0000
0000
0000
,  // measure 56
0100
0000
1000
0000
0001
0000
0100
0010
1000
0000
0000
0000
1001
0000
0000
0000
,  // measure 57
1000
0100
0010
0000
0100
0000
1000
0000
0001
0000
0000
0001
0100
0000
0001
0000
,  // measure 58
1000
0010
0100
0000
0010
0000
1000
0000
0001
0000
0000
0001
0010
0000
0001
0000
,  // measure 59
1000
0001
0100
0000
0010
0000
1000
0000
0002
0000
0000
0010
0000
0000
1003
0000
,  // measure 60
0100
1000
0001
0100
0101
0000
1001
0000
,  // measure 61
0001
0000
0000
0100
0010
0000
1000
0000
0001
0000
0000
0010
0100
0000
1000
0000
,  // measure 62
0001
0000
0000
1000
0010
0000
0100
0000
0001
0000
0000
1000
0100
0000
0010
0000
,  // measure 63
0012
0000
0000
0000
1003
0000
0002
0000
0100
0000
0000
0000
0013
0000
0001
1000
,  // measure 64
0020
0000
1030
0002
1000
0000
0103
0000
,  // measure 65
0001
0000
0100
0010
1000
0000
0001
0000
1000
0000
0100
0010
0001
0000
1000
0000
,  // measure 66
0020
0030
0200
0300
,  // measure 67
0102
0000
0000
0000
1003
0000
0002
0000
0010
0000
0000
0000
0103
0000
0001
1000
,  // measure 68
0200
0000
1300
0002
1000
0000
0013
0000
,  // measure 69
0011
0001
1000
1010
0000
1000
2002
0000
,  // measure 70
0000
0000
0000
0000
,  // measure 71
0000
0000
0000
0000
,  // measure 72
3003
0000
0000
0000
;

//---------------dance-single - ----------------
#NOTEDATA:;
#CHARTNAME:;
#STEPSTYPE:dance-single;
#DESCRIPTION:;
#CHARTSTYLE:;
#DIFFICULTY:Medium;
#METER:9;
#RADARVALUES:0.412832,0.433474,0.240819,0.258020,0.000000,336.000000,308.000000,28.000000,30.000000,0.000000,0.000000,0.000000,0.000000,0.000000,0.412832,0.433474,0.240819,0.258020,0.000000,336.000000,308.000000,28.000000,30.000000,0.000000,0.000000,0.000000,0.000000,0.000000;
#CREDIT:BlindedVanguard573;
#NOTES:
0000
0000
0000
0000
,
0000
0000
0000
0000
,
0000
0000
0000
0000
,
0000
0000
0000
0000
,
0000
0000
0000
0000
,
1001
0000
0001
0100
0010
0000
0100
0000
,
0001
0000
1000
0100
0010
0000
0100
0000
,
1000
0000
0010
0100
0001
0000
1000
0000
,
0001
0000
0010
0100
1000
0000
0001
0000
,
0202
0303
0001
1000
,
2200
3300
1000
0001
,
0022
0033
2020
3030
,
1000
0010
0100
0001
,
1000
0100
0010
0001
1000
0000
1001
0000
,
0001
0100
0001
0000
1000
0100
1000
0000
,
0001
0100
0000
0100
0010
0000
1000
0000
,
0001
0000
0010
0000
0100
1000
0000
1000
,
0001
0011
1000
1010
,
1000
0100
1000
0000
0001
0100
0001
0000
,
1000
0100
0000
0100
0010
0000
0001
0000
,
1000
0000
0010
0000
0100
0001
0000
0001
,
1000
1010
0001
0011
,
0001
0000
0100
0010
0000
0100
0001
1000
,
0100
0010
0000
0100
2000
3000
0002
0003
,
1000
0010
0000
0010
0100
0001
0000
0001
,
0010
0100
0000
1000
0002
0003
2000
3000
,
0001
0100
0001
0100
0010
0100
0010
0100
,
0001
1000
0000
1000
0002
0003
2000
3000
,
0100
0010
0000
0010
0001
0000
0001
1000
,
0010
0000
0100
0000
0001
1000
1001
0000
,
1000
0000
0000
1000
0100
0000
0000
0100
,
0010
0000
0000
0010
0001
0000
0000
0001
,
1000
0000
0000
0010
0100
0000
0000
0001
,
1000
0100
0001
0100
,
1000
0001
0000
0100
0010
0000
1001
0000
,
0001
0010
0100
0000
0010
0000
0011
0000
,
1000
0010
0100
0000
0010
0000
1010
0000
,
1000
0100
0010
0000
0001
0100
0000
1000
,
0100
0001
1000
1001
,
1000
0100
0010
0000
0100
0000
1100
0000
,
0001
0100
0010
0000
0100
0000
0101
0000
,
0001
0010
0100
0000
1000
0010
0000
0001
,
0010
1000
0001
1001
,
1000
0020
1000
0000
0100
0000
0130
0000
,
0002
0010
2003
3010
,
0101
0000
1000
0010
0100
0000
0001
0000
,
1000
0000
0001
0010
0100
0000
1000
0000
,
0001
0100
1000
0000
1000
0100
0001
0000
,
0020
0030
0200
0300
,
1100
0000
0001
0010
0100
0000
0001
0000
,
0100
0000
1000
0010
0100
0000
1000
0000
,
0100
0000
0001
0010
0100
0000
0001
0000
,
0100
0010
0001
1000
0010
0000
1001
0000
,
2000
3000
0010
0100
,
0002
0003
0010
0100
,
2000
3000
0002
0003
,
0100
0010
1000
1001
,
1000
0100
0010
0000
0100
0000
1100
0000
,
0001
0100
0010
0000
0100
0000
0101
0000
,
0001
0010
0100
0000
1000
0010
0000
0001
,
0010
1000
0001
1001
,
1000
0020
1000
0000
0100
0000
0130
0000
,
0002
0010
2003
3010
,
0101
0000
1000
0010
0100
0000
0001
0000
,
1000
0000
0001
0010
0100
0000
1000
0000
,
0001
0100
1000
0000
1000
0100
0001
0000
,
0020
0030
0200
0300
,
1100
0000
0001
0010
0100
0000
0001
0000
,
0100
0000
1000
0010
0100
0000
1000
0000
,
0100
0001
1000
0010
0000
1000
2002
0000
,
0000
0000
0000
0000
,
0000
0000
0000
0000
,
3003
0000
0000
0000
;

//---------------dance-single - ----------------
#NOTEDATA:;
#CHARTNAME:;
#STEPSTYPE:dance-single;
#DESCRIPTION:;
#CHARTSTYLE:;
#DIFFICULTY:Easy;
#METER:6;
#RADARVALUES:0.312082,0.309624,0.146211,0.258020,0.000000,254.000000,237.000000,17.000000,30.000000,0.000000,0.000000,0.000000,0.000000,0.000000,0.312082,0.309624,0.146211,0.258020,0.000000,254.000000,237.000000,17.000000,30.000000,0.000000,0.000000,0.000000,0.000000,0.000000;
#CREDIT:BlindedVanguard573;
#NOTES:
0000
0000
0000
0000
,
0000
0000
0000
0000
,
0000
0000
0000
0000
,
0000
0000
0000
0000
,
0000
0000
0000
0000
,
1000
0010
0100
0001
,
0100
0010
1000
0001
,
1000
0100
0010
0001
,
0010
0100
1000
0001
,
2002
3003
0000
0000
,
0220
0330
0000
0000
,
2020
3030
0202
0303
,
0001
0001
0001
0001
,
0010
0100
1000
1001
,
1000
1000
0001
0001
,
0100
0010
0100
0000
,
0001
0010
0100
0010
,
2000
3000
0010
0010
,
0001
0001
0100
0100
,
0010
1000
0001
0000
,
1000
0100
0010
0100
,
0001
0100
1000
0001
,
1000
0010
0100
1000
,
0100
0010
1000
0001
,
1000
0100
0010
1000
,
0010
0100
1000
1001
,
0001
0100
0010
0001
,
0010
0100
0001
1000
,
0001
0010
0100
0001
,
0100
0010
0001
1001
,
0001
0000
0100
0000
,
0010
0000
1000
1000
,
2002
3003
0220
0330
,
0001
0010
1000
0010
,
0100
0100
0100
1001
,
1000
1000
0010
0100
,
0001
0001
0100
0010
,
1000
1000
0001
0010
,
0100
1000
0001
1001
,
0001
0001
0100
0010
,
1000
1000
0100
0010
,
0001
0001
0100
0010
,
1000
0100
0010
1001
,
0001
0002
0100
1003
,
2000
0010
3002
0010
,
1003
0010
0100
0001
,
1000
0100
0010
0001
,
1000
2000
0100
0001
,
3020
0030
0200
0300
,
1001
0001
0100
0010
,
1000
0100
0010
0001
,
1000
0010
0100
1000
,
0100
0001
1000
1001
,
0002
0003
0010
0100
,
2000
3000
0010
0100
,
0002
0003
2000
3000
,
0100
0010
0001
1001
,
0001
0100
0010
0001
,
0010
0100
0001
1000
,
0100
0010
1000
0010
,
0100
1000
0001
1001
,
0001
0002
0100
1003
,
0002
0010
2003
0010
,
3001
0010
0100
1000
,
0001
0100
0010
1000
,
0001
0002
0100
1000
,
0023
0030
0200
0300
,
1001
0001
0100
0010
,
1000
0100
0010
0001
,
0100
0000
0010
0000
1000
0000
0001
0002
,
0000
0000
0000
0000
,
0000
0000
0000
0000
,
0003
0000
0000
0000
;

//---------------dance-single - ----------------
#NOTEDATA:;
#CHARTNAME:;
#STEPSTYPE:dance-single;
#DESCRIPTION:;
#CHARTSTYLE:;
#DIFFICULTY:Beginner;
#METER:3;
#RADARVALUES:0.158498,0.209964,0.017201,0.034403,0.000000,129.000000,127.000000,2.000000,4.000000,0.000000,0.000000,0.000000,0.000000,0.000000,0.158498,0.209964,0.017201,0.034403,0.000000,129.000000,127.000000,2.000000,4.000000,0.000000,0.000000,0.000000,0.000000,0.000000;
#CREDIT:;
#NOTES:
0000
0000
0000
0000
,
0000
0000
0000
0000
,
0000
0000
0000
0000
,
0000
0000
0000
0000
,
0000
0000
0000
0000
,
1000
0000
1000
0000
,
0010
0000
0010
0000
,
0100
0000
0100
0000
,
0001
0000
0001
0000
,
0010
0000
0000
0000
,
0100
0000
0000
0000
,
1000
0000
0001
0000
,
0200
0000
0000
0000
,
0300
0000
0000
0000
,
0001
0000
0010
0000
,
0100
0100
0100
0000
,
1000
0000
0001
0000
,
2000
0000
3000
0000
,
0001
0000
0100
0000
,
0010
0010
0010
0000
,
0100
0000
0001
0000
,
0020
0000
0030
0000
,
0001
0001
0001
0000
,
0100
0000
0010
0000
,
1000
1000
1000
0000
,
0100
0000
0010
0000
,
0001
0001
0001
0000
,
1000
0000
0010
0000
,
0100
0100
0100
0000
,
0010
0000
1000
0000
,
0001
0000
0001
0000
,
0010
0000
0010
0000
,
0100
0000
1000
0000
,
0002
0000
0000
0000
,
0003
0000
0000
0000
,
1000
1000
0000
0000
,
0010
0010
0000
0000
,
0100
0000
0001
0000
,
1000
0000
0100
0100
,
0100
0100
0000
0000
,
0010
0010
0000
0000
,
0001
0000
0100
0000
,
0010
0000
1000
1000
,
1000
0000
0010
0000
,
0100
0000
0001
0000
,
1000
0000
0100
0000
,
0010
0000
0001
0000
,
1000
0000
1000
0000
,
0001
0000
0001
0000
,
1001
0000
0000
0000
,
0000
0000
0000
0000
,
0001
0000
0100
0000
,
0010
0010
0010
0000
,
0100
0000
0000
0000
,
0001
0000
0000
0000
,
0010
0000
0100
0000
,
1000
0000
0001
0001
,
0001
0000
0100
0100
,
0100
0000
0010
0010
,
0010
0000
1000
1000
,
1000
0000
0001
0001
,
0001
0000
0010
0000
,
1000
0000
0010
0000
,
0100
0000
1000
0000
,
0001
0000
0100
0000
,
0010
0000
1000
0000
,
0001
0000
1000
0000
,
1001
0000
0000
0000
,
0000
0000
0000
0000
,
0001
0000
0010
0010
;
