#TITLE:KIM POSSIBLE THEME SONG;
#SUBTITLE:;
#ARTIST:KIM POSSIBLE;
#TITLETRANSLIT:;
#SUBTITLETRANSLIT:;
#ARTISTTRANSLIT:;
#GENRE:;
#CREDIT:;
#MUSIC:KIM POSSIBLE THEME SONG.ogg;
#BANNER:;
#BACKGROUND:KIM POSSIBLE THEME SONG-bg.png;
#CDTITLE:;
#SAMPLESTART:27.567;
#SAMPLELENGTH:15.610;
#SELECTABLE:YES;
#OFFSET:-0.026;
#BPMS:0.000=122.000
,56.000=123.000
,68.000=124.000
,69.500=128.000
,71.500=104.000
,72.000=123.000
,124.000=124.000
,125.500=129.000
,127.500=102.000
,128.000=123.000
,136.000=122.000
,166.000=121.000
,167.500=123.000
,168.000=125.000
,172.000=124.000
,173.500=128.000
,175.500=122.000
;
#STOPS:;
#BGCHANGES:;
#FGCHANGES:;

//--------------- dance-single - ----------------
#NOTES:
     dance-single:
     :
     Beginner:
     2:
     0,0,0,0,0:
0000
0000
0000
0000
,
0001
0000
0000
0000
,
1000
0000
0000
0000
,
0100
0000
0000
0000
,
0010
0000
0000
0000
,
0001
0001
0001
0001
,
1000
0000
0000
0000
,
0010
0000
0000
0000
,
1000
0000
0000
0000
,
0001
0000
0000
0000
,
0010
0000
0010
0000
,
0100
0000
0000
0000
,
1000
0000
1000
0000
,
0001
0000
0000
0000
,
1001
0000
0001
0000
,
0100
0000
0010
0000
,
1000
0000
1000
0000
,
1001
0000
0000
0000
,
0100
0000
0100
0000
,
0010
0000
0010
0000
,
0001
0000
0000
0000
,
0100
0000
0000
0000
,
0010
0000
0000
0000
,
1000
0000
0000
0000
,
0001
0000
0001
0000
,
0010
0000
0010
0000
,
0100
0000
0100
0000
,
1000
0000
0000
0000
,
1001
0000
1000
0000
,
0010
0000
0100
0000
,
0001
0000
0001
0000
,
1001
0000
0000
0000
,
0010
0000
0010
0000
,
0100
0000
0100
0000
,
1000
0000
0000
0000
,
0010
0000
0000
0000
,
0100
0000
0000
0000
,
0001
0000
0000
0000
,
1000
0000
1000
0000
,
0100
0000
0100
0000
,
0010
0000
0010
0000
,
0001
0000
0000
0000
,
1000
0000
0001
0000
,
1001
0000
0000
0000
,
1001
0000
0000
0000
;

//--------------- dance-single - ----------------
#NOTES:
     dance-single:
     :
     Easy:
     5:
     0,0,0,0,0:
0000
0000
0000
0000
,
1000
1000
0100
0100
,
0010
0000
0001
1000
,
0010
0000
1000
0001
,
0010
0000
0001
1000
,
0100
0010
0010
0001
,
1000
0000
0010
0100
,
0001
0000
1000
0100
,
0010
0010
0001
0001
,
1000
1000
0010
0010
,
0100
0000
0001
0000
1000
0001
0000
1000
,
0000
0100
0000
0010
0000
0001
0000
0000
,
1000
0010
0100
0001
,
1001
0000
0000
0000
,
1000
0001
0010
0010
,
0001
0100
0010
0010
,
1000
0100
0010
0001
,
1001
0000
0000
0000
,
1000
0010
1000
0001
,
0001
0010
0001
1000
,
1000
0000
0100
0000
,
0010
0000
0001
0000
,
1000
0000
0010
0000
,
0100
0000
0001
0000
,
1000
1000
0001
0001
,
0010
0010
0100
0100
,
1000
0000
0000
0001
0000
0000
1000
0000
0001
0000
0000
1000
0000
0000
0001
0000
,
1000
0000
0000
0000
,
0001
1000
0100
0100
,
1000
0010
0100
0100
,
0001
0010
0100
1000
,
1001
0000
0000
0000
,
0001
0100
0001
1000
,
1000
0100
1000
0001
,
0001
0000
0010
0000
,
0100
0000
1000
0000
,
0001
0000
0100
0000
,
0010
0000
1000
0000
,
0001
0001
1000
1000
,
0100
0100
0010
0010
,
0001
0000
0000
1000
0000
0000
0001
0000
1000
0000
0000
0001
0000
0000
1000
0000
,
0001
0000
0000
0000
,
0100
0010
0100
0001
,
1001
0000
0000
0000
,
0110
0000
0000
0000
;

//--------------- dance-single - ----------------
#NOTES:
     dance-single:
     :
     Medium:
     8:
     0,0,0,0,0:
0000
0000
0000
0000
,
1010
0000
1001
0000
0011
0000
0001
1000
,
0001
0000
0100
0000
0010
1000
0100
0000
,
0010
0000
0001
0000
1000
0010
0100
0000
,
0001
0000
1000
0000
0100
0010
0001
0000
,
0011
1001
1010
0110
,
1001
0000
1000
0000
0100
0010
0001
0000
,
1000
0000
0010
0000
0100
0001
0010
0000
,
0001
0000
1000
0000
0001
0000
0000
0000
0100
0000
0000
0010
0000
0000
1000
0000
,
0001
0000
0010
0000
0100
1000
0001
0000
,
0101
0000
0100
0000
0010
0010
1000
0001
,
0000
0010
0000
0100
1000
0100
1000
0001
,
0100
0000
0010
0000
1000
1000
0000
0001
,
1001
0000
0000
0000
,
1100
0000
0100
0000
1000
0001
1000
0000
,
0001
0000
0010
0000
0001
0100
0001
0000
,
0100
0010
1000
0100
,
0110
0000
0000
0000
,
0001
0000
0100
0000
0010
1000
0010
0000
,
1000
0000
0100
0000
0010
0001
0010
0000
,
0110
0000
0100
0000
1000
0001
1000
0000
,
0010
0000
0100
0000
0001
1000
0001
1000
,
0100
0000
0010
0000
0001
0100
0001
0100
,
0010
1000
0100
0010
,
0001
0000
0000
1000
0000
0000
0010
0000
0100
0000
0000
0001
0000
0000
1000
0000
,
0100
0000
0000
0010
0000
0000
0001
0000
1000
0000
0000
0010
0000
0000
0100
0000
,
0001
0000
0000
0001
0000
0000
0001
0000
0010
0000
0000
0010
0000
0000
0010
0000
,
0110
0000
0000
0000
,
1001
0000
1000
0000
0001
0010
0001
0000
,
0100
0000
0010
0000
1000
0001
1000
0000
,
0100
0010
0001
0100
,
0110
0000
0000
0000
,
1000
0000
0001
0000
0010
0001
0010
0000
,
0100
0000
1000
0000
0010
0100
0010
0000
,
0110
0000
1000
0000
0100
0010
0100
0000
,
1000
0000
0001
0000
0100
0010
0100
0010
,
1000
0000
0001
0000
1000
0100
1000
0100
,
0010
0001
0100
0010
,
1000
0000
0000
0001
0000
0000
0010
0000
0100
0000
0000
1000
0000
0000
0001
0000
,
0100
0000
0000
0010
0000
0000
1000
0000
0001
0000
0000
0010
0000
0000
0100
0000
,
1000
0000
0000
1000
0000
0000
1000
0000
0010
0000
0000
0010
0000
0000
0010
0000
,
0110
0000
0000
0000
,
0001
0000
0010
0000
0100
1000
0001
0000
,
1001
0000
0000
0000
,
0110
0000
0000
0000
;

//--------------- dance-single - ----------------
#NOTES:
     dance-single:
     :
     Hard:
     12:
     0,0,0,0,0:
0000
0000
0000
0000
,
0011
0000
1100
0000
1001
0000
1000
0010
,
0110
0000
0000
0000
0100
0001
0000
1000
0000
0100
0000
1000
0000
0001
0000
0000
,
0100
0000
0010
0000
1000
0100
0000
0010
0000
0100
0000
1000
0000
0001
0000
0000
,
0100
0000
0010
0000
0100
0010
0000
1000
0000
0001
0000
0010
0000
0100
0000
0000
,
1100
1001
0011
0110
,
1001
0000
0000
0000
0001
0100
0000
0010
0000
1000
0000
0001
0000
0010
0000
0000
,
0100
0000
0010
0000
0001
1000
0000
0010
0000
0100
0000
0010
0000
1000
0000
0000
,
0100
0000
0010
0000
0011
0000
0000
1000
0010
0000
1000
0001
0000
0010
0100
0000
,
1000
0000
0001
0000
0100
0000
0000
0010
1000
0000
0100
0000
1000
0000
0001
0000
,
0011
0010
0100
0000
1100
0101
0000
1100
,
1000
0010
0000
1000
0001
0010
0001
1000
,
1010
0010
0110
0000
0110
0101
0000
1001
,
1100
0000
0000
0000
,
0011
0010
0001
0100
0010
1000
0100
1000
,
0001
0100
0001
0010
0100
0100
0100
0000
,
1000
0010
1000
0000
0001
0100
0001
0000
,
1000
0000
1000
0000
0001
0000
0001
0000
1000
0001
1000
0001
1000
0000
0001
0000
,
0010
0000
0000
0000
0001
0000
1000
0000
0010
0100
0001
0000
1001
0000
0000
0000
,
1000
0000
0000
0000
0100
0000
0010
0000
0001
1000
0010
0000
0110
0000
0000
0000
,
0100
0000
0001
0010
0001
1000
0010
0000
,
1000
0100
1000
0001
0100
0100
0000
0001
,
0010
0000
0100
0010
0001
0001
1000
0010
,
0010
0100
0010
1000
0100
0000
0010
0001
,
1000
0000
0000
0100
1000
0000
0001
0000
0100
0000
0000
0010
0100
0000
0001
0000
,
0001
0000
0000
0010
0001
0000
1000
0000
0010
0000
0000
0100
0010
0000
1000
0000
,
1100
0000
0000
1001
0000
0000
0101
0000
0101
0000
0000
0110
0000
0000
1010
0000
,
1010
0000
0000
0000
,
1001
1000
0100
0010
0100
1000
0001
0100
,
0010
1000
0001
0010
0100
0100
0100
0000
,
1000
0100
1000
0000
0001
0100
0001
0000
,
1000
0000
1000
0000
0010
0000
0010
0000
1000
0010
1000
0010
1000
0000
0010
0000
,
0100
0000
0000
0000
0010
0000
1000
0000
0001
0010
0100
0000
0110
0000
0000
0000
,
0010
0000
0000
0000
0100
0000
1000
0000
0001
0100
0010
0000
1010
0000
0000
0000
,
1000
0000
0001
0010
0001
1000
0010
0000
,
0100
0001
1000
0100
0010
0010
0001
1000
,
1000
0000
0001
0100
0001
0001
0010
0100
,
0100
1000
0010
1000
0001
0000
0010
0001
,
1000
0000
0000
0010
1000
0000
0001
0000
0010
0000
0000
0100
0010
0000
0001
0000
,
0001
0000
0000
0100
0001
0000
1000
0000
0100
0000
0000
0010
0100
0000
1000
0000
,
1010
0000
0000
1001
0000
0000
0011
0000
0011
0000
0000
0110
0000
0000
1100
0000
,
1100
0000
0000
0000
,
0001
0000
0000
0000
0100
0010
0000
1000
0000
0001
0000
0010
0000
0100
0000
0000
,
1000
0000
1000
0000
0010
0000
0010
0000
0100
0001
1000
0100
0010
0000
0001
0000
,
1010
0000
0000
0000
;

//--------------- dance-single - FS SJ ----------------
#NOTES:
     dance-single:
     FS SJ:
     Challenge:
     15:
     0,0,0,0,0:
0000
0000
0000
0000
,
1001
0000
0000
0000
0000
0000
0000
0000
0000
0000
0000
0000
1100
0000
0000
0000
0000
0000
0000
0000
0000
0000
0000
0000
0110
0000
0000
0000
0000
0000
0010
0000
0100
0000
0010
0000
0100
0000
0000
1000
0000
0000
0001
0000
0000
0100
0000
0000
,
0101
0000
0000
0000
0001
0000
0000
0000
1000
0000
0010
0000
0000
0000
0200
0300
0000
0000
0200
0300
0000
0000
1000
0000
0001
0000
0100
0000
0000
0000
0000
0000
,
0010
0000
0000
0000
1000
0000
0000
0000
0001
0000
0010
0000
0000
0000
0200
0300
0000
0000
0200
0300
0000
0000
0001
0000
1000
0000
0010
0000
0000
0000
0000
0000
,
0100
0000
0000
0000
0001
0000
0000
0000
1000
0000
0100
0000
0000
0000
0020
0030
0000
0000
0020
0030
0000
0000
1000
0000
0001
0000
0010
0000
0000
0000
0000
0000
,
0110
0000
0000
0000
1100
0000
0000
0000
0001
0000
0100
0000
0010
1000
0100
0010
,
0110
0000
0000
0000
0100
0000
0000
0000
1000
0000
0001
0000
0000
0000
0200
0300
0000
0000
0200
0300
0000
0000
1000
0000
0010
0000
0100
0000
0000
0000
0000
0000
,
0001
0000
0000
0000
0010
0000
0000
0000
0001
0000
1000
0000
0000
0000
0200
0300
0000
0000
0200
0300
0000
0000
0001
0000
0100
0000
0010
0000
0000
0000
0000
0000
,
1000
0000
0100
0000
0110
0000
0000
0001
1000
0010
1000
0001
0010
0100
0000
0000
,
1000
0000
0010
0000
0110
0000
0000
0001
0010
0000
0001
1000
0010
0000
1000
0001
,
1001
0000
1000
0000
0010
0000
0100
0000
0101
0000
1100
0000
1000
0100
0010
0001
,
1000
0000
0000
0000
0020
0030
0000
0000
0020
0030
0000
0000
0001
0000
0000
0000
0100
0000
0000
0000
0001
0000
1000
0000
0100
0000
0000
0000
1000
0000
0010
0000
,
0100
0001
0011
0000
1010
1001
0001
0011
,
0110
0000
0000
0000
,
1010
0000
0000
0000
0010
0000
0000
0000
0100
0000
0000
0000
0001
0000
0000
0000
1000
0000
0200
0300
0200
0300
0001
0000
0010
0000
0000
0000
0100
0000
0000
0000
,
1000
0000
0020
0030
0020
0030
0001
0000
0100
0000
0000
0000
0010
0000
0000
0000
1010
0000
0000
0000
1100
0000
0000
0000
0110
0000
0000
0000
0100
0000
1000
0000
,
0001
0100
0001
1000
0100
1000
0010
0100
,
1001
0000
0000
0000
1001
0000
0000
0000
1001
0000
0000
0000
1001
0000
0000
0000
0001
0000
0200
0300
0200
0300
1000
0000
1001
0000
0000
0000
0110
0000
0000
0000
,
1001
0000
0000
0000
1000
0000
0000
0000
0100
0000
0010
0000
0001
0000
0200
0300
0200
0300
1000
0000
0010
0000
0000
0000
0101
0000
0000
0000
0001
0000
0000
0000
,
0020
0030
0000
0000
0020
0030
1000
0000
0001
0000
0000
0000
1000
0000
0200
0300
0200
0300
0001
0000
0020
0030
0000
0000
0020
0030
0000
0000
1000
0000
0000
0000
,
1001
0000
0000
0000
0000
0000
0000
0000
0001
0000
0000
0000
0010
0000
0000
0000
0200
0300
0000
0000
0200
0300
0000
0000
0001
0000
0000
0000
0000
0000
0000
0000
,
0010
0000
0000
0000
0100
0000
0000
0000
1000
0000
0000
0000
0000
0000
0000
0000
0020
0030
0000
0000
0020
0030
0000
0000
0001
0000
0000
0000
0020
0030
0000
0000
,
0020
0030
0000
0000
0000
0000
0000
0000
1000
0000
0000
0000
0010
0000
0000
0000
0200
0300
0000
0000
0200
0300
0000
0000
1000
0000
0000
0000
0200
0300
0000
0000
,
0200
0300
0000
0000
0001
0000
0000
0000
0010
0000
0000
0000
0100
0000
0000
0000
1000
0000
0010
0000
1000
0000
0001
0000
0010
0000
0001
0000
1000
0000
0010
0000
,
0100
0000
0000
0000
0001
0000
0100
0000
0020
0030
0000
0000
0020
0030
0000
0000
0100
0000
0000
0000
1000
0000
0001
0000
0020
0030
0000
0000
0020
0030
0000
0000
,
1010
0000
0000
0000
1000
0000
0001
0000
0200
0300
0000
0000
0200
0300
0000
0000
0010
0000
0000
0000
0001
0000
1000
0000
0200
0300
0000
0000
0200
0300
0000
0000
,
0101
0000
0000
1001
0000
0000
1100
0000
0110
0000
0000
0011
0000
0000
1010
0000
,
1001
0000
0000
0000
0000
0000
0000
0000
1000
0100
0010
0100
1000
0001
0100
0010
,
1010
0000
0000
0000
1000
0000
0000
0000
0020
0030
0000
0000
0020
0030
0000
0000
0001
0000
0020
0030
0020
0030
1000
0000
0200
0300
0000
0000
0200
0300
0000
0000
,
0001
0000
0200
0300
0200
0300
1000
0000
0020
0030
0000
0000
0020
0030
0000
0000
0011
0000
0000
0000
1100
0000
0000
0000
1001
0000
0000
0000
0001
0000
0000
0000
,
0100
0000
0000
0000
0020
0030
0000
0000
0020
0030
0000
0000
0001
0000
0000
0000
1000
0000
0000
0000
0200
0300
0000
0000
0200
0300
0000
0000
0001
0000
0000
0000
,
0011
0000
0000
0000
0011
0000
0000
0000
1010
0000
0000
0000
1010
0000
0000
0000
0001
0000
0020
0030
0020
0030
0100
0000
0101
0000
0000
0000
1100
0000
0000
0000
,
0110
0000
0000
0000
0010
0000
0000
0000
0001
0000
1000
0000
0010
0000
0200
0300
0200
0300
0010
0000
0001
0000
0000
0000
1100
0000
0000
0000
1000
0000
0000
0000
,
0010
0000
0000
0000
0100
0000
0001
0000
0020
0030
0000
0000
0020
0030
0200
0300
0200
0300
1000
0000
0020
0030
0000
0000
0020
0030
0001
0000
0100
0000
0000
0000
,
1010
0000
0000
0000
0000
0000
0000
0000
1000
0000
0000
0000
0001
0000
0000
0000
0020
0030
0000
0000
0020
0030
0000
0000
0100
0000
0000
0000
0000
0000
0000
0000
,
0001
0000
0000
0000
0010
0000
0000
0000
0001
0000
0000
0000
0000
0000
0000
0000
0200
0300
0000
0000
0200
0300
0000
0000
1000
0000
0000
0000
0020
0030
0000
0000
,
0020
0030
0000
0000
0000
0000
0000
0000
0001
0000
0000
0000
0100
0000
0000
0000
0020
0030
0000
0000
0020
0030
0000
0000
0100
0000
0000
0000
0020
0030
0000
0000
,
0020
0030
0000
0000
1000
0000
0000
0000
0200
0300
0000
0000
0200
0300
0000
0000
0001
0000
0010
0000
0001
0000
1000
0000
0100
0000
1000
0000
0010
0000
0100
0000
,
0001
0000
0000
0000
0100
0000
0010
0000
1000
0000
0000
0000
0200
0300
0000
0000
0200
0300
0000
0000
0001
0000
0100
0000
0020
0030
0000
0000
0020
0030
0000
0000
,
0011
0000
0000
0000
0001
0000
1000
0000
0010
0000
0000
0000
0200
0300
0000
0000
0200
0300
0000
0000
1000
0000
0001
0000
0010
0000
0000
0000
0100
0000
0000
0000
,
1100
0000
0000
1010
0000
0000
0110
0000
1001
0000
0000
0011
0000
0000
0110
0000
,
1100
0000
0000
0000
0000
0000
0000
0000
1000
0010
0100
0001
0010
0100
1000
0010
,
0110
0000
0000
0000
0001
0000
0000
0000
1000
0000
0020
0030
0000
0000
0020
0030
0001
0000
0010
0000
0000
0000
0100
0000
0000
0000
1000
0000
0010
0000
0000
0000
,
1010
0000
0000
0000
1010
0000
0000
0000
0011
0000
0000
0000
0011
0000
0000
0000
0001
0000
0200
0300
0200
0300
0010
0000
1001
0000
0000
0000
1010
0000
0000
0000
,
0101
0000
0000
0000
;
