#TITLE:KEEP ON DANCING;
#SUBTITLE:;
#ARTIST:CLIO & KAY;
#TITLETRANSLIT:;
#SUBTITLETRANSLIT:;
#ARTISTTRANSLIT:;
#CREDIT:;
#BANNER:Keep On Dancing (Club Mix).png;
#BACKGROUND:Keep On Dancing (Club Mix)-jacket.png;
#LYRICSPATH:;
#CDTITLE:DanceMania Super Classics 3.png;
#MUSIC:Keep on Dancing (Club Mix).ogg;
#OFFSET:-2.754;
#SAMPLESTART:10.960;
#SAMPLELENGTH:12.000;
#SELECTABLE:YES;
#BPMS:0.000=116.400,20.000=116.530,115.000=116.580;
#STOPS:;
#BGCHANGES:;

//---------------dance-single - ----------------
#NOTES:
     dance-single:
     :
     Hard:
     11:
     0.419,0.485,0.127,0.000,0.197:
0000
0000
0000
0000
,
0000
0000
0000
0000
,
0000
0000
0000
0000
,
0000
0000
0000
0000
,
0001
0000
1000
0000
0100
0000
0010
0000
0100
0000
1000
0000
0001
0000
0100
0010
,
0000
0000
0000
0001
0010
0100
0001
0001
,
1000
0100
0010
0100
1000
0010
0100
0010
,
1000
0000
0000
1000
0000
0000
0100
0000
0000
0000
0000
0000
0000
0000
0000
0000
,
1000
0000
0001
0000
0100
0000
0010
0000
0100
0000
0001
0000
0010
0000
0100
0010
,
0000
0000
0000
1000
0010
0100
1000
1000
,
0000
0000
0000
0001
0100
0010
0100
0001
,
0000
0001
1000
0100
0000
0000
0100
1000
,
1001
0000
0000
0000
0000
0000
0001
0000
0100
0000
0010
0000
0000
0010
0000
0000
,
1000
0000
0000
0000
0000
0000
1000
0000
0100
0000
0010
0000
0000
0010
0000
0000
,
0001
0000
0000
0000
0000
0000
0001
0000
0010
0000
0100
0000
0000
0100
0000
0000
,
1000
0000
0000
0000
0000
0000
1000
0000
0010
0000
0100
0000
0000
0100
0000
0000
,
0001
0000
0000
0000
0010
0000
0100
0000
1000
0000
0001
0000
0000
0001
0000
0000
,
0100
0000
0000
0000
0010
0000
1000
0000
0001
0000
0010
0000
0000
0010
0000
0000
,
0100
0000
1000
0001
0100
0010
0000
0010
,
1000
0100
0001
0000
0100
0000
1000
0010
0000
0000
0100
0000
0000
0000
0100
0000
,
0010
0100
0001
1000
0100
0100
0010
0000
,
0001
0100
0010
0100
0001
0001
0010
0000
,
0100
1000
0001
1000
0010
0010
0100
0000
,
0001
0010
0100
0010
0001
0001
0100
0000
,
0010
0000
1000
0000
1010
0000
0000
0001
0000
0010
0000
0011
0000
0000
0000
0000
,
0100
0000
1000
0000
1100
0000
0000
0001
0000
0100
0000
0101
0000
0000
0001
0000
,
0100
0010
0100
0001
1000
0100
0010
0001
,
1000
0010
0000
0000
0100
0000
0010
0000
1000
0000
0001
0000
0010
0000
0001
0000
,
1000
0010
1000
0000
0001
0000
0000
0000
0010
0000
0100
0000
1000
0000
0000
0000
,
0001
0010
0001
0000
1000
0000
0000
0000
0001
0000
0010
0000
0100
0000
0000
0000
,
1000
0010
0100
0000
0001
0000
0000
0000
0010
0000
0100
0000
1000
0000
1000
0010
,
0000
0000
0010
0100
0000
0000
0100
0001
0000
0000
0001
1000
0000
0000
1000
0000
,
0100
0010
0001
0000
0100
0000
0000
0000
0010
0000
1000
0000
0001
0000
0000
0000
,
0010
0100
1000
0000
0001
0000
0000
0000
0100
0000
0010
0000
1000
0000
0000
0000
,
0001
0010
0100
0010
0001
0100
0010
0100
,
1000
0100
0001
1000
0100
0010
0001
1000
,
1001
0000
0001
0000
0010
0000
0100
1000
0001
0000
0001
0000
0001
0000
0000
0000
,
1001
0000
0001
0000
0000
0000
0000
0000
0000
0000
0101
0000
0000
1010
0000
0000
,
1001
0000
1000
0000
0010
0000
0100
0001
1000
0000
1000
0000
1000
0000
0000
0000
,
1001
0000
0000
0001
0000
0000
0100
0001
1000
0000
1000
0000
0001
1000
0001
1000
,
0100
0000
0000
0000
;

//---------------dance-single - ----------------
#NOTES:
     dance-single:
     :
     Easy:
     6:
     0.226,0.301,0.116,0.000,0.006:
0000
0000
0000
0000
,
0000
0000
0000
0000
,
0000
0000
0000
0000
,
0000
0000
0000
0000
,
1000
0100
0010
0100
,
1000
0000
0001
1000
,
0001
0100
0010
0100
,
0001
0000
0000
1000
,
0001
0010
0100
1000
,
0001
0000
0001
0100
,
0010
0000
0010
0000
,
0100
0001
1000
0000
,
1001
0000
1000
0100
,
0010
0000
0010
0100
,
1000
0000
0001
0100
,
0010
0000
0010
0100
,
0001
0000
1000
0100
,
0001
0000
0001
0100
,
1000
0000
0001
0100
,
1000
0100
0001
0000
,
1000
0100
0010
0010
,
0001
0100
0010
0100
,
0001
0010
0100
0100
,
1000
0010
0100
0010
,
1000
1010
0001
0011
,
1000
1100
0001
0101
,
0001
0100
0010
1000
,
0001
0010
0100
1000
,
0001
0001
0001
0000
0100
0000
0010
0000
,
1000
1000
1000
0000
0100
0000
0100
0000
,
1000
1000
1000
0000
0010
0000
0100
0000
,
0001
0010
0100
1000
,
0001
0001
0001
0000
0100
0000
0010
0000
,
0100
0100
0100
0000
0001
0000
1000
0000
,
0100
0010
0001
0100
,
0010
1000
0001
0010
,
1001
0000
0000
0000
,
1001
0000
0000
0000
0000
0000
0000
0000
0000
0000
1000
0000
0000
1000
0000
0000
,
1001
0000
0000
0000
,
1001
0000
0010
0100
,
1001
0000
0000
0000
;

//---------------dance-double - ----------------
#NOTES:
     dance-double:
     :
     Hard:
     12:
     0.482,0.509,0.127,0.000,0.272: // measure 1
00000000
00000000
00000000
00000000
,  // measure 2
00000000
00000000
00000000
00000000
,  // measure 3
00000000
00000000
00000000
00000000
,  // measure 4
00000000
00000000
00000000
00000000
,  // measure 5
10000000
00000000
01000000
00000000
00100000
00000000
00001000
00000000
00010000
00000000
00000010
00000000
00001000
00000000
00000010
00000100
,  // measure 6
00000000
00000000
00000000
00000010
00001000
00000010
00000100
00000100
,  // measure 7
00000001
00000100
00000010
00010000
00001000
00010000
01000000
00100000
,  // measure 8
00110000
00000000
00000000
10100000
00000000
00000000
10010000
00000000
00000000
00000000
00000000
00000000
00010000
00000000
10000000
00000000
,  // measure 9
00010000
00000000
00100000
00000000
01000000
00000000
00010000
00000000
00001000
00000000
00000010
00000000
00000100
00000000
00001000
00000001
,  // measure 10
00000000
00000000
00000000
00000001
00000100
00000010
00000100
00001000
,  // measure 11
00000000
00000000
00000000
00001000
00010000
00001000
00010000
01000000
,  // measure 12
00000000
01000000
10000000
00010000
00000000
00000000
00010000
10000000
,  // measure 13
01000000
00000000
00000000
00000000
00000000
00000000
01000000
00000000
00100000
00000000
00001000
00010000
00000000
00000000
00000000
00000000
,  // measure 14
00010000
00000000
00000100
00000000
00000010
00000000
00000100
00000000
00001000
00000000
00000001
00000100
00000000
00000000
00000001
00000000
,  // measure 15
00001000
00000000
00000010
00000000
00000000
00000000
00000100
00000000
00001000
00010000
00000000
01000000
00000000
00000000
00000000
00000000
,  // measure 16
10000000
00000000
00100000
00000000
10000000
00000000
01000000
00000000
00010000
00000000
00001000
00000000
00000100
00000000
00000001
00001000
,  // measure 17
00000001
00000000
00000010
00000000
00000100
00000000
00010000
00000000
00001000
00000000
00000100
00000001
00000000
00000000
00000001
00001000
,  // measure 18
00000100
00000000
00000001
00000000
00000100
00000000
00010000
00001000
01000000
00000000
00100000
00000000
10000000
00000000
01000000
00100000
,  // measure 19
00001000
00000000
00001000
00010000
01000000
00000000
00010000
00000000
,  // measure 20
00001000
00000100
00000001
00000000
00000010
00000000
00001000
00010000
00000000
00000000
00001000
00000000
00000000
00000000
00000010
00000001
,  // measure 21
00000010
00000000
00000100
00000000
00010000
00000000
00001000
00000000
00000100
00000000
00000100
00000000
00001000
00000000
00100000
00010000
,  // measure 22
00100000
00000000
01000000
00000000
10000000
00000000
00100000
00000000
01000000
00000000
01000000
00000000
00010000
00000000
00100000
00001000
,  // measure 23
00010000
00000000
00000010
00000000
00000100
00000000
00000001
00000000
00001000
00000000
00001000
00000000
00000100
00000000
00010000
00000100
,  // measure 24
00001000
00000010
00010000
00001000
00100000
00100000
01000000
10000000
,  // measure 25
00100000
00000000
01000000
00000000
01100000
00000000
00000000
00000010
00000000
00000100
00000000
00000110
00000000
00000000
00010000
00000000
,  // measure 26
00001000
00000000
00100000
00000000
00101000
00000000
00000000
00010000
00000000
00000010
00000000
00001010
00000000
00000000
00001000
00000001
,  // measure 27
00000010
00000100
00000001
00000100
00010000
00001000
00010000
01000000
,  // measure 28
10000000
00100000
01000000
00100000
10000000
01000000
00010000
00001000
,  // measure 29
00000010
00000001
00000010
00000001
00000100
00000000
00000000
00000000
00001000
00000000
00010000
00000000
00100000
00000000
00000000
00000000
,  // measure 30
00100000
10000000
00100000
10000000
01000000
00000000
00000000
00000000
01000000
00000000
00010000
00000000
00001000
00000000
00000000
00000000
,  // measure 31
00000010
00000001
00001000
00000001
00000100
00000000
00000000
00000000
00001000
00000000
00010000
00000000
00100000
00000000
10000000
00100000
,  // measure 32
10000000
00000000
00010000
00100000
00010000
00000000
00001000
00000100
00001000
00000000
00000001
00000010
00000001
00000000
00001000
00000000
,  // measure 33
00000010
00010000
00001000
00100000
00010000
00000000
00000000
00000000
00100000
00000000
00010000
00000000
01000000
00000000
00000000
00000000
,  // measure 34
00100000
10000000
00010000
10000000
01000000
00000000
00000000
00000000
00100000
00000000
00001000
00000000
00010000
00000000
00000100
00000000
,  // measure 35
00000010
00000001
00000100
00001000
00000100
00000010
00000100
00001000
,  // measure 36
00010000
01000000
10000000
00100000
00010000
00001000
00000010
00000001
,  // measure 37
00001001
00000000
00000001
00000000
00000100
00000000
00000010
00000100
00000001
00000000
00000001
00000000
00001000
00000000
00000000
00000000
,  // measure 38
00001100
00000000
00010000
00000000
00000000
00000000
00000000
00000000
00000000
00000000
00011000
00000000
00100000
00010000
00000000
10000000
,  // measure 39
00100000
00000000
10000000
00000000
00010000
00000000
01000000
00010000
10000000
00000000
10000000
00000000
01000000
00000000
00000000
00000000
,  // measure 40
00011000
00000000
00000000
00001000
00000000
00000000
00010000
00000100
00001000
00000000
00001000
00000000
00000001
00000100
00000001
00000100
,  // measure 41
00001000
00000000
00000000
00000000
;

//---------------dance-single - ----------------
#NOTES:
     dance-single:
     :
     Medium:
     7:
     0.297,0.301,0.162,0.000,0.040:
0000
0000
0000
0000
,
0000
0000
0000
0000
,
0000
0000
0000
0000
,
0000
0000
0000
0000
,
1000
0000
0001
0000
0100
0001
1000
0100
,
0001
1000
0001
0010
,
1000
0000
0001
0000
1000
0001
1000
0010
,
0001
0100
1000
0000
,
0010
0000
0100
0000
0010
0100
0001
0010
,
0100
0000
1000
0000
0001
0000
0100
0010
,
0000
0000
0000
0000
0010
1000
0100
0000
,
0010
0001
0100
0000
0010
0000
1000
0000
,
1001
0000
0001
0010
,
0110
0000
1000
0010
,
0110
0000
0001
0010
,
0011
0000
0100
1000
,
1100
0001
0100
0010
,
1010
1000
0100
0010
,
0011
0001
0100
0010
,
1000
0100
0001
0100
1000
0001
0000
0000
,
0001
0100
0001
0000
1000
0000
0010
0000
,
1000
0010
1000
0000
0001
0000
0010
0000
,
0100
1000
0100
0000
0010
0000
0001
0000
,
0100
0001
0100
0000
0010
0000
1000
0000
,
0001
0000
0001
0000
0010
0000
0000
0100
0000
0100
0000
1000
0000
0000
0000
0000
,
1000
0000
1000
0000
0010
0000
0000
0100
0000
0100
0000
0001
0000
0000
0000
0000
,
1000
0100
0010
0100
,
0001
0100
1000
0010
,
0001
0010
0001
0000
0001
0010
0010
0000
,
0010
1000
0010
0000
0010
1000
0100
0000
,
0010
0001
0010
0000
0010
0001
0001
0000
,
0100
1000
0010
0001
,
1000
0010
1000
0000
1000
0100
0001
0000
,
0001
0100
0001
0000
0001
0100
1000
0000
,
0100
0001
0010
1000
,
0001
0010
0100
1000
,
1001
0001
0100
0000
0010
0000
0000
0000
,
1001
0000
0000
0000
0000
0000
0000
0000
0000
0000
1001
0000
0000
0110
0000
0000
,
1001
0001
0010
0000
0100
0000
0000
0000
,
1001
0000
0000
0000
1000
0001
1000
0000
,
1001
0000
0000
0000
;

//---------------dance-double - ----------------
#NOTES:
     dance-double:
     :
     Medium:
     8:
     0.299,0.324,0.116,0.000,0.104: // measure 1
00000000
00000000
00000000
00000000
,  // measure 2
00000000
00000000
00000000
00000000
,  // measure 3
00000000
00000000
00000000
00000000
,  // measure 4
00000000
00000000
00000000
00000000
,  // measure 5
10000000
01000000
00100000
00001000
,  // measure 6
00011000
00000000
00000000
00000010
00001000
00000001
00000100
00000001
,  // measure 7
00001000
00000010
00010000
00001000
,  // measure 8
00100000
00000000
00000000
00010000
00000000
00000000
01000000
00000000
00000000
00000000
00000000
00000000
00100000
00000000
00000000
00000000
,  // measure 9
10000000
01000000
00010000
00001000
,  // measure 10
00011000
00000000
00000000
00000010
00001000
00000001
00000010
00000001
,  // measure 11
00000000
00000001
00000010
00001000
,  // measure 12
00010000
01000000
10000000
00100000
,  // measure 13
10010000
00000000
00000000
00000000
00000000
00000000
00000000
00000000
00000000
00000000
10000000
00000000
00000000
01000000
00000000
00000000
,  // measure 14
00100000
00000000
00000000
00000000
00000000
00000000
00000000
00000000
00000000
00000000
00000010
00000000
00000000
00000100
00000000
00000000
,  // measure 15
00001000
00000000
00000000
00000000
00000000
00000000
00000000
00000000
00000000
00000000
00010000
00000000
00000000
01000000
00000000
00000000
,  // measure 16
10000000
00000000
00000000
00000000
00000000
00000000
00000000
00000000
00000000
00000000
01000000
00000000
00000000
00010000
00000000
00000000
,  // measure 17
00001000
00000000
00000000
00000000
00000010
00000000
00000000
00000000
00000001
00000000
00000100
00000000
00000000
00001000
00000000
00000000
,  // measure 18
00010000
00000000
00000000
00000000
01000000
00000000
00000000
00000000
10000000
00000000
00100000
00000000
00000000
00010000
00000000
00000000
,  // measure 19
00001000
00000000
00000010
00000000
00000001
00000010
00000000
00000010
,  // measure 20
00001000
00010000
01000000
00000000
01000000
10000000
00010000
00000000
,  // measure 21
10000000
00100000
01000000
00000000
00001000
00000000
00010000
00000000
,  // measure 22
00000010
00001000
00000001
00000000
00000010
00000000
00000100
00000000
,  // measure 23
00010000
00001000
01000000
00000000
00100000
00000000
01000000
00000000
,  // measure 24
00010000
10000000
01000000
00000000
00100000
00000000
00001000
00000000
,  // measure 25
00000010
00000000
00000001
00000000
00000100
00000000
00000000
00000100
00000000
00001000
00000000
00010000
00000000
00000000
00000000
00000000
,  // measure 26
00010000
00000000
01000000
00000000
10000000
00000000
00000000
10000000
00000000
00100000
00000000
01000000
00000000
00000000
00000000
00000000
,  // measure 27
00100000
10000000
01000000
00010000
,  // measure 28
00001000
00000100
00000001
00000010
,  // measure 29
00000001
00000100
00001000
00000000
00010000
01000000
01000000
00000000
,  // measure 30
10000000
01000000
00010000
00000000
00001000
00000100
00000001
00000000
,  // measure 31
00000001
00000010
00001000
00000000
00010000
00100000
00100000
10000000
,  // measure 32
00000000
01000000
00000000
00010000
00000000
01000000
00000000
10000000
,  // measure 33
00100000
00010000
00001000
00000000
00000010
00000001
00000001
00000000
,  // measure 34
00000001
00000010
00001000
00000000
00010000
00100000
10000000
00010000
,  // measure 35
00100000
00000000
00000000
01000000
00000000
00000000
00010000
00000000
00000000
00001000
00000000
00000000
00000010
00000000
00000000
00000001
,  // measure 36
00000000
00000000
00000010
00000000
00000000
00000001
00000000
00000000
00000100
00000000
00000000
00000000
00001000
00000000
00010000
00000000
,  // measure 37
00011000
00001000
00100000
00000000
01000000
00000000
00000000
00000000
,  // measure 38
10010000
00000000
00010000
00000000
00000000
00000000
00000000
00000000
00000000
00000000
10010000
00000000
00000000
00110000
00000000
00000000
,  // measure 39
00011000
00001000
00000100
00000000
00000001
00000000
00000000
00000000
,  // measure 40
00001001
00000000
00000000
00000000
00000000
00000000
00010000
00001000
,  // measure 41
00011000
00000000
00000000
00000000
;

//---------------dance-double - ----------------
#NOTES:
     dance-double:
     :
     Easy:
     5:
     0.190,0.231,0.069,0.000,0.006: // measure 1
00000000
00000000
00000000
00000000
,  // measure 2
00000000
00000000
00000000
00000000
,  // measure 3
00000000
00000000
00000000
00000000
,  // measure 4
00000000
00000000
00000000
00000000
,  // measure 5
10000000
00000000
01000000
00000000
,  // measure 6
00010000
00000000
00001000
00001000
,  // measure 7
00010000
00000000
00000010
00000000
,  // measure 8
00000001
00000010
00000100
00000000
,  // measure 9
00000001
00000000
00000010
00000000
,  // measure 10
00001000
00000000
00010000
01000000
,  // measure 11
10000000
00000000
00100000
00000000
,  // measure 12
01000000
00001000
00010000
00001000
,  // measure 13
00011000
00000000
00001000
00000100
,  // measure 14
00000001
00000000
00010000
01000000
,  // measure 15
10000000
00000000
00001000
00010000
,  // measure 16
00100000
00000000
00010000
00001000
,  // measure 17
00000010
00000000
00000001
00000100
,  // measure 18
00001000
00000000
10000000
01000000
,  // measure 19
00010000
00000000
00001000
00010000
,  // measure 20
01000000
10000000
00010000
01000000
,  // measure 21
00100000
00000000
00010000
00010000
,  // measure 22
00001000
00000000
00000010
00000100
,  // measure 23
00001000
00000000
00000010
00000010
,  // measure 24
00010000
00000000
01000000
10000000
,  // measure 25
00010000
00000000
01000000
00000000
,  // measure 26
00001000
00000000
00010000
00000000
,  // measure 27
00000001
00000100
00000001
00000100
,  // measure 28
00000010
00001000
00000100
00010000
,  // measure 29
00001000
00001000
01000000
00000000
,  // measure 30
00100000
00100000
10000000
00000000
,  // measure 31
01000000
01000000
00010000
00000000
,  // measure 32
00001000
00010000
00000010
00000100
,  // measure 33
00000001
00000001
00000010
00000000
,  // measure 34
00001000
00001000
00010000
00000000
,  // measure 35
00000100
00000001
00000100
00000010
,  // measure 36
00000001
00000100
00001000
00010000
,  // measure 37
00011000
00010000
01000000
00000000
,  // measure 38
10010000
00000000
00000000
00000000
00000000
00000000
00000000
00000000
00000000
00000000
10000000
00000000
00000000
10000000
00000000
00000000
,  // measure 39
10010000
00010000
01000000
00000000
,  // measure 40
01001000
00000000
00000000
00001000
,  // measure 41
00011000
00000000
00000000
00000000
;

//---------------dance-solo - ----------------
#NOTES:
     dance-solo:
     :
     Hard:
     1:
     0.000,0.000,0.000,0.000,0.000:
000000
000000
000000
000000
;
