#TITLE:Juωpscare!!;
#SUBTITLE:;
#ARTIST:coTatsu;
#TITLETRANSLIT:;
#SUBTITLETRANSLIT:;
#ARTISTTRANSLIT:;
#GENRE:;
#CREDIT:;
#BANNER:Juwpscare!!-banner.png;
#BACKGROUND:Juwpscare!!-bg.png;
#LYRICSPATH:;
#CDTITLE:;
#MUSIC:Juwpscare!!.ogg;
#OFFSET:-0.092500;
#SAMPLESTART:79.518494;
#SAMPLELENGTH:12.000000;
#SELECTABLE:YES;
#BPMS:0.000000=114.000000
,60.000000=116.000000
,62.000000=118.000000
,64.000000=120.000000
,66.000000=122.000000
,68.000000=124.000000
,70.000000=120.000000
,71.000000=117.000000
,72.000000=114.000000
,116.000000=108.000000
,117.000000=100.000000
,119.000000=90.000000
,120.000000=114.000000
,136.000000=116.000000
,138.000000=118.000000
,140.000000=120.000000
,142.000000=122.000000
,144.000000=124.000000
,148.000000=128.000000
,166.000000=124.000000
,176.000000=122.000000
,178.000000=117.000000
,180.000000=115.000000
,182.000000=120.000000
,196.000000=121.000000
,198.000000=122.000000
,200.000000=123.000000
,202.000000=124.000000
,204.000000=124.999992
,206.000000=125.999992
,208.000000=126.999992
,212.000000=128.000000
,223.000000=120.000000
,224.000000=110.000000
,225.000000=100.000000
,226.000000=114.000000
;
#STOPS:
;
#BGCHANGES:;
#KEYSOUNDS:;
#ATTACKS:;

//---------------dance-single - ----------------
#NOTES:
     dance-single:
     :
     Hard:
     15:
     0.735431,0.783251,0.630202,0.736600,0.744784,629.000000,552.000000,77.000000,90.000000,0.000000,0.000000,0.735431,0.783251,0.630202,0.736600,0.744784,629.000000,552.000000,77.000000,90.000000,0.000000,0.000000:
// measure 0
0000
0000
0000
0000
,  // measure 1
0000
0000
0000
0000
,  // measure 2
0000
0000
0000
0000
0000
1000
0100
0010
,  // measure 3
0012
0000
0000
0003
0000
0000
2010
0000
0000
3000
0000
0000
0102
0000
0000
0000
0000
1003
0000
0000
0000
0010
0000
0000
,  // measure 4
2010
0000
0000
3000
0000
0000
0012
0000
0000
0003
0000
0000
2100
0000
0000
0000
0000
3001
0000
0000
0000
0010
0000
0000
,  // measure 5
0011
0000
0000
2000
3000
0000
0001
0000
0200
0300
0001
0100
0001
0100
0001
0100
0001
0100
0002
0000
0000
1003
0000
0100
,  // measure 6
1000
0000
0001
0100
0000
0001
0010
0000
0001
1000
0000
0010
1000
0000
0100
0010
0000
0001
0100
0000
0010
1000
0000
0010
,  // measure 7
0200
0000
0000
0010
0000
0000
0000
0000
0000
0002
0000
0000
0003
0000
0000
0301
0000
0000
0001
0000
0001
0000
0001
0000
,  // measure 8
0001
0010
0100
0100
0010
0001
1000
0100
0010
0010
0100
2000
,  // measure 9
0000
0000
3000
0000
0102
0003
2100
3000
,  // measure 10
1002
0000
0000
0000
0000
0000
1003
0000
0001
0000
0000
0110
0000
0000
0110
0000
0000
0001
1000
0000
0000
0000
0000
0000
,  // measure 11
0000
1000
1020
1030
0021
0031
1020
1030
,  // measure 12
0021
0000
0000
0031
0000
0000
1020
0000
0000
1030
0000
0000
0100
0000
0000
1000
0000
0010
0100
0000
0001
0010
0000
0000
,  // measure 13
0000
0001
0201
0301
1200
1300
0201
0301
,  // measure 14
1200
0000
0000
1300
0000
0000
0201
0000
0000
0301
0000
0000
0100
0000
0000
0010
0100
0010
0100
0000
0100
0010
0000
0010
,  // measure 15
1000
0001
0102
0103
0012
0013
0102
0103
,  // measure 16
2010
0000
0000
3010
0000
0000
2100
0000
0000
3100
0000
0000
2010
0000
0000
3010
0000
1000
0100
0000
0010
0001
0000
0000
,  // measure 17
1000
0000
1000
0010
0000
0010
0100
0000
0100
0001
0000
0001
2000
0000
0000
0100
0000
0000
3002
0000
0000
0003
0000
0000
,  // measure 18
1001
0000
0000
0000
0000
0000
0001
0000
1000
0100
0000
0100
0001
0000
1000
0100
0000
0100
0001
0000
1000
0100
0000
0100
,  // measure 19
0002
0000
0000
0023
0000
0000
0230
0000
0000
2300
0000
3001
0100
0000
0001
1000
0100
0010
0100
0000
1000
0100
0000
0000
,  // measure 20
1000
0000
0001
0020
0030
0001
0100
0000
0100
0020
0030
1000
0001
0000
0001
0020
0030
0001
0100
0000
0001
0100
0000
0000
,  // measure 21
0001
0000
1000
0200
0300
2000
0000
3000
0001
0200
0300
0001
0010
0000
0010
0100
0000
1000
0002
0000
0000
0000
0003
0000
,  // measure 22
1000
0000
0100
0010
0000
0000
0011
0000
0000
1100
0000
0000
0001
0000
0100
0010
0000
2000
0000
0000
0000
0000
3000
0000
,  // measure 23
0001
0000
0010
0100
0000
0000
1100
0000
0000
0011
0000
0000
1000
0000
0010
0100
0000
0002
0000
0003
1000
0100
0000
0000
,  // measure 24
0010
0000
0100
0010
0000
0000
0100
0000
0000
1000
0000
0000
0010
0000
0100
0001
0000
0010
0000
0000
0001
0010
0000
0100
,  // measure 25
1000
0100
1000
0100
1000
0100
0010
0000
0000
0001
0000
0000
0001
0100
0001
0100
0001
0100
0010
0000
0000
1000
0000
0000
,  // measure 26
0002
0000
0003
0010
0000
0100
2000
0000
0000
0000
0000
0000
3002
0000
0000
0000
0000
0000
1003
0000
0000
0010
0000
0000
,  // measure 27
2000
0100
3002
0010
,  // measure 28
2003
0000
0001
0000
0002
0000
0000
3003
,  // measure 29
0002
0003
0020
0030
0200
0300
2000
3000
,  // measure 30
0001
1000
1200
1300
0201
0301
1200
1300
,  // measure 31
0201
0000
0000
0301
0000
0000
1200
0000
0000
1300
0000
0000
0100
0000
0000
1000
0000
0001
0010
0000
0100
1000
0000
0000
,  // measure 32
0000
0001
0201
0301
1200
1300
0201
0301
,  // measure 33
1200
0000
0000
1300
0000
0000
0201
0000
0000
0301
0000
0000
1000
0000
0000
0100
0010
0100
0010
0000
0010
0001
0000
0001
,  // measure 34
1000
0001
0102
0013
2010
3100
0012
0103
,  // measure 35
2100
0000
0000
3010
0000
0000
0102
0000
0000
1003
0000
0000
0001
0000
0000
1000
0000
0100
1000
0000
0010
0100
0000
0000
,  // measure 36
0001
0000
0010
0001
0000
0000
1000
0000
0010
1000
0000
0000
0002
0000
0000
0100
0000
0003
2000
0000
0000
0100
0000
3000
,  // measure 37
1001
0010
1001
0010
1001
0010
2000
3000
,  // measure 38
0001
0000
0100
0010
0000
0000
0110
0000
0000
1010
0000
0000
1000
0000
0010
0100
0000
0002
0000
0003
1000
0001
0000
0000
,  // measure 39
1000
0000
0100
0010
0000
0000
0110
0000
0000
0011
0000
0000
1000
0000
0001
0100
0000
0020
0000
0030
0100
1000
0000
0000
,  // measure 40
0100
0000
0001
0010
0000
0000
0011
0000
0000
1001
0000
0000
1000
0000
0001
0100
0000
0020
0000
0030
0100
0010
0000
0000
,  // measure 41
1000
0000
0100
0010
0000
0000
0011
0000
0000
1001
0000
0000
1010
0000
0000
0000
0000
0000
0000
0000
0000
0000
0000
0000
,  // measure 42
0010
0000
1000
0010
0000
0100
0010
0000
1000
0010
0000
0100
0001
0000
0100
0010
0000
0100
1000
0000
0100
0001
0000
1000
,  // measure 43
0001
0000
0100
0001
0000
0010
0100
0000
0010
1000
0000
0010
0100
0000
0010
0001
0000
0000
1000
0100
1000
0100
0000
0000
,  // measure 44
1000
0000
0001
0100
0001
1000
0010
0000
1000
0100
0000
0100
0010
0000
0000
0001
0000
0010
0002
0003
0020
0030
0200
0300
,  // measure 45
1000
0010
0110
0100
0001
0010
1001
0100
,  // measure 46
0001
0010
0110
0100
1000
0010
1001
0100
,  // measure 47
0010
1000
0101
0100
0001
0010
1100
0001
,  // measure 48
0010
0000
0000
0001
0000
0000
0101
0000
0000
1000
0000
0000
0001
0000
0000
0010
0000
0001
0100
0000
0010
1000
0000
0100
,  // measure 49
0010
0000
0000
0100
0000
1000
0010
0000
0100
0001
0000
0010
0100
0000
0000
1000
0000
0001
0010
0000
0000
0001
0000
0000
,  // measure 50
0011
0000
0000
0010
0000
0001
0100
0000
0000
0010
0000
0000
1010
0000
0000
0010
0000
1000
0100
0000
0000
0010
0000
0000
,  // measure 51
0110
0000
0000
1000
0100
1000
0100
0000
0000
0010
0001
0010
0001
0000
0000
1000
0010
1000
0010
0000
0000
0100
0001
0100
,  // measure 52
0010
0000
0000
0000
0000
0000
1000
0000
0100
0000
0000
0110
0000
0000
0011
0000
0000
1001
0000
0000
2100
0000
0000
0000
,  // measure 53
3002
0000
0000
0000
0003
0000
1000
0000
0001
0100
0000
0100
1000
0000
0001
0100
0000
0100
1000
0000
0020
0000
0000
0000
,  // measure 54
0230
0000
0300
0001
0010
0001
0010
0000
0100
0000
1000
0000
0001
0000
0000
1001
0000
0000
1001
0000
0000
2001
0000
0000
,  // measure 55
3010
0000
0000
0020
0030
1000
0001
0000
1000
0020
0030
1000
0001
0000
1000
0020
0030
1000
0200
0000
0000
0000
0000
0000
,  // measure 56
0000
0000
0000
0000
0000
0000
0300
0000
1000
0100
0000
0010
0001
0010
0001
0010
0001
0010
0100
0000
0000
1000
0000
0000
,  // measure 57
1000
0010
1000
0010
1000
0010
0100
0000
0000
0001
0000
0000
1000
0000
0000
0010
0000
0100
0001
0000
0000
0100
0000
0000
,  // measure 58
1000
0000
0000
0000
;

//---------------dance-single - ----------------
#NOTES:
     dance-single:
     :
     Medium:
     11:
     0.492236,0.545902,0.302824,0.572911,0.233257,421.000000,384.000000,37.000000,70.000000,0.000000,0.000000,0.492236,0.545902,0.302824,0.572911,0.233257,421.000000,384.000000,37.000000,70.000000,0.000000,0.000000:
0000
0000
0000
0000
,
0000
0000
0000
0000
,
0000
0000
0000
0000
0000
0001
0100
0010
,
2000
0000
0000
3000
0000
0000
0002
0000
0000
0003
0000
0000
1000
0000
0000
0000
0000
0100
0000
0000
0000
0010
0000
0000
,
0002
0000
0000
0003
0000
0000
2000
0000
0000
3000
0000
0000
0001
0000
0000
0000
0000
0100
0000
0000
0000
0010
0000
0000
,
1000
0000
0000
0001
0000
0000
0100
0000
0010
0000
0000
1000
0010
0000
1000
0010
0000
1000
0010
0000
0000
0100
0000
0000
,
0001
0000
0000
0010
0000
0000
0100
0000
0000
1000
0000
0000
0001
0000
0100
0001
0000
0000
1000
0000
0100
1000
0000
0000
,
0001
0000
0000
0010
0000
0000
0000
0000
0000
0120
0000
0000
0000
0000
0000
0031
0000
0000
1000
0000
0100
0000
1000
0000
,
0100
0000
0010
0001
0000
1000
0010
0000
0100
0001
0000
2002
,
0000
3003
0110
1001
,
2000
0000
0000
3000
0000
0000
0001
0000
0100
0000
0000
0100
0000
0000
0100
0000
0000
0100
0010
0000
0000
0000
0000
0000
,
0000
2000
0001
3002
0010
0023
0100
0230
,
1000
1300
0001
0100
0001
0010
0100
1000
,
0000
0002
0100
0203
0010
0320
1000
1030
,
0001
0000
0000
0010
0000
0000
1000
0000
0000
0010
0000
0000
0001
0000
0000
1000
0000
0100
1000
0000
0100
1000
0000
0000
,
0002
0100
0203
0010
0320
1000
2030
0100
,
3200
0010
0320
0001
0031
1000
0100
0010
,
0001
0010
1000
0010
0110
0000
1100
0000
,
1001
0000
0000
0000
0000
0000
1000
0000
0100
1000
0000
0000
0010
0000
0100
0010
0000
0000
1000
0000
0100
1000
0000
0000
,
0002
0003
0000
0002
0003
0000
0002
0003
0000
0002
0003
0000
1000
0000
0000
0001
0000
1000
0100
0000
0000
0000
0000
0000
,
0010
0110
0000
0011
0000
1001
0100
0000
,
0010
1010
0000
1100
0000
1001
2000
3000
,
0001
0000
0000
0100
0000
0000
0010
0000
0000
1000
0000
0000
0001
0000
0000
1000
0000
0002
0000
0000
0000
0003
0000
0000
,
1000
0000
0000
0100
0000
0000
0010
0000
0000
0001
0000
0000
1000
0000
0000
0001
0000
1000
0000
0000
0001
1000
0000
0000
,
0010
0000
0000
0100
0000
0000
0010
0000
0000
0100
0000
0000
0010
0000
0000
0100
0000
0010
0000
0000
1000
0100
0000
0000
,
0020
0000
0031
0001
0200
0000
0301
0001
,
2000
0100
3002
0100
,
0023
0100
0032
0100
,
2003
0100
3002
0000
,
2003
3000
0200
0300
0020
0030
0002
0003
,
0001
0020
0100
0230
1000
2300
0010
3020
,
0100
0000
0000
0230
0000
0000
0001
0000
0000
0301
0000
0000
0010
0000
0000
0010
0000
0000
0100
0000
1000
0100
0000
0000
,
0000
0020
0001
0032
0100
0203
0010
0320
,
1000
2030
0100
3100
2000
0000
0000
3000
,
0002
0010
2003
0010
3002
0100
2003
0100
,
3002
0010
0203
0010
0320
1000
0230
0001
,
0310
1000
0100
0010
0110
0000
1001
0000
,
0001
0001
0001
1001
,
0001
0000
0000
0100
0000
0000
0010
0000
0000
1000
0000
0000
1010
0000
0000
0000
0000
0102
0000
0000
0000
0003
0000
0000
,
1000
0000
0000
0100
0000
0000
0010
0000
0000
0001
0000
0000
0011
0000
0000
0000
0000
1100
0000
0000
0000
1001
0000
0000
,
1000
0000
0000
0100
0000
0000
0001
0000
0000
0100
0000
0000
1100
0000
0000
0000
0000
0012
0000
0000
0000
0003
0000
0000
,
0100
0010
1000
0100
0010
0000
0000
0000
,
0010
0000
0100
0010
0000
0000
0100
0000
0000
1000
0000
0000
0010
0000
0100
0001
0000
0020
0000
0000
0000
0030
0000
0000
,
0100
0000
0010
0100
0000
0000
1000
0000
0000
0010
0000
0000
0100
0000
0010
1000
0000
0200
0000
0300
1000
0001
0000
0000
,
0001
0000
1000
0010
0000
1000
0100
0000
0000
1000
0000
0000
1001
0000
0000
0000
0000
0000
0001
0000
0010
0000
0100
0000
,
1000
0100
0110
0000
0001
0100
0110
0000
,
0010
1000
1100
0000
0010
0001
0101
0000
,
0001
1000
1010
0000
1000
0001
0011
0000
,
0010
0000
0000
0100
0000
0000
1000
0000
0000
0010
0000
0000
0100
0000
0000
0002
0000
0003
0020
0000
0030
0100
0000
1000
,
0100
0000
0000
2000
0000
3000
0020
0000
0030
0100
0000
0001
0100
0000
0000
0001
0000
0000
1001
0000
0000
0000
0000
0000
,
0100
0010
0110
0000
0001
0010
0011
0000
,
1000
0100
0001
0100
1000
0010
0001
0010
,
1000
0000
0000
0000
0000
0000
0100
0000
0010
0000
0000
0001
0000
0000
0001
0000
0000
0001
0000
0000
0002
0000
0000
0000
,
1003
0000
0000
0000
0000
0000
0010
0000
1000
0001
0000
0000
0010
0000
0001
1000
0000
0000
0000
0000
0100
0000
0000
0000
,
0100
0000
0000
1000
0000
0000
0001
0000
0100
0000
0001
0000
0000
0000
0000
1000
0000
0000
1000
0000
0000
1000
0000
0000
,
1001
1010
0000
0011
0000
1010
0002
0000
,
0000
0000
0003
0000
2000
0000
3010
0010
,
2000
0000
0000
0000
0000
0000
3100
0000
0000
0100
0000
0000
1000
0000
0000
0001
0000
0100
0001
0000
0000
1000
0000
0000
,
0100
0000
0000
0000
;

//---------------dance-single - ----------------
#NOTES:
     dance-single:
     :
     Easy:
     8:
     0.320363,0.356023,0.188242,0.433776,0.040922,274.000000,251.000000,23.000000,53.000000,0.000000,0.000000,0.320363,0.356023,0.188242,0.433776,0.040922,274.000000,251.000000,23.000000,53.000000,0.000000,0.000000:
0000
0000
0000
0000
,
0000
0000
0000
0000
,
0000
0000
0000
0000
,
1000
0000
0000
0000
0000
0000
0020
0000
0000
0000
0000
0030
0100
0000
0000
0000
0000
0000
0100
0000
0000
0000
0000
0000
,
0001
0000
0000
0000
0000
0000
0020
0000
0000
0000
0000
0030
0100
0000
0000
0000
0000
0000
0100
0000
0000
0000
0000
0000
,
1000
0000
0001
0000
1000
0001
0100
0000
,
0001
0010
0001
0000
1000
0010
1000
0000
,
0001
1000
0000
2000
3000
1000
0001
0000
,
1000
0000
1000
0100
0000
0000
0100
0000
0100
0010
0000
0010
,
0002
1000
0103
0010
,
1000
0000
0001
0000
1000
0001
0010
0000
,
0000
0020
0230
0320
,
0230
0000
0320
0000
0130
1000
0001
0100
,
0000
0020
2030
3002
,
0203
0302
0023
0000
,
0030
0200
0320
0230
,
0320
0000
0230
0000
0310
0001
1000
0010
,
0100
0100
0100
0000
0110
0000
1001
0000
,
0001
0000
1000
0100
0001
0100
1000
0100
,
2000
3000
0020
0030
0200
0000
0300
0000
0001
0000
0010
0000
0200
0000
0300
0000
,
0000
1000
0000
1001
0000
0011
0000
0000
,
0000
0001
0000
1001
0000
1010
2000
0000
,
3001
0000
0000
0100
0000
0000
0010
0000
0000
0000
0000
0000
1000
0000
0000
0000
0000
2000
0000
0000
0000
3000
0000
0000
,
1000
0000
0000
0100
0000
0000
0010
0000
0000
0000
0000
0000
0001
0000
0000
0000
0000
0001
0000
0000
0000
0001
0000
0000
,
0100
0000
0000
0010
0000
0000
0100
0000
0000
0000
0000
0000
0010
0000
0000
0000
0000
0010
0000
0000
0000
0000
0000
0000
,
0120
1030
0210
0301
,
2000
3000
0002
0003
,
2000
3000
0002
0003
,
2000
3000
0002
0003
,
2000
0000
0000
3000
,
0000
0002
2003
3020
,
0230
0000
0320
0000
1030
0100
0010
0001
,
0000
2000
3002
0023
,
0230
2300
3002
0000
,
1003
0100
1000
0000
0001
0100
0001
0000
,
1000
0010
1000
0000
0001
0010
0001
0000
,
1000
0100
0010
0000
0011
0000
1001
0000
,
1100
0100
0100
0000
,
1000
0000
0000
0001
0000
0000
0010
0000
0000
0000
0000
0000
0100
0000
0000
0000
0000
0200
0000
0000
0000
0300
0000
0000
,
1000
0000
0000
0001
0000
0000
0100
0000
0000
0000
0000
0000
0010
0000
0000
0000
0000
0010
0000
0000
0000
0100
0000
0000
,
0001
0000
0000
1000
0000
0000
0100
0000
0000
0000
0000
0000
0010
0000
0000
0000
0000
0020
0000
0000
0000
0030
0000
0000
,
0001
1000
0010
0000
0100
0000
0000
0000
,
1000
0100
0001
0000
0001
0100
1000
0000
,
0001
0010
1000
0000
1000
0010
0001
0000
,
1000
0001
0100
0010
1000
0000
0000
0000
,
0001
1001
1000
1010
,
1000
1001
0001
0011
,
1000
0100
0010
0000
0001
0000
0101
0000
,
0001
0100
0010
0000
1000
0000
1100
0000
,
1000
0001
0010
0000
0001
1000
0010
0000
,
1000
0001
0100
0000
0001
1000
0100
0000
,
1000
0110
0001
0110
,
1000
0000
0000
0000
0000
0000
0001
0000
0000
0000
0000
2002
0000
0000
0000
0000
0000
0000
3003
0000
0000
0000
0000
0000
,
1000
0000
0001
0100
1000
0100
0001
0000
,
1001
0000
1000
0010
0001
0010
0010
0010
,
2000
0001
0000
0001
0000
3001
1000
0000
,
0000
0000
0012
1003
,
2010
0000
3001
0000
0001
0100
0010
0000
,
1000
0000
0000
0000
;

//---------------dance-single - ----------------
#NOTES:
     dance-single:
     :
     Beginner:
     4:
     0.147320,0.187424,0.081844,0.204611,0.000000,126.000000,116.000000,10.000000,25.000000,0.000000,0.000000,0.147320,0.187424,0.081844,0.204611,0.000000,126.000000,116.000000,10.000000,25.000000,0.000000,0.000000:
0000
0000
0000
0000
,
0000
0000
0000
0000
,
0000
0000
0000
0000
,
1000
0000
0001
0000
,
0100
0000
0010
0000
,
1000
1000
1000
0000
,
2000
0000
3000
0000
,
0001
0000
0100
0000
,
0010
0010
0010
0000
,
1000
0000
0001
0000
,
0100
0100
0100
0000
,
0000
0002
0003
0002
,
0003
2000
3000
2000
,
3000
0002
0003
0002
,
0003
1000
2000
3000
,
0000
0020
0030
0200
,
0300
0020
0030
0100
,
0100
0100
0100
0000
,
1001
0001
0100
0000
,
0010
1000
0100
0000
,
1000
0001
0010
0000
,
0001
0100
0010
0000
,
1000
0000
1001
0000
,
0001
0000
1001
0000
,
1000
0000
0000
0000
,
0002
0003
2000
3000
,
0002
0000
0003
0000
,
2000
0000
3000
0000
,
0002
0000
0003
0000
,
2000
0000
3000
0000
,
0000
0002
0003
0020
,
0030
0200
0300
2000
,
3000
2000
3000
0200
,
0300
0010
0020
0030
,
0001
0000
0001
0000
,
1000
0000
1000
0000
,
0010
0100
0010
0000
,
1000
1000
1000
0000
,
1001
0000
0001
0000
,
1001
0000
1000
0000
,
0110
0000
0010
0000
,
0110
0000
0100
0000
,
0001
0001
0001
0000
,
1000
1000
1000
0000
,
0010
0010
0010
0010
,
0010
0000
0000
0000
,
0100
0000
0001
0000
,
1000
0000
0010
0000
,
1000
0000
0100
0000
,
0010
0000
0001
0000
,
1000
0000
0001
0000
,
0010
0000
0100
0000
,
1000
0000
0010
0000
,
1001
0000
0000
0000
,
1001
0000
0000
0100
,
1001
0000
0000
0200
,
0000
0300
0010
0010
,
0100
0100
0000
0000
;
