#VERSION:0.83;
#TITLE:Just Fine;
#SUBTITLE:;
#ARTIST:Mary J. Blige;
#TITLETRANSLIT:;
#SUBTITLETRANSLIT:;
#ARTISTTRANSLIT:;
#GENRE:;
#ORIGIN:;
#CREDIT:;
#BANNER:Just Fine.png;
#BACKGROUND:Just Fine-bg.png;
#PREVIEWVID:;
#JACKET:Just Fine-jacket.png;
#CDIMAGE:;
#DISCIMAGE:;
#LYRICSPATH:;
#CDTITLE:;
#MUSIC:Just Fine.ogg;
#OFFSET:-0.679000;
#SAMPLESTART:47.282677;
#SAMPLELENGTH:15.853661;
#SELECTABLE:YES;
#BPMS:0.000=123.000;
#STOPS:;
#DELAYS:;
#WARPS:;
#TIMESIGNATURES:0.000=4=4;
#TICKCOUNTS:0.000=4;
#COMBOS:0.000=1;
#SPEEDS:0.000=1.000=0.000=0;
#SCROLLS:0.000=1.000;
#FAKES:;
#LABELS:0.000=Song Start;
#BGCHANGES:;
#KEYSOUNDS:;
#ATTACKS:
;

//---------------dance-single - ----------------
#NOTEDATA:;
#CHARTNAME:;
#STEPSTYPE:dance-single;
#DESCRIPTION:;
#CHARTSTYLE:;
#DIFFICULTY:Challenge;
#METER:13;
#RADARVALUES:0.504174,0.602948,0.135739,0.000000,0.392674,364.000000,350.000000,14.000000,0.000000,0.000000,0.000000,0.000000,0.000000,0.000000,0.504174,0.602948,0.135739,0.000000,0.392674,364.000000,350.000000,14.000000,0.000000,0.000000,0.000000,0.000000,0.000000,0.000000;
#CREDIT:hdm300;
#NOTES:
// measure 0
0000
0000
0000
0000
,  // measure 1
0000
0000
0000
0000
,  // measure 2
0000
0000
0000
0000
,  // measure 3
0000
0000
0000
0000
,  // measure 4
0001
0000
0000
0000
0001
0000
0000
0000
0001
0000
0001
0010
0000
0000
0000
0000
,  // measure 5
1000
0000
0000
0000
1000
0000
0000
0000
1000
0000
1000
0010
0000
0000
1000
0000
,  // measure 6
0001
0001
1000
1000
,  // measure 7
0010
0000
0000
0010
1000
0000
1000
0000
0001
0000
0010
0000
0100
1000
0000
0000
,  // measure 8
0001
0000
0100
0000
0010
0000
0000
0000
0010
0000
0100
0001
0000
0000
0000
0000
,  // measure 9
0001
0000
0010
0001
0010
0000
0100
0000
1000
0000
0010
0000
1010
0000
0000
0000
,  // measure 10
0010
0000
0100
0000
0001
0000
0000
0000
0001
0000
0010
0100
0000
0000
0000
0000
,  // measure 11
0100
0000
0010
0001
0010
0000
0001
0000
1000
0000
0010
0000
0100
0001
0000
0000
,  // measure 12
1000
0000
0100
0000
0010
0000
0000
0000
0010
0000
0100
1000
0000
0000
0000
0000
,  // measure 13
1000
0000
0010
1000
0010
0000
0100
0000
0001
0000
0010
0000
0100
0000
1000
0000
,  // measure 14
0001
0100
0001
0100
1000
0100
1000
0100
,  // measure 15
0001
0000
0010
0000
0001
0000
0010
0000
1000
0000
0010
0000
0001
1000
0000
0000
,  // measure 16
1010
0000
0011
0001
1000
0010
0100
1000
,  // measure 17
0000
0000
0100
1000
0100
0000
0010
0000
1000
0000
0001
0000
1001
0000
0000
0000
,  // measure 18
0011
0000
1010
1000
0001
0010
0100
0001
,  // measure 19
0000
0000
0100
0001
0100
0000
0010
0000
0001
0000
0100
0000
0010
1000
0000
0000
,  // measure 20
0001
0010
0100
0000
0010
0001
0100
1000
,  // measure 21
0000
0000
0100
1000
0100
0000
0010
0000
1000
0000
0000
0000
0001
0000
1000
0100
,  // measure 22
1000
0000
0000
0000
0101
0000
0000
0000
1100
0000
0000
0001
0100
0000
0000
1000
,  // measure 23
0100
0000
0000
0001
0100
0000
0000
1000
0100
0000
0010
0000
0001
1000
0000
0000
,  // measure 24
0001
0000
0010
0001
0010
0000
0100
0010
0100
0010
0100
0000
1000
0000
0100
1000
,  // measure 25
0100
0000
1000
0001
1000
0000
0010
0000
0100
0000
0010
0000
0110
0000
0000
0000
,  // measure 26
1000
0000
0010
1000
0010
0000
1000
0001
1000
0000
0100
1000
0100
0000
0010
0000
,  // measure 27
0100
0010
0100
0000
0010
0000
0001
0000
1000
0000
0010
0000
0100
0001
0000
0000
,  // measure 28
1000
0000
0100
0000
0010
0000
0100
1000
0000
0010
0100
0000
0010
1000
0000
0100
,  // measure 29
0010
0000
0100
1000
0100
0000
0010
0000
0001
0000
1000
0000
1001
0000
0000
0000
,  // measure 30
0001
0000
0000
0001
0100
0000
0000
0100
1000
0000
0000
1000
0010
0000
0000
0000
,  // measure 31
1000
0000
0000
1000
0100
0000
0000
0100
0001
0000
1000
0000
0100
0010
0000
0000
,  // measure 32
0100
0010
0100
0010
,  // measure 33
0100
0000
0000
0000
0010
0000
0000
0000
0100
0000
0010
0100
0010
0001
0010
0001
,  // measure 34
1000
0001
1000
0001
,  // measure 35
1000
0000
0000
0000
0001
0000
0000
0000
1000
0000
1000
0001
1000
0010
1000
0010
,  // measure 36
0100
0010
0100
0010
,  // measure 37
0100
0000
0000
0000
0010
0000
0000
0000
0100
0000
0010
0100
0010
1000
0010
1000
,  // measure 38
0001
0000
0000
0001
0010
0000
0000
0010
1000
0000
0000
1000
0100
0000
0000
0000
,  // measure 39
1000
0000
0000
1000
0010
0000
0000
0010
0001
0000
1000
0000
0010
0100
0001
1000
,  // measure 40
0001
0000
0010
0001
0010
0000
0100
0010
0100
0010
0100
0000
1000
0000
0100
1000
,  // measure 41
0100
0000
1000
0001
1000
0000
0010
0000
0100
0000
0010
0000
0110
0000
0000
0000
,  // measure 42
1000
0000
0010
1000
0010
0000
1000
0001
1000
0000
0100
1000
0100
0000
0010
0000
,  // measure 43
0100
0010
0100
0000
0010
0000
0001
0000
1000
0000
0010
0000
0100
0001
0000
0000
,  // measure 44
1000
0000
0100
0000
0010
0000
0100
1000
0000
0010
0100
0000
0010
1000
0000
0100
,  // measure 45
0010
0000
0100
1000
0100
0000
0010
0000
0001
0000
1000
0000
1001
0000
0000
0000
,  // measure 46
0001
0000
0000
0001
0100
0000
0000
0100
1000
0000
0000
1000
0010
0000
0000
0000
,  // measure 47
1000
0000
0000
1000
0100
0000
0000
0100
0001
0000
1000
0000
0100
0010
0000
0000
,  // measure 48
1001
0000
0000
0000
,  // measure 49
0000
0000
0000
1000
0001
0000
0010
0000
0100
0000
1000
0000
1001
0000
0000
0000
;

//---------------dance-single - ----------------
#NOTEDATA:;
#CHARTNAME:;
#STEPSTYPE:dance-single;
#DESCRIPTION:;
#CHARTSTYLE:;
#DIFFICULTY:Hard;
#METER:9;
#RADARVALUES:0.326882,0.385887,0.242391,0.000000,0.000000,236.000000,211.000000,25.000000,0.000000,0.000000,0.000000,0.000000,0.000000,0.000000,0.326882,0.385887,0.242391,0.000000,0.000000,236.000000,211.000000,25.000000,0.000000,0.000000,0.000000,0.000000,0.000000,0.000000;
#CREDIT:;
#NOTES:
0000
0000
0000
0000
,
0000
0000
0000
0000
,
0000
0000
0000
0000
,
0000
0000
0000
0000
,
0001
0001
0001
0000
,
1000
1000
1000
0000
,
0100
0100
0010
0010
,
0001
0000
0001
0000
1000
0001
1000
0000
,
0001
0100
0010
0000
1000
0000
0001
0000
,
1000
0100
0001
0000
1000
0000
0110
0000
,
1000
0100
0010
0000
0001
0000
1000
0000
,
0001
0100
1000
0000
0001
0000
0110
0000
,
0001
0010
0100
0000
1000
0000
0001
0000
,
1000
0010
0001
0000
1000
0000
0100
0000
,
0001
0010
1000
0100
,
1000
0010
0001
1000
,
0001
0000
0100
0000
1000
0100
0001
0000
,
1000
0000
0100
0000
0001
0100
1000
0000
,
1000
0000
0010
0000
0001
0010
1000
0000
,
0001
0000
0010
0000
1000
0010
0001
0000
,
1000
0010
0100
0000
0001
0010
0100
0000
,
1000
0100
0010
0000
0001
0000
1000
0000
,
0001
0100
1000
0010
,
1000
0100
0001
1000
,
0001
0010
0001
0000
0010
1000
0010
0000
,
1000
0100
1000
0000
0100
0000
0001
0000
,
1000
0100
1000
0000
0100
0001
0100
0000
,
0001
0010
0001
0000
0010
0000
1000
0000
,
0001
0010
0100
0000
1100
0000
0101
0000
,
1000
0010
0100
0000
0110
0000
1000
0000
,
0001
0010
1000
0100
,
1000
0010
0001
1000
,
0101
1100
0101
1100
,
0101
1100
0001
0010
,
0011
1010
0011
1010
,
0011
1010
0001
0100
,
0101
0011
1010
1100
,
0101
0011
1000
0001
,
1000
0100
0001
0010
,
0001
0100
1000
0001
,
1000
0010
1000
0000
0010
0001
0010
0000
,
0001
0100
0001
0000
0100
0000
1000
0000
,
0001
0100
0001
0000
0100
1000
0100
0000
,
1000
0010
1000
0000
0010
0000
0001
0000
,
1000
0010
0100
0000
0001
0010
0100
0000
,
1000
0100
0010
0000
0001
0000
1000
0000
,
0001
0010
1000
0100
,
1000
0010
0001
1000
,
1001
0000
0000
0000
,
0000
0000
0001
0001
1000
0001
1001
0000
;

//---------------dance-single - ----------------
#NOTEDATA:;
#CHARTNAME:;
#STEPSTYPE:dance-single;
#DESCRIPTION:;
#CHARTSTYLE:;
#DIFFICULTY:Medium;
#METER:6;
#RADARVALUES:0.242391,0.265297,0.048478,0.000000,0.000000,175.000000,170.000000,5.000000,0.000000,0.000000,0.000000,0.000000,0.000000,0.000000,0.242391,0.265297,0.048478,0.000000,0.000000,175.000000,170.000000,5.000000,0.000000,0.000000,0.000000,0.000000,0.000000,0.000000;
#CREDIT:;
#NOTES:
0000
0000
0000
0000
,
0000
0000
0000
0000
,
0000
0000
0000
0000
,
0000
0000
0000
0000
,
0001
0001
0001
0000
,
1000
1000
1000
0000
,
0010
0010
0100
0100
,
0001
0001
1000
1001
,
1000
0100
0010
1100
,
0001
0100
1000
0010
,
0001
0100
0010
0101
,
1000
0100
0001
0010
,
1000
0100
0010
1100
,
0001
0100
1000
0010
,
0001
0000
1000
0000
,
0001
1000
0001
1000
,
0001
0100
1000
0100
,
0001
0000
1000
0000
0001
0001
0000
0000
,
1000
0100
0001
0100
,
1000
0000
0001
0000
1000
1000
0000
0000
,
0010
0100
0001
1000
,
0100
0001
0001
0100
,
1000
0010
0100
0001
,
0010
1000
0100
0001
,
0010
1000
0010
0001
,
0100
1000
0001
0010
,
0100
1000
0100
0001
,
0010
1000
0001
0100
,
1000
0010
0001
1000
,
0100
0001
0010
0100
,
1000
0000
0001
0000
,
1000
0001
1000
0001
,
0100
0100
1000
1000
,
0010
0010
0001
1000
,
0010
0010
0001
0001
,
0100
0100
1000
0010
,
0001
0001
0100
0100
,
1000
1000
0010
0000
,
1000
0000
0001
0000
,
1000
0001
1000
0001
,
0010
1000
0010
0001
,
0100
1000
0001
0010
,
0100
1000
0100
0001
,
0010
1000
0001
0100
,
1000
0010
0001
1000
,
0100
0001
0010
0100
,
1000
0000
0001
0000
,
1000
0001
1000
0001
,
1001
0000
0000
0000
,
0000
0000
1000
0000
0001
1000
0001
0000
;

//---------------dance-single - ----------------
#NOTEDATA:;
#CHARTNAME:;
#STEPSTYPE:dance-single;
#DESCRIPTION:;
#CHARTSTYLE:;
#DIFFICULTY:Easy;
#METER:4;
#RADARVALUES:0.163441,0.168826,0.009696,0.000000,0.000000,118.000000,117.000000,1.000000,0.000000,0.000000,0.000000,0.000000,0.000000,0.000000,0.163441,0.168826,0.009696,0.000000,0.000000,118.000000,117.000000,1.000000,0.000000,0.000000,0.000000,0.000000,0.000000,0.000000;
#CREDIT:;
#NOTES:
0000
0000
0000
0000
,
0000
0000
0000
0000
,
0000
0000
0000
0000
,
0000
0000
0000
0000
,
1000
1000
1000
0000
,
0001
0001
0001
0000
,
1000
0000
0100
0000
,
0010
0000
0001
0000
,
1000
1000
0000
0000
,
0001
0100
0010
0000
,
0001
0001
0000
0000
,
1000
0100
0010
0000
,
1000
1000
0000
0000
,
0010
0100
0001
0000
,
1000
0000
0100
0000
,
0001
0000
0010
0000
,
1000
0001
1000
0000
,
0001
0100
0010
0000
,
0100
0010
0100
0000
,
0010
0100
0001
0000
,
1000
0001
1000
0000
,
0100
0010
0001
0000
,
1000
0000
0010
0000
,
0001
0000
0100
0000
,
1000
1000
0000
1000
,
0001
0001
0000
0001
,
0100
0100
0000
0100
,
0010
0010
0000
0010
,
1000
0000
0001
0000
,
0010
0000
0100
0000
,
1000
0000
0010
0000
,
0001
0000
0100
0000
,
1000
0010
0000
0010
,
1000
0100
0100
0000
,
0010
0100
0000
0100
,
0010
0001
0001
0000
,
0001
0100
0000
0100
,
0001
0010
0010
0000
,
0001
0000
0100
0000
,
1000
0000
0010
0000
,
0001
0001
0000
0001
,
1000
1000
0000
1000
,
0100
0100
0000
0100
,
0010
0010
0000
0010
,
0001
0000
1000
0000
,
0010
0000
0100
0000
,
0001
0000
0010
0000
,
1000
0000
0100
0000
,
0001
0000
0000
0000
,
0000
1000
1000
1001
;

//---------------dance-single - ----------------
#NOTEDATA:;
#CHARTNAME:;
#STEPSTYPE:dance-single;
#DESCRIPTION:;
#CHARTSTYLE:;
#DIFFICULTY:Beginner;
#METER:2;
#RADARVALUES:0.110807,0.168826,0.067870,0.000000,0.000000,80.000000,73.000000,7.000000,0.000000,0.000000,0.000000,0.000000,0.000000,0.000000,0.110807,0.168826,0.067870,0.000000,0.000000,80.000000,73.000000,7.000000,0.000000,0.000000,0.000000,0.000000,0.000000,0.000000;
#CREDIT:;
#NOTES:
0000
0000
0000
0000
,
0000
0000
0000
0000
,
0000
0000
0000
0000
,
0000
0000
0000
0000
,
1000
0000
0000
0000
,
0001
0000
0000
0000
,
1000
0000
0010
0000
,
0100
0000
0001
0000
,
1000
0000
0000
0000
,
1000
0000
0100
0000
,
0010
0000
0000
0000
,
0010
0000
0001
0000
,
1000
0000
0000
0000
,
1000
0000
0010
0000
,
0100
0000
0010
0000
,
1000
0000
0001
0000
,
1000
0000
0100
0000
,
0010
0000
0001
0000
,
0001
0000
0100
0000
,
0010
0000
1000
0000
,
1000
0000
0001
0000
,
0010
0000
0100
0000
,
1000
0000
1001
0000
,
0001
0000
1001
0000
,
1000
0000
0100
0000
,
0010
0000
0000
0000
,
0001
0000
0100
0000
,
0010
0000
0000
0000
,
0100
0000
0001
0000
,
1000
0000
0000
0000
,
0100
0000
0010
0000
,
0001
0000
1000
0000
,
0001
0000
0000
0000
,
0000
0000
0110
0000
,
1000
0000
0000
0000
,
0000
0000
0110
0000
,
0001
0000
0000
0000
,
0000
0000
0110
0000
,
1000
0000
0001
0000
,
0010
0000
0100
0000
,
1000
0000
0010
0000
,
0100
0000
0000
0000
,
0001
0000
0010
0000
,
0100
0000
0000
0000
,
0010
0000
0001
0000
,
1000
0000
0000
0000
,
0001
0000
1000
0000
,
0010
0000
0100
0000
,
1001
0000
0000
0000
,
0000
0000
0000
0110
;
