#VERSION:0.83;
#TITLE:Jack and Mark Get Busy!;
#SUBTITLE:;
#ARTIST:Distant Soundz feat. MC Image;
#TITLETRANSLIT:;
#SUBTITLETRANSLIT:;
#ARTISTTRANSLIT:;
#GENRE:UK GARAGE;
#CREDIT:Graphics by forcednature;
#MUSIC:Jack and Mark Get Busy!.ogg;
#BANNER:Jack and Mark Get Busy!.png;
#BACKGROUND:Jack and Mark Get Busy!-bg.png;
#CDTITLE:;
#SAMPLESTART:69.850;
#SAMPLELENGTH:15.000;
#SELECTABLE:YES;
#OFFSET:0.000;
#BPMS:0.000=134.000;
#STOPS:;
#TIMESIGNATURES:0.000=4=4;
#BGCHANGES:0.000=../BGAs/10ho.mp4=1.000=0=0=0=StretchNoLoop====,
99999.000=-nosongbg-=1.000=0=0=0=StretchNoLoop====
;
#FGCHANGES:;

//--------------- dance-single - Extraordiberry ----------------
#NOTEDATA:;
#STEPSTYPE:dance-single;
#DESCRIPTION:Extraordiberry;
#DIFFICULTY:Beginner;
#METER:2;
#RADARVALUES:0,0,0,0,0;
#CREDIT:Extraordiberry;
#NOTES:
0000
0000
0000
0000
,
0000
0000
0000
0000
,
0000
0000
0000
0000
,
1000
0000
0000
0000
,
0000
0000
0001
0001
,
0001
0000
0000
0000
,
0000
0000
1000
1000
,
1000
0000
0000
0000
,
0000
0000
0000
0000
,
0100
0000
0000
0000
,
0010
0010
0010
0000
,
0001
0000
0000
0000
,
0100
0000
0000
0000
,
0010
0000
0000
0000
,
1000
0000
0000
0000
,
0001
0000
0000
0000
,
0010
0000
0000
0000
,
0100
0000
0000
0000
,
1000
0000
0000
0000
,
0001
0000
0000
0000
,
0100
0000
0000
0000
,
0010
0000
0000
0000
,
1000
0000
0000
0000
,
0001
0000
0000
0000
,
0010
0000
0000
0000
,
0100
0000
0000
0000
,
1000
0000
0000
0000
,
0001
0000
0000
0000
,
0000
0000
0000
0000
,
1000
0000
0000
0000
,
0000
0000
0000
0000
,
0010
0000
0000
0000
,
0000
0000
0000
0000
,
0100
0000
0000
0000
,
0000
0000
0000
0000
,
0001
0000
0000
0000
,
0000
0000
1000
1000
,
1000
0000
0000
0000
,
0001
0001
0001
0000
,
1000
0000
0000
0000
,
0010
0000
0000
0000
,
0100
0000
0000
0000
,
0001
0000
0000
0000
,
1000
0000
0000
0000
,
0100
0000
0000
0000
,
0010
0000
0000
0000
,
0001
0000
0000
0000
,
1000
0000
0000
0000
,
0010
0000
0000
0000
,
0100
0000
0000
0000
,
0001
0000
0000
0000
,
1000
0000
0000
0000
,
0100
0000
0000
0000
,
0010
0000
0000
0000
,
0001
0000
1000
1000
;

//--------------- dance-single - Extraordiberry ----------------
#NOTEDATA:;
#STEPSTYPE:dance-single;
#DESCRIPTION:Extraordiberry;
#DIFFICULTY:Easy;
#METER:5;
#RADARVALUES:0,0,0,0,0;
#CREDIT:Extraordiberry;
#NOTES:
0000
0000
0000
0000
,
0000
0000
0000
0000
,
0000
0000
0000
0000
,
1000
0000
0001
0000
,
0010
0000
1001
0000
,
0001
0000
1000
0000
,
0010
0000
1001
0000
,
1000
0000
0100
0000
,
0010
0001
1000
0000
,
0001
0000
0100
0000
,
0110
0000
1001
0000
,
1000
0000
0100
0000
,
0010
0001
1000
0000
,
0001
0000
0100
0000
,
0010
1000
0001
1000
,
1000
0000
0100
0010
,
0000
0001
1000
0000
,
0001
0100
0010
0000
,
1000
0100
0010
0000
,
0001
0000
0100
0000
,
0010
1000
0001
0000
,
1000
0000
0100
0000
,
0010
0001
1000
0001
,
0001
0000
0100
0010
,
0000
1000
0001
0000
,
1000
0100
0010
0000
,
0001
0100
0010
0000
,
1000
0000
0100
0000
,
0010
0001
1000
0000
,
0001
0000
0100
0000
,
0010
1000
0100
1000
,
0001
0000
0100
0000
,
0010
1000
0001
0000
,
1000
0000
0100
0000
,
0010
0010
0001
0001
,
1000
0000
0010
0000
,
0100
0000
1001
0000
,
0001
0000
0010
0000
,
0110
0000
1001
0000
,
1000
0000
0010
0000
,
0100
0001
1000
0000
,
0001
0000
0010
0000
,
0100
1000
0001
1000
,
1000
0000
0010
0100
,
0000
0001
1000
0000
,
0001
0010
0100
0000
,
1000
0010
0100
0000
,
0001
0000
0010
0000
,
0100
1000
0001
0000
,
1000
0000
0010
0000
,
0100
0001
1000
0001
,
0001
0000
0010
0100
,
0000
1000
0001
0000
,
1000
0010
0100
0000
,
0001
0010
0100
0000
;

//--------------- dance-single - Extraordiberry ----------------
#NOTEDATA:;
#STEPSTYPE:dance-single;
#DESCRIPTION:Extraordiberry;
#DIFFICULTY:Medium;
#METER:10;
#RADARVALUES:0,0,0,0,0;
#CREDIT:Extraordiberry;
#NOTES:
0000
0000
0000
0000
,
0000
0000
0000
0000
,
0000
0000
0000
0000
,
1000
0100
0010
0100
1000
0010
0100
0000
,
0001
0010
0100
0000
1000
0001
1001
0000
,
0001
0100
0010
0100
0001
0010
0100
0000
,
1000
0010
0100
0000
0001
1000
1001
0000
,
1000
0100
0010
0100
1000
0010
0100
0000
,
0001
0010
0100
1000
0001
0100
0100
0000
,
0001
0010
0100
0010
0001
0100
0010
0000
,
1001
0110
1001
0001
,
1000
0100
0001
0100
1000
0001
0100
0000
,
0010
0100
0010
1000
0001
0000
1000
1000
,
0001
0010
0100
0010
0001
0100
0010
0000
,
1000
0000
0000
0001
0000
0000
1000
0000
0100
0000
0010
0000
0001
0000
0000
0000
,
1000
0010
0100
0000
0110
0000
0001
0010
,
0100
0000
0110
0000
1000
0010
0100
0000
,
0110
0000
0001
0010
0100
0010
0001
0000
,
1000
0010
0100
0010
1000
0000
1000
0000
,
0001
0100
1000
0100
0001
1000
0100
0000
,
0010
0100
0010
0001
1000
0000
0001
0001
,
1000
0010
0100
0010
1000
0100
0010
0000
,
0001
0000
0000
1000
0000
0000
0001
0000
0100
0000
0010
0000
1000
0000
0000
0000
,
0001
0010
0100
0000
0110
0000
1000
0010
,
0100
0000
0110
0000
0001
0010
0100
0000
,
0110
0000
1000
0010
0100
0010
1000
0000
,
0001
0010
0100
0010
0001
0000
0001
0000
,
1000
0010
0100
0010
1000
0100
0010
0000
,
0001
0100
0010
1000
0000
0001
0010
0000
,
0001
0100
0010
0100
0001
0010
0100
0000
,
1000
0010
0100
0001
0000
1000
0100
0000
,
1000
0010
0100
0010
1000
0100
0010
0001
,
1000
0010
0100
0010
0000
1000
0001
1000
,
0001
0010
0100
0010
0001
0100
0010
1000
,
0001
0000
0001
0000
0001
1000
1000
0000
,
0001
0100
0010
0000
1000
0100
0010
0000
,
0001
0100
0010
0000
1000
0001
1001
0000
,
1000
0100
0010
0000
0001
0100
0010
0000
,
1100
0110
0011
0001
,
1000
0010
0001
0010
1000
0001
0010
0000
,
0100
0010
0100
1000
0001
0000
1000
1000
,
0001
0100
0010
0100
0001
0010
0100
0000
,
1000
0000
0000
0001
0000
0000
1000
0000
0010
0000
0100
0000
0001
0000
0000
0000
,
1000
0100
0010
0000
0011
0000
0001
0100
,
0010
0000
1010
0000
1000
0100
0010
0000
,
0011
0000
0001
0100
0010
0100
0001
0000
,
1000
0100
0010
0100
1000
0000
1000
0000
,
0001
0010
1000
0010
0001
1000
0010
0000
,
0100
0010
0100
0001
1000
0000
0001
0001
,
1000
0100
0010
0100
1000
0010
0100
0000
,
0001
0000
0000
1000
0000
0000
0001
0000
0010
0000
0100
0000
1000
0000
0000
0000
,
0001
0100
0010
0000
1010
0000
1000
0100
,
0010
0000
0011
0000
0001
0100
0010
0000
,
1010
0000
1000
0100
0010
0100
1000
0000
,
0001
0100
0010
0100
0001
0000
1001
0000
;

//--------------- dance-single - Extraordiberry ----------------
#NOTEDATA:;
#STEPSTYPE:dance-single;
#DESCRIPTION:Extraordiberry;
#DIFFICULTY:Hard;
#METER:14;
#RADARVALUES:0,0,0,0,0;
#CREDIT:Extraordiberry;
#NOTES:
0000
0000
0000
0000
,
0000
0000
0000
0000
,
0000
0000
0000
0000
,
1000
0000
0100
0010
0000
0000
0100
0000
0000
0000
0000
0000
1000
0000
0000
0010
0000
0000
0100
0000
0000
0000
0000
0000
,
0001
0000
0010
0100
0000
0000
0010
0000
0000
0000
0000
0000
0110
0000
0000
0001
0000
0000
1001
0000
0000
0000
0000
0000
,
0001
0000
0100
0010
0000
0000
0100
0000
0000
0000
0000
0000
0001
0000
0000
0010
0000
0000
0100
0000
0000
0000
0000
0000
,
1000
0000
0010
0100
0000
0000
0010
0000
0000
0000
0000
0000
0110
0000
0000
1010
0000
0000
1001
0000
0000
0000
0000
0000
,
0001
0000
0010
0100
0000
0000
0010
0000
0000
0001
0000
0000
0100
0000
0000
0100
0000
0000
0010
0000
0000
0000
0000
0000
,
1000
0000
0100
0010
0000
0000
0100
0000
0000
0000
0000
0000
1000
0000
0000
0000
0000
0000
0001
0000
0000
0000
0000
0000
,
1000
0000
0010
0100
0000
0000
0010
0000
0000
1000
0000
0000
0100
0000
0000
0100
0000
0000
0010
0000
0000
0001
0000
0000
,
0101
0110
1010
1001
,
0001
0010
0001
0010
0100
0000
0010
0001
0000
1000
0000
0010
0100
0000
0001
0000
,
1000
0000
0001
0010
0000
0001
1000
0000
0001
0100
0000
0000
0010
0000
1000
0100
,
0010
0000
0001
1000
0001
1000
0001
0100
0000
0010
0000
1000
0100
0000
0010
0000
,
0110
0000
0000
1001
0000
0000
0001
0000
1000
0010
1000
0100
0000
0000
1000
0000
,
0001
0100
0000
0100
0010
0000
1000
0000
1010
0000
0000
0000
1000
0100
0000
0100
,
0010
0000
0001
0000
0011
0000
0000
0000
0001
0100
0000
0100
0010
0000
1000
0000
,
1100
0000
1000
0100
0001
0100
1000
0000
,
0001
0100
1000
0100
0001
0000
0001
0000
,
1000
0100
1000
0100
0010
0000
0100
1000
0000
0001
0000
0100
0010
0000
1000
0000
,
0001
0000
1000
0100
0000
1000
0001
0000
1000
0010
0000
0000
0100
0000
0001
0010
,
0100
0000
1000
0001
1000
0001
1000
0010
0000
0100
0000
0001
0010
0000
0100
0000
,
0110
0000
0000
1001
0000
0000
1000
0000
0001
0100
0001
0010
0000
0000
0001
0000
,
1000
0010
0000
0010
0100
0000
0001
0000
0101
0000
0000
0000
0001
0010
0000
0010
,
0100
0000
1000
0000
1100
0000
0000
0000
1000
0010
0000
0010
0100
0000
0001
0000
,
0011
0000
0001
0010
1000
0010
0001
0000
,
1000
0010
0001
0010
1000
0000
1000
0000
,
0001
0000
0010
0100
0000
0000
0010
0000
0000
0001
0000
0000
0100
0000
0000
0100
0000
0000
0010
0000
0000
1000
0000
0000
,
0100
0000
0010
0001
0000
0000
1000
0000
0000
0010
0000
0000
0000
0000
1000
0001
0000
0000
0011
0000
0000
0000
0000
0000
,
1000
0000
0010
0100
0000
0000
0010
0000
0000
1000
0000
0000
0100
0000
0000
0100
0000
0000
0010
0000
0000
0001
0000
0000
,
0100
0000
0010
1000
0000
0000
0001
0000
0000
0010
0000
0000
0000
0000
0001
1000
0000
0000
1010
0000
0000
0000
0000
0000
,
0001
0000
0010
0001
0000
0010
0100
0000
0000
1000
0000
0000
0010
0000
0000
0010
0000
0000
0100
0000
0000
0001
0000
0000
,
1000
0000
0100
0010
0000
0000
0001
0000
0000
0100
0000
0000
0000
0000
0001
1000
0000
0000
1100
0000
0000
0000
0000
0000
,
1000
0000
0010
1000
0000
0010
0100
0000
0000
0001
0000
0000
0010
0000
0000
0010
0000
0000
0100
0000
0000
0000
0000
0000
,
1000
0000
0000
0010
0000
0000
0001
0000
0000
0010
0000
1000
0000
0000
0001
1000
0000
0001
1000
0000
0000
0000
0000
0000
,
0001
0010
0100
0000
1000
0010
0100
0000
,
0001
0010
0100
0000
0110
0011
1001
0000
,
1000
0010
0100
0000
0001
0010
1000
0000
,
1010
0110
0011
1001
,
0001
0100
0001
0100
0010
0000
0100
0001
0000
1000
0000
0100
0001
0000
0100
0000
,
1000
0000
0010
1000
0000
0010
0100
0000
0010
0001
0000
0000
0010
0000
1000
0100
,
0010
0000
0001
1000
0001
1000
0001
0100
0000
0010
0000
0100
1000
0000
0100
0000
,
0110
0000
0000
1001
0000
0000
0001
0000
1000
0100
0010
1000
0000
0000
0010
0000
,
0100
1000
0000
1000
0001
0000
0100
0000
0101
0000
0000
0000
0100
0001
0000
0001
,
1000
0000
0100
0000
1100
0000
0000
0000
0100
1000
0000
1000
0001
0000
0100
0000
,
1100
0000
1000
0100
0001
1000
0100
0000
,
0001
0100
1000
0001
0100
0000
1001
0000
,
1000
0010
1000
0010
0100
0000
0010
1000
0000
0001
0000
0010
1000
0000
0010
0000
,
0001
0000
0100
0001
0000
0100
0010
0000
0100
1000
0000
0000
0100
0000
0001
0010
,
0100
0000
1000
0001
1000
0001
1000
0010
0000
0100
0000
0010
0001
0000
0010
0000
,
0110
0000
0000
1001
0000
0000
1000
0000
0001
0010
0100
0001
0000
0000
0100
0000
,
0010
0001
0000
0001
1000
0000
0010
0000
1010
0000
0000
0000
0010
1000
0000
1000
,
0001
0000
0010
0000
0011
0000
0000
0000
0010
0001
0000
0001
1000
0000
0010
0000
,
0011
0000
0001
0010
1000
0001
0010
0000
,
1000
0010
0001
1000
0010
0000
1001
0000
;

//--------------- dance-double - Extraordiberry ----------------
#NOTEDATA:;
#STEPSTYPE:dance-double;
#DESCRIPTION:Extraordiberry;
#DIFFICULTY:Easy;
#METER:5;
#RADARVALUES:0,0,0,0,0;
#CREDIT:Extraordiberry;
#NOTES:
00000000
00000000
00000000
00000000
,
00000000
00000000
00000000
00000000
,
00000000
00000000
00000000
00000000
,
00010000
00000000
00001000
00000000
,
01000000
00010000
01000000
00000000
,
00001000
00000000
00010000
00000000
,
00000100
00001000
00000100
00000000
,
00010000
00000000
00001000
00000000
,
01000000
00000000
00010000
00000000
,
10000000
00000000
01000000
00000000
,
00100000
00001000
00010000
00000000
,
00001000
00000000
00010000
00000000
,
00000010
00001000
00000010
00000000
,
00001000
00000000
00000001
00000000
,
00000010
00000000
00000100
00000000
,
00010000
00000000
00001000
00010000
,
00000000
00001000
01000000
00000000
,
00010000
01000000
00000000
00010000
,
10000000
00000000
01000000
00000000
,
00010000
00000000
00001000
00000000
,
00100000
00010000
00100000
00000000
,
00010000
00000000
10000000
00000000
,
00100000
00000000
01000000
00000000
,
00001000
00000000
00010000
00001000
,
00000000
00010000
00000100
00000000
,
00001000
00000100
00000000
00001000
,
00000001
00000000
00000100
00000000
,
00001000
00000000
00010000
00000000
,
00000100
00001000
00000100
00000000
,
00010000
00000000
00001000
00000000
,
01000000
00010000
01000000
00000000
,
00001000
00000000
00010000
00000000
,
00000100
00001000
00000001
00000000
,
00000100
00000000
00001000
00000000
,
00010000
00010000
00001000
00001000
,
00010000
00000000
00001000
00000000
,
01000000
00000000
00010000
10000000
,
00010000
00000000
10000000
00000000
,
01000000
00010000
00001000
00000000
,
00010000
00000000
00001000
00000000
,
01000000
00010000
01000000
00000000
,
00010000
00000000
10000000
00000000
,
01000000
00000000
00100000
00000000
,
00001000
00000000
00010000
00001000
,
00000000
00010000
00000010
00000000
,
00001000
00000010
00000000
00001000
,
00000001
00000000
00000010
00000000
,
00001000
00000000
00010000
00000000
,
00000100
00001000
00000100
00000000
,
00001000
00000000
00000001
00000000
,
00000100
00000000
00000010
00000000
,
00010000
00000000
00001000
00010000
,
00000000
00001000
00100000
00000000
,
00010000
00100000
00000000
00010000
,
10000000
00000000
10010000
00000000
;

//--------------- dance-double - Extraordiberry ----------------
#NOTEDATA:;
#STEPSTYPE:dance-double;
#DESCRIPTION:Extraordiberry;
#DIFFICULTY:Medium;
#METER:10;
#RADARVALUES:0,0,0,0,0;
#CREDIT:Extraordiberry;
#NOTES:
00000000
00000000
00000000
00000000
,
00000000
00000000
00000000
00000000
,
00000000
00000000
00000000
00000000
,
00010000
00001000
00010000
00000100
00001000
00000001
00000100
00000000
,
00000001
00000100
00001000
00000000
00010000
00001000
00011000
00000000
,
00001000
00010000
00001000
01000000
00010000
10000000
01000000
00000000
,
10000000
01000000
00010000
00000000
00001000
00010000
00011000
00000000
,
00010000
00001000
00010000
00000100
00001000
00000001
00000100
00000000
,
00000001
00000100
00001000
00010000
00001000
00010000
00010000
00000000
,
00001000
00010000
00001000
01000000
00010000
10000000
01000000
00000000
,
11000000
00110000
00011000
00010000
,
00001000
00010000
00100000
10000000
00010000
00010000
10000000
00000000
,
00010000
10000000
01000000
00100000
00010000
00000000
10000000
10000000
,
00010000
10000000
01000000
00010000
00001000
01000000
00010000
00000000
,
10000000
00000000
00000000
00010000
00000000
00000000
10000000
00000000
01000000
00000000
00010000
00000000
00001000
00000000
00000000
00000000
,
00010000
00000100
00001000
00000000
00001100
00000000
00001000
00000001
,
00000100
00000000
00000101
00000000
00000001
00000100
00001000
00000000
,
00011000
00000000
00010000
00001000
00100000
00001000
00010000
00000000
,
00001000
00010000
00000010
00010000
00001000
00000000
00001000
00000000
,
00010000
00001000
00000010
00000001
00001000
00001000
00000001
00000000
,
00001000
00000001
00000100
00000010
00001000
00000000
00000001
00000001
,
00001000
00000001
00000100
00001000
00010000
00000100
00001000
00000000
,
00000001
00000000
00000000
00001000
00000000
00000000
00000001
00000000
00000100
00000000
00001000
00000000
00010000
00000000
00000000
00000000
,
00001000
01000000
00010000
00000000
01010000
00000000
00010000
10000000
,
01000000
00000000
11000000
00000000
10000000
01000000
00010000
00000000
,
00011000
00000000
00001000
00010000
00000010
00010000
00001000
00000000
,
00010000
00001000
00100000
00001000
00010000
00000000
00010000
00000000
,
00001000
00010000
00001000
01000000
00010000
10000000
01000000
00000000
,
10000000
01000000
00010000
00001000
00000000
00100000
00001000
00000000
,
00010000
00001000
00010000
00000100
00001000
00000001
00000100
00000000
,
00000001
00000100
00001000
00010000
00000000
00000010
00010000
00000000
,
00001000
00010000
00001000
00100000
00010000
10000000
00100000
00000000
,
10000000
00100000
00010000
00001000
00000000
01000000
00001000
00000000
,
00010000
00001000
00010000
00000010
00001000
00000001
00000010
00000000
,
00000001
00000000
00000010
00000000
00001000
00010000
00001000
00000000
,
00010000
00001000
01000000
00000000
00010000
10000000
01000000
00000000
,
10000000
01000000
00010000
00000000
00001000
00010000
00011000
00000000
,
00001000
00010000
00000100
00000000
00001000
00000001
00000100
00000000
,
00000101
00001010
00011000
00001000
,
00010000
00001000
00000100
00000001
00001000
00001000
00000001
00000000
,
00001000
00000001
00000010
00000100
00001000
00000000
00000001
00000001
,
00001000
00000001
00000010
00001000
00010000
00000010
00001000
00000000
,
00000001
00000000
00000000
00001000
00000000
00000000
00000001
00000000
00000010
00000000
00001000
00000000
00010000
00000000
00000000
00000000
,
00001000
00100000
00010000
00000000
00110000
00000000
00010000
10000000
,
00100000
00000000
10100000
00000000
10000000
00100000
00010000
00000000
,
00011000
00000000
00001000
00010000
00000100
00010000
00001000
00000000
,
00010000
00001000
01000000
00001000
00010000
00000000
00010000
00000000
,
00001000
00010000
01000000
10000000
00010000
00010000
10000000
00000000
,
00010000
10000000
00100000
01000000
00010000
00000000
10000000
10000000
,
00010000
10000000
00100000
00010000
00001000
00100000
00010000
00000000
,
10000000
00000000
00000000
00010000
00000000
00000000
10000000
00000000
00100000
00000000
00010000
00000000
00001000
00000000
00000000
00000000
,
00010000
00000010
00001000
00000000
00001010
00000000
00001000
00000001
,
00000010
00000000
00000011
00000000
00000001
00000010
00001000
00000000
,
00011000
00000000
00010000
00001000
01000000
00001000
00010000
00000000
,
00001000
00010000
00000100
00010000
00001000
00000000
00011000
00000000
;

//--------------- dance-double - Extraordiberry ----------------
#NOTEDATA:;
#STEPSTYPE:dance-double;
#DESCRIPTION:Extraordiberry;
#DIFFICULTY:Hard;
#METER:14;
#RADARVALUES:0,0,0,0,0;
#CREDIT:Extraordiberry;
#NOTES:
00000000
00000000
00000000
00000000
,
00000000
00000000
00000000
00000000
,
00000000
00000000
00000000
00000000
,
00001000
00000000
00010000
00001000
00000000
00000000
00100000
00000000
00000000
00000000
00000000
00000000
00010000
00000000
00000000
01000000
00000000
00000000
00100000
00000000
00000000
00000000
00000000
00000000
,
10000000
00000000
00010000
10000000
00000000
00000000
01000000
00000000
00000000
00000000
00000000
00000000
00110000
00000000
00000000
00001000
00000000
00000000
00011000
00000000
00000000
00000000
00000000
00000000
,
00010000
00000000
00001000
00010000
00000000
00000000
00000010
00000000
00000000
00000000
00000000
00000000
00001000
00000000
00000000
00000100
00000000
00000000
00000010
00000000
00000000
00000000
00000000
00000000
,
00000001
00000000
00001000
00000001
00000000
00000000
00000100
00000000
00000000
00000000
00000000
00000000
00001010
00000000
00000000
00010010
00000000
00000000
00011000
00000000
00000000
00000000
00000000
00000000
,
00001000
00000000
00010000
00001000
00000000
00000000
00100000
00000000
00000000
00010000
00000000
00000000
10000000
00000000
00000000
10000000
00000000
00000000
00100000
00000000
00000000
00000000
00000000
00000000
,
10000000
00000000
01000000
10000000
00000000
00000000
01000000
00000000
00000000
00010000
00000000
00000000
00001000
00000000
00000000
00100000
00000000
00000000
00001000
00000000
00000000
00000000
00000000
00000000
,
00010000
00000000
00001000
00010000
00000000
00000000
00000010
00000000
00000000
00001000
00000000
00000000
00000001
00000000
00000000
00000001
00000000
00000000
00000010
00000000
00000000
00000000
00000000
00000000
,
00001001
00011000
10010000
00010000
,
10000000
01000000
10000000
01000000
00100000
00000000
00010000
10000000
00000000
01000000
00000000
00010000
00001000
00000000
00010000
00000000
,
00000010
00000000
00001000
00000010
00000000
00010000
00001000
00000000
01000000
00010000
00000000
00000000
10000000
00000000
01000000
00100000
,
01000000
00000000
00010000
00001000
00010000
00001000
00010000
00000010
00000000
00010000
00000000
00001000
01000000
00000000
00010000
00000000
,
01010000
00000000
00000000
00011000
00000000
00000000
00000010
00000000
00001000
00000001
00001000
00000100
00000000
00000000
00001000
00000000
,
00000001
00000100
00000000
00000100
00001000
00000000
00010000
00000000
00011000
00000000
00000000
00000000
00010000
00100000
00000000
00100000
,
10000000
00000000
00010000
00000000
10010000
00000000
00000000
00000000
10000000
01000000
00000000
01000000
00010000
00000000
00001000
00000000
,
00101000
00000000
00001000
00010000
00100000
00010000
00001000
00000000
,
00010000
00001000
00000010
00001000
00010000
00000100
00001000
00000000
,
00000001
00000100
00000001
00000100
00000010
00000000
00001000
00000001
00000000
00000100
00000000
00001000
00010000
00000000
00001000
00000000
,
00100000
00000000
00010000
00100000
00000000
00001000
00010000
00000000
00000100
00001000
00000000
00000000
00000001
00000000
00000100
00000010
,
00000100
00000000
00001000
00010000
00001000
00010000
00001000
00100000
00000000
00001000
00000000
00010000
00000100
00000000
00001000
00000000
,
00001100
00000000
00000000
00011000
00000000
00000000
00100000
00000000
00010000
10000000
00010000
01000000
00000000
00000000
00010000
00000000
,
10000000
01000000
00000000
01000000
00010000
00000000
00001000
00000000
00011000
00000000
00000000
00000000
00001000
00000010
00000000
00000010
,
00000001
00000000
00001000
00000000
00001001
00000000
00000000
00000000
00000001
00000100
00000000
00000100
00001000
00000000
00010000
00000000
,
00010010
00000000
00010000
00001000
00000010
00001000
00010000
00000000
,
00001000
00010000
00100000
00010000
00001000
00000000
00011000
00000000
,
00001000
00000000
00010000
00001000
00000000
00000000
00100000
00000000
00000000
00010000
00000000
00000000
10000000
00000000
00000000
10000000
00000000
00000000
00100000
00000000
00000000
00000000
00000000
00000000
,
10000000
00000000
00010000
10000000
00000000
00000000
01000000
00000000
00000000
00010000
00000000
00000000
00000000
00000000
00000000
00001000
00000000
00000000
00100000
00000000
00000000
00001000
00000000
00000000
,
00010000
00000000
00001000
00010000
00000000
00000000
00000010
00000000
00000000
00001000
00000000
00000000
00000001
00000000
00000000
00000001
00000000
00000000
00000010
00000000
00000000
00000000
00000000
00000000
,
00000001
00000000
00001000
00000001
00000000
00000000
00000100
00000000
00000000
00001000
00000000
00000000
00000000
00000000
00000000
00010000
00000000
00000000
00000010
00000000
00000000
00010000
00000000
00000000
,
00001000
00000000
00010000
00001000
00000000
00100000
00010000
00000000
00000000
10000000
00000000
00000000
00100000
00000000
00000000
00100000
00000000
00000000
01000000
00000000
00000000
00010000
00000000
00000000
,
10000000
00000000
00010000
10000000
00000000
00000000
01000000
00000000
00000000
00010000
00000000
00000000
00000000
00000000
00000000
00001000
00000000
00000000
00100000
00000000
00000000
00001000
00000000
00000000
,
00010000
00000000
00001000
00010000
00000000
00000010
00001000
00000000
00000000
00000001
00000000
00000000
00000010
00000000
00000000
00000010
00000000
00000000
00000100
00000000
00000000
00001000
00000000
00000000
,
00000001
00000100
00001000
00010000
00100000
10000000
00010000
00000000
,
10000000
01000000
00100000
00000000
00010000
00001000
00000100
00000000
,
00000010
00000001
00001000
00000000
00001001
00001000
00001001
00000000
,
00000001
00000100
00000010
00000000
00001000
00010000
01000000
00000000
,
10010000
00011000
00001001
00001000
,
00000001
00000010
00000001
00000010
00000100
00000000
00001000
00000001
00000000
00000010
00000000
00001000
00010000
00000000
00001000
00000000
,
01000000
00000000
00010000
01000000
00000000
00001000
00010000
00000000
00000010
00001000
00000000
00000000
00000001
00000000
00000010
00000100
,
00000010
00000000
00001000
00010000
00001000
00010000
00001000
01000000
00000000
00001000
00000000
00010000
00000010
00000000
00001000
00000000
,
00001010
00000000
00000000
00011000
00000000
00000000
01000000
00000000
00010000
10000000
00010000
00100000
00000000
00000000
00010000
00000000
,
10000000
00100000
00000000
00100000
00010000
00000000
00001000
00000000
00011000
00000000
00000000
00000000
00001000
00000100
00000000
00000100
,
00000001
00000000
00001000
00000000
00001001
00000000
00000000
00000000
00000001
00000010
00000000
00000010
00001000
00000000
00010000
00000000
,
00010100
00000000
00010000
00001000
00000100
00001000
00010000
00000000
,
00001000
00010000
01000000
00010000
00001000
00100000
00010000
00000000
,
10000000
00100000
10000000
00100000
01000000
00000000
00010000
10000000
00000000
00100000
00000000
00010000
00001000
00000000
00010000
00000000
,
00000100
00000000
00001000
00000100
00000000
00010000
00001000
00000000
00100000
00010000
00000000
00000000
10000000
00000000
00100000
01000000
,
00100000
00000000
00010000
00001000
00010000
00001000
00010000
00000100
00000000
00010000
00000000
00001000
00100000
00000000
00010000
00000000
,
00110000
00000000
00000000
00011000
00000000
00000000
00000100
00000000
00001000
00000001
00001000
00000010
00000000
00000000
00001000
00000000
,
00000001
00000010
00000000
00000010
00001000
00000000
00010000
00000000
00011000
00000000
00000000
00000000
00010000
01000000
00000000
01000000
,
10000000
00000000
00010000
00000000
10010000
00000000
00000000
00000000
10000000
00100000
00000000
00100000
00010000
00000000
00001000
00000000
,
01001000
00000000
00001000
00010000
01000000
00010000
00001000
00000000
,
00010000
00001000
00000100
00001000
00010000
00000000
00011000
00000000
;
