#VERSION:0.83;
#TITLE:JET WORLD;
#SUBTITLE:;
#ARTIST:Mutsuhiko Izumi;
#TITLETRANSLIT:;
#SUBTITLETRANSLIT:;
#ARTISTTRANSLIT:;
#GENRE:;
#CREDIT:;
#MUSIC:JET WORLD.ogg;
#BANNER:JET WORLD.png;
#BACKGROUND:JET WORLD-bg.png;
#CDTITLE:;
#SAMPLESTART:7.500;
#SAMPLELENGTH:13.913;
#SELECTABLE:YES;
#OFFSET:-0.543;
#BPMS:0.000=138.000;
#STOPS:;
#JACKET:JET WORLD-jacket.png;
#BGCHANGES:-1.249=JET WORLD.avi=1.000=1=0=0=StretchNoLoop==CrossFade==;
#FGCHANGES:;

//--------------- dance-single - ----------------
#NOTEDATA:;
#STEPSTYPE:dance-single;
#DESCRIPTION:;
#DIFFICULTY:Beginner;
#METER:3;
#RADARVALUES:0,0,0,0,0;
#CREDIT:Kikoia;
#NOTES:
0000
0000
0000
0000
,
0000
0000
0000
0000
,
1001
0000
0000
0000
,
0110
0000
0000
0000
,
1001
0000
0000
0000
,
0110
0000
0000
0000
,
0001
0000
0001
0000
,
1000
0000
1000
0000
,
0010
0000
0000
0000
,
0010
0000
0100
0000
,
1001
0000
0000
0000
,
0110
0000
0000
0000
,
1001
0000
0000
0000
,
0110
0000
0000
0000
,
1000
0000
1000
0000
,
0001
0000
0001
0000
,
0010
0000
0000
0000
,
0010
0000
0100
0000
,
0000
0000
1001
1001
,
0100
0100
0100
0100
,
0000
0000
1001
1001
,
0010
0000
0010
0000
,
1000
1000
1000
0000
,
0001
0001
0001
0000
,
0010
0010
0010
0000
,
0100
0100
0100
0000
,
1000
0000
1000
0000
,
0001
0000
0001
0000
,
0100
0000
0100
0100
,
0010
0000
0010
0010
,
1000
0000
1000
1000
,
0001
0001
0001
0000
,
1000
0000
0100
0000
,
0001
0000
0100
0000
,
1000
0000
0010
0000
,
0001
0000
0010
0000
,
1000
0000
1001
1001
,
0010
0010
0010
0010
,
0000
0000
1001
1001
,
0100
0000
0100
0000
,
1000
0000
0100
0100
,
0001
0000
0100
0100
,
1000
0000
0010
0010
,
0001
0000
0001
0001
,
1000
0000
0100
0000
,
0010
0000
0001
0000
,
0100
0000
0100
0100
,
0010
0000
0010
0010
,
1000
0000
1000
1000
,
0001
0001
0011
0000
;

//--------------- dance-single - ----------------
#NOTEDATA:;
#STEPSTYPE:dance-single;
#DESCRIPTION:;
#DIFFICULTY:Easy;
#METER:6;
#RADARVALUES:0,0,0,0,0;
#CREDIT:Kikoia;
#NOTES:
0000
0000
0000
0000
,
0000
0000
0000
0000
,
1000
1000
0100
0010
,
0001
0001
0100
0010
,
1000
1000
0100
0010
,
0001
0001
0100
0010
,
1000
0100
0001
0100
,
1000
0010
0100
0001
,
0010
1000
0010
0001
,
0100
0010
1000
1001
,
0001
0001
0100
0010
,
1000
1000
0100
0010
,
0001
0001
0100
0010
,
1000
1000
0100
0010
,
0001
0100
1000
0100
,
0001
0010
0100
1000
,
0010
0001
0010
1000
,
0100
0010
0001
1001
,
0200
0000
0000
0300
,
0010
0010
0010
0010
,
0020
0000
0000
0030
,
0010
0100
0010
0100
,
1000
0100
1000
0100
,
0010
0001
0010
0001
,
1000
0001
1000
0001
,
0100
0010
0100
0010
,
2000
0000
3200
0000
,
0310
0010
0020
0030
,
0001
0000
0001
0001
,
1000
0000
1000
1000
,
1001
0000
1001
0110
,
1001
0000
2000
0002
0000
0000
3003
0000
,
1000
0100
0010
0001
,
0100
1000
0010
0001
,
0100
0010
1000
0001
,
0010
1000
0100
0001
,
2000
0000
0000
0000
0000
3000
0000
0000
,
0001
0001
0001
0001
,
0002
0000
0000
0003
,
0001
1000
0001
1000
,
0001
0100
0001
0100
,
0010
1000
0010
1000
,
0001
1000
0001
1000
,
0100
0010
0100
0010
,
0002
0000
0203
0000
,
0310
0010
0020
0030
,
1000
0000
1000
1000
,
0001
0000
0001
0001
,
1001
0000
1001
0110
,
1001
0000
0002
2000
0000
0000
3003
0000
;

//--------------- dance-single - ----------------
#NOTEDATA:;
#STEPSTYPE:dance-single;
#DESCRIPTION:;
#DIFFICULTY:Medium;
#METER:9;
#RADARVALUES:0,0,0,0,0;
#CREDIT:Kikoia;
#NOTES:
0000
0000
0000
0000
,
0000
0000
0000
0000
,
0001
0100
0010
0000
0010
0100
0001
0000
,
1000
0100
0010
0000
0010
0100
1000
0000
,
1000
0100
0001
0000
0001
0100
1000
0000
,
0001
0100
1000
0000
1000
0100
0001
0000
,
1000
1000
0000
1000
0001
0002
0000
0000
,
1003
0100
1000
0100
0010
0000
0010
0000
,
0002
0000
0000
0000
1003
0010
0100
0000
,
0001
0010
0001
0010
0100
0000
0100
0000
,
1000
0001
0010
0000
0010
0001
1000
0000
,
0001
1000
0010
0000
0010
1000
0001
0000
,
0001
0010
1000
0000
1000
0010
0001
0000
,
1000
0010
0001
0000
0001
0010
1000
0000
,
0001
0001
0000
0001
1000
2000
0000
0000
,
3001
0100
0001
0100
0010
0000
0010
0000
,
2000
0000
0000
0000
3001
0010
0100
0000
,
1000
0010
1000
0010
0100
0001
1000
0000
,
0220
0330
0110
0110
,
0001
1000
0001
0000
1000
0001
1000
0000
,
0220
0330
0110
0110
,
1000
0001
1000
0000
0001
1000
0001
0000
,
1000
0100
0010
0000
0001
0100
0010
0000
,
1000
0001
1000
0001
0010
0000
0010
0000
,
0001
0010
0100
0000
1000
0010
0100
0000
,
0001
1000
0001
1000
0100
0000
0100
0000
,
0010
0001
1000
0000
0010
1000
0001
0000
,
0020
0000
0100
0000
0100
0100
0130
0000
,
2000
0000
3200
0000
0301
0000
0100
0100
,
2000
0000
3020
0000
0032
0000
0013
0010
,
2000
0000
3002
0000
0203
0000
0310
0010
,
1000
1000
0001
2002
0000
0000
3003
0000
,
0001
1000
0100
0000
0100
1000
0001
0000
,
1000
0001
0100
0000
0100
0001
1000
0000
,
0100
0010
0001
0000
0001
0010
0100
0000
,
1000
0010
0100
0000
0100
0010
1000
0001
,
0220
0330
0110
0110
,
1000
0001
1000
0000
0001
1000
0001
0000
,
0220
0330
0110
0110
,
0001
1000
0001
0000
1000
0001
1000
0000
,
0001
0100
0010
0100
0001
1000
0010
0000
,
1000
0100
0010
0100
1000
0001
0010
0000
,
0001
1000
0010
1000
0001
0010
0100
0000
,
1000
0001
0010
0001
1000
0010
0100
0001
,
1000
0100
0010
0000
0010
0001
1000
0000
,
0020
0000
0100
0000
0100
0100
0130
0000
,
0002
0000
0203
0000
1300
0000
0100
0100
,
0002
0000
0023
0000
2030
0000
3010
0010
,
0001
0001
1000
1000
0100
0100
0010
0010
,
0001
0001
1000
2002
0000
0000
3003
0000
;

//--------------- dance-single - ----------------
#NOTEDATA:;
#STEPSTYPE:dance-single;
#DESCRIPTION:;
#DIFFICULTY:Hard;
#METER:12;
#RADARVALUES:0,0,0,0,0;
#CREDIT:NowhereKeekClub;
#NOTES:
0000
0000
0000
0000
,
0000
0000
0000
0000
,
2002
3003
1000
0100
1000
0100
0010
0001
,
2002
0000
3003
0000
0001
0000
0100
0000
0001
0000
0100
0000
0010
1000
0000
0000
,
1001
0000
0001
0010
0001
0010
0100
1000
,
2002
0000
3003
0000
1000
0000
0010
0000
1000
0000
0010
0000
1000
0001
1000
0001
,
1000
2000
0000
3100
0001
0002
0000
0000
,
0103
0000
1000
0000
0001
0000
0100
0000
1000
0000
0100
0001
0000
0000
0000
0000
,
0012
0000
0000
0000
0010
0000
0000
0000
1003
0000
0100
0001
0000
0001
0100
0000
,
1000
0001
0010
0100
2000
0100
3001
0000
,
2002
3003
1000
0010
0100
0001
0101
0000
,
1001
0000
0000
0000
1000
0000
0100
0000
0010
0000
0001
0000
1000
0010
0000
0000
,
1001
0000
0001
0010
0100
1000
1100
0000
,
1001
0000
0000
0000
0001
0000
0100
0000
0010
0000
1000
0000
0001
1000
0001
1000
,
0001
0002
0000
0013
1000
2000
0000
0000
,
3010
0000
0001
0000
1000
0000
0100
0000
0001
0000
0100
1000
0000
0000
0000
0000
,
2010
0000
0000
0000
0010
0000
0000
0000
3001
0000
0100
1000
0000
1000
0100
0000
,
0001
0000
1000
0000
0100
0000
0010
0000
0001
0000
1000
0002
0000
0000
0003
0000
,
2001
3100
0011
1001
,
1000
0000
1000
0000
0100
0000
0010
0001
0000
0001
0010
0000
0100
0000
1000
0000
,
1002
0103
1010
1001
,
1000
0000
0100
00M0
0100
0000
0001
0000
0000
0000
0100
00M0
0100
0000
1000
0000
0000
0000
0100
00M0
0100
0000
0001
0000
0000
0000
1000
0000
0020
0000
0000
0000
,
2030
0000
3000
2000
0000
3000
0002
0000
0003
0002
0000
0003
1000
0100
1000
0000
,
0010
0000
0100
0000
0001
0000
0001
0000
0010
0100
0010
0000
0001
0000
1000
0000
,
0002
0000
0003
0002
0000
0003
2000
0000
3000
2000
0000
3000
0001
0100
0001
0000
,
0010
0000
0100
0000
1000
0000
0010
0000
0100
0001
0100
0000
0001
1000
0000
0000
,
2000
0000
3002
0000
0103
0010
2000
0000
,
3002
0000
0023
0000
0031
1000
0020
0000
,
0130
0000
0100
0000
0001
0000
1000
0001
0000
0001
1000
0000
0100
0000
0100
0000
,
0010
0000
0010
0000
0001
0000
1000
0001
0000
0001
1000
0000
0010
0000
0100
0000
,
0001
0000
0001
0000
0100
0000
0010
1000
0000
1000
0010
0000
0100
0000
0001
0000
,
0010
0100
1000
2002
0000
0000
3000
0000
,
0103
0010
1000
0010
0001
0001
0010
1000
,
0100
0010
0001
0010
1000
1000
0010
0001
,
1000
0100
0010
0001
0100
0100
1000
0100
,
0020
0000
1000
0000
0001
0000
0130
0001
,
2000
3010
1010
1001
,
0001
0000
0001
0000
0100
0000
0010
1000
0000
1000
0010
0000
0100
0000
0001
0000
,
2001
3100
0011
1001
,
0001
0000
0100
00M0
0100
0000
1000
0000
0000
0000
0100
00M0
0100
0000
0001
0000
0000
0000
0100
00M0
0100
0000
1000
0000
0000
0000
0001
0000
0010
0000
0000
0000
,
0100
0000
0010
0000
0001
0000
0010
0000
0100
0000
0010
0001
0000
0001
0100
0000
,
0010
0000
0100
0000
1000
0000
0100
0000
0010
0000
0100
0001
0000
1000
0100
0000
,
0010
0000
0100
0000
1000
0000
0100
0000
0010
0000
0100
1000
0000
1000
0001
0000
,
0020
0000
0230
0000
2300
0000
3020
0000
0230
0000
0302
0000
1003
0001
1000
0000
,
0002
0000
2003
0000
3100
0010
0002
0000
,
0203
0000
2300
0000
3100
0001
0020
0000
,
0130
0000
0100
0000
1000
0000
0001
1000
0000
1000
0001
0000
0100
0000
0100
0000
,
0010
0000
0010
0000
1000
0000
0001
1000
0000
1000
0001
0000
0010
0000
0100
0000
,
1000
0000
1000
0000
0100
0000
0010
0001
0000
0001
0010
0000
0100
0000
1000
0000
,
0010
0100
0001
2002
0000
0000
0000
0000
,
3003
0000
0000
0000
;

//--------------- dance-single - ----------------
#NOTEDATA:;
#STEPSTYPE:dance-single;
#DESCRIPTION:;
#DIFFICULTY:Challenge;
#METER:15;
#RADARVALUES:0,0,0,0,0;
#CREDIT:NowhereKeekClub;
#NOTES:
0000
0000
0000
0000
,
0000
0000
0000
0000
,
1001
0001
0100
0010
1000
0100
0001
0100
,
1001
1000
0010
0100
0001
0010
1000
0010
,
1001
1000
0010
1000
0100
0010
0001
0100
,
1001
0000
0001
0000
0010
0000
0001
0000
0100
0000
0010
0000
1000
0001
1000
0001
,
0010
0020
0000
0130
1000
2000
0000
0000
,
3010
0000
0100
0000
1000
0000
0100
0000
0001
0000
0001
2000
0000
0000
3100
0000
,
0020
0000
0000
0000
0000
0000
0000
0000
0031
0010
0100
1000
0000
0001
0100
0000
,
0001
1000
0100
0001
0101
0110
1001
0000
,
1001
1000
0100
0010
0001
0100
1000
0100
,
1001
0001
0010
0100
1000
0010
0001
0010
,
1001
0001
0010
0001
0100
0010
1000
0100
,
1001
0000
1000
0000
0010
0000
1000
0000
0100
0000
0010
0000
0001
1000
0001
1000
,
0010
0020
0000
0130
0001
0002
0000
0000
,
0013
0000
0100
0000
0001
0000
0100
0000
1000
0000
1000
0002
0000
0000
0103
0000
,
0020
0000
0000
0000
0000
0000
0000
0000
1030
0010
0100
0001
0000
1000
0100
0000
,
1000
0001
0100
0001
1000
0100
0010
0001
1000
0000
0010
0100
0000
0100
0001
0000
,
4000
0040
0000
0000
0000
0000
3030
0000
1010
0000
0000
0000
0101
0000
0000
0000
,
0001
0000
0001
0000
0010
0000
0100
1000
0000
1000
0001
0000
0100
0000
0100
0000
,
0004
0040
0000
0000
0000
0000
0033
0000
0011
0000
0000
0000
1100
0000
0000
0000
,
1000
0100
1000
0100
00M0
0100
0001
0100
00M0
0100
1000
0100
00M0
0100
0001
0000
,
1000
0000
0001
0010
0M00
0010
1000
0000
0001
0100
00M0
0100
1000
0000
1000
0001
,
0100
0010
1000
0100
1000
0001
0010
0100
0010
0001
1000
0010
0200
0000
0302
0000
,
1003
0000
0001
0010
0M00
0010
1000
0000
0001
0100
00M0
0100
2000
0000
3002
0000
,
0103
0010
0100
0001
1000
0010
1000
0001
0010
0100
1000
0010
0100
0001
0000
0000
,
1000
0100
0010
0001
1000
0010
1000
0001
0020
0000
0230
0000
2300
0000
0000
0000
,
3020
0030
0220
0330
0020
2030
3002
0000
,
1003
0000
1000
0000
0100
0000
1000
0010
0000
0010
1000
0000
0001
0000
0001
0000
,
0010
0000
0010
0000
0100
0000
1000
0001
0000
0001
1000
0000
0010
0000
0100
0000
,
0001
0000
0001
0000
0010
0000
0001
1000
0000
1000
0010
0000
0100
0000
0100
0000
,
0001
0000
1000
0000
0100
0000
0001
0000
0100
0010
0100
0010
1000
0001
1000
0001
,
0100
0010
1000
0100
0010
0001
1000
0010
0100
0000
0100
0000
0001
1000
0100
0000
,
1000
0100
1000
0001
0100
0010
1000
0001
0010
0000
0100
0000
1000
0000
1000
0000
,
0001
0100
0010
1000
0100
0010
0001
1000
0020
0000
2030
0000
3200
0000
0302
0000
,
0203
0000
0000
0000
0000
0000
0000
0000
0310
0001
1000
0010
0000
0010
0100
0000
,
0004
4000
0000
0000
0000
0000
3003
0000
0110
0000
0000
0000
1001
0000
0000
0000
,
1000
0000
1000
0000
0100
0000
0010
0001
0000
0001
1000
0000
0010
0000
0010
0000
,
4000
0004
0000
0000
0000
0000
3003
0000
0110
0000
0000
0000
1001
0000
0000
0000
,
0001
0010
0001
0010
0M00
0010
1000
0010
0M00
0010
0001
0010
0M00
0010
1000
0000
,
0001
0100
0010
0000
1000
0100
0010
0000
0001
0000
1000
0010
0M00
0010
0001
0000
,
0010
0100
1000
0000
0010
0100
0001
0000
1000
0000
0001
0100
00M0
0100
1000
0000
,
0001
0100
0001
0000
1000
0010
1000
0000
0001
0000
0010
0100
M000
0100
0001
0000
,
1000
0010
1000
0000
0001
0100
0001
0000
1000
0001
1000
0001
0010
0100
1000
0001
,
0100
0001
1000
0100
0010
0001
1000
0010
0200
0000
0302
0000
0023
0000
0000
0000
,
0200
0330
0220
0330
0020
0032
2003
0000
,
3001
0000
0001
0000
0100
0000
0001
0010
0000
0010
0001
0000
1000
0000
1000
0000
,
0010
0000
0010
0000
0100
0000
0001
1000
0000
1000
0001
0000
1000
0100
1000
0100
,
0010
0000
0010
0000
0001
0000
0100
0001
0000
0001
1000
0000
0010
0100
0010
0100
,
0001
0101
1100
2002
0000
0000
0000
0000
,
3003
0000
0000
0000
;
