#VERSION:0.83;
#TITLE:JET WORLD;
#SUBTITLE:;
#ARTIST:泉 陸奥彦;
#TITLETRANSLIT:;
#SUBTITLETRANSLIT:;
#ARTISTTRANSLIT:Mutsuhiko Izumi;
#GENRE:;
#CREDIT:Pandy VS chronon;
#MUSIC:JET WORLD.ogg;
#BANNER:JET WORLD.png;
#BACKGROUND:JET WORLD-bg.png;
#CDTITLE:;
#SAMPLESTART:3.648;
#SAMPLELENGTH:14.348;
#SELECTABLE:YES;
#OFFSET:1.135;
#BPMS:0.000=138.000;
#STOPS:;
#SPEEDS:0.000=1.000=0.000=0;
#SCROLLS:0.000=1.000;
#TICKCOUNTS:0.000=4;
#TIMESIGNATURES:0.000=4=4;
#LABELS:0.000=Song Start;
#COMBOS:0.000=1;
#ORIGIN:;
#TAGS:;
#PREVIEWVID:;
#JACKET:JET WORLD-jacket.png;
#CDIMAGE:;
#DISCIMAGE:JET WORLD-bn.png;
#BGCHANGES:4.000=JET WORLD.mp4=1.000=0=0=1,
99999.000=-nosongbg-=1.000=0=0=0=StretchNoLoop====
;
#FGCHANGES:;

//--------------- dance-single - chronon ----------------
#NOTEDATA:;
#STEPSTYPE:dance-single;
#DESCRIPTION:chronon;
#DIFFICULTY:Beginner;
#METER:4;
#RADARVALUES:0,0,0,0,0;
#NOTES:
0000
0000
0000
0000
,
0000
0000
0000
0000
,
0000
0000
0000
0000
,
0001
0000
0100
0000
,
1000
0000
0100
0000
,
0001
0000
0010
0000
,
1000
0000
0010
0000
,
0001
0000
0001
0000
,
1000
0000
1000
0000
,
0020
0000
0030
0000
,
1000
0000
0010
0000
,
1000
0000
0010
0000
,
0001
0000
0010
0000
,
1000
0000
0100
0000
,
0001
0000
0100
0000
,
1000
1000
1000
0000
,
0001
0001
0001
0000
,
0200
0000
0300
0000
,
0001
1000
0001
0000
,
2002
0000
3003
0000
,
0010
0000
0100
0000
,
2002
0000
3003
0000
,
1000
0000
0001
0000
,
0010
0010
0010
0000
,
0100
0100
0100
0000
,
0010
0010
0010
0000
,
0100
0100
0100
0000
,
1000
0000
0001
0000
,
0100
0100
0100
0000
,
0001
0000
0000
0000
,
1000
0000
0000
0000
,
0001
0000
0001
0000
,
1000
0001
0000
0000
,
1000
0000
0100
0000
,
0001
0000
0010
0000
,
1000
0000
0100
0000
,
0001
0000
0010
0000
,
0220
0000
0330
0000
,
1000
0000
0001
0000
,
0220
0000
0330
0000
,
0001
0000
1000
0000
,
0001
0100
0001
0000
,
1000
0100
1000
0000
,
0001
0010
0001
0000
,
1000
0010
1000
0000
,
0001
0000
1000
0000
,
0100
0100
0100
0000
,
1000
0000
0100
0000
,
0010
0000
0001
0000
,
1000
0000
0010
0000
,
1000
0001
0000
0000
;

//--------------- dance-single - chronon ----------------
#NOTEDATA:;
#STEPSTYPE:dance-single;
#DESCRIPTION:chronon;
#DIFFICULTY:Easy;
#METER:8;
#RADARVALUES:0,0,0,0,0;
#NOTES:
0000
0000
0000
0000
,
0000
0000
0000
0000
,
0000
0000
0000
0000
,
1100
0100
0010
0001
,
0101
0100
0010
1000
,
1100
0100
0010
0001
,
0101
0000
0100
0000
0010
1000
0001
0000
,
1000
0200
0000
0000
1300
0002
0000
0000
,
1003
0010
0100
0001
,
0020
0000
0031
0010
,
0001
0010
0100
0000
0100
0010
0001
0000
,
0011
0010
0100
1000
,
1010
0010
0100
0001
,
0011
0010
0100
1000
,
1010
0000
0010
0000
0100
0001
1000
0000
,
0001
0100
0001
0000
1000
0100
1000
0000
,
0001
0010
0100
1000
,
0020
0000
1000
0000
1030
0010
0100
0000
,
0001
0100
0010
0000
0010
1000
0001
0000
,
2001
0000
0100
3100
,
1000
0100
0010
0001
,
1002
0000
0100
0103
,
0001
0100
0001
0000
1000
0010
1000
0000
,
0001
0010
0100
0001
,
0100
1000
0010
0010
,
1000
0010
0100
1000
,
0100
0001
0010
0010
,
0001
0010
0100
0000
0010
0100
1000
0000
,
0010
0010
0010
0100
,
0002
0003
0200
0300
,
0020
0030
2000
3000
,
0001
0010
0100
1000
,
0001
1000
0001
1000
0000
0000
0000
0000
,
0001
0010
1000
0010
,
0001
0100
1000
0100
,
0001
0010
1000
0010
,
0200
0000
1000
1300
,
2100
0000
0010
3010
,
1000
0010
0100
0000
0010
0100
0001
0000
,
0102
0000
0010
0013
,
0001
0010
0001
0000
1000
0100
1000
0000
,
0001
0100
0001
0000
0100
0001
0100
0000
,
0010
1000
0010
0000
1000
0010
1000
0000
,
0100
1000
0100
0000
1000
0100
1000
0000
,
0001
0010
0001
0000
0001
1000
0001
0000
,
1000
0010
0100
0000
0010
0100
0001
0000
,
0010
0010
0010
0100
,
1000
0000
0100
0000
0010
0001
1000
0000
,
0001
0000
0100
0000
0010
1000
0001
0000
,
1000
0000
0010
0000
0100
0001
1000
0000
,
0001
1000
0001
1000
0000
0000
0000
0000
;

//--------------- dance-single - Pandy VS chronon ----------------
#NOTEDATA:;
#STEPSTYPE:dance-single;
#DESCRIPTION:Pandy VS chronon;
#DIFFICULTY:Medium;
#METER:12;
#RADARVALUES:0,0,0,0,0,0,0,0,0,0,0,0,0,0,0,0,0,0,0,0,0,0,0,0,0,0,0,0;
#CHARTNAME:;
#CHARTHASH:1549103314;
#BANNER:;
#CHARTSTYLE:;
#METERF:0.000000;
#LASTSECONDHINT:86.473694;
#CREDIT:;
#NOTES:
0000
0000
0000
0000
,
0000
0000
0000
0000
,
0000
0000
0000
0000
,
0011
0000
0010
0100
0000
1000
1100
0000
,
1010
0000
0000
0000
0010
0000
0100
0000
0000
0000
0001
0000
0100
0001
0000
0000
,
0011
0000
0010
0100
0000
1000
1100
0000
,
1010
0000
0000
0000
0010
0000
0100
0000
0000
0000
0001
0000
1000
0001
1000
0000
,
0001
0100
0000
0010
0100
0020
0000
0000
,
1030
0000
0001
0000
1000
0000
0100
0000
0010
0000
0100
0020
0000
0000
0030
0000
,
2002
0000
0000
3003
0001
1000
0010
0100
,
0001
1000
0001
0010
0100
1000
0100
0000
,
1100
0000
0000
0000
0100
0000
0010
0000
0000
0010
0001
0000
0011
0000
0000
0000
,
0101
0000
0000
0000
0100
0000
0010
0000
0000
0010
1000
0000
0010
1000
0000
0000
,
1100
0000
0000
0000
0100
0000
0010
0000
0000
0010
0001
0000
0011
0000
0000
0000
,
0101
0000
0000
0000
0100
0000
0010
0000
0000
0010
1000
0000
0001
1000
0001
0000
,
1000
0010
0100
0001
1000
0001
0010
0000
,
0001
0000
0010
0000
0100
0000
1000
0000
0001
0000
1000
0020
0000
0000
0000
0000
,
0032
0000
0000
0000
0023
0000
0000
0000
0130
0000
0010
0100
0000
0001
1000
0000
,
0001
0000
1000
0000
0100
0000
0010
0000
0001
0000
0100
0001
0000
0000
0000
0000
,
0201
0000
0010
0310
,
1000
0000
0100
0000
0010
0000
0001
0010
0000
0001
0010
0000
0001
0000
1000
0000
,
1020
0000
0100
0130
,
0001
0000
1000
0001
0000
0010
0001
0000
1000
0000
0001
1000
0000
0010
1000
0000
,
0001
0100
0001
1000
0001
0010
0011
0000
,
1000
0100
1000
0001
1000
0010
1010
0000
,
0001
0100
0001
1000
0001
0010
0011
0000
,
1000
0100
1000
0001
1000
0010
1010
0000
,
1000
0010
0100
0000
0001
0010
0100
0000
,
1100
0000
1100
0000
0100
1000
0001
0000
,
2000
0010
3002
0010
,
2003
0100
3002
0100
,
1003
0000
0001
0000
0100
0000
0000
0010
0000
0000
0010
0000
1000
0000
0001
0000
,
1000
1000
0001
0001
0000
0000
0000
0000
,
1000
0100
0010
0100
0001
0100
1000
0000
,
0001
0100
0010
0100
1000
0100
0001
0000
,
1000
0100
0010
0100
0001
0100
0010
0001
,
0200
0000
0010
0310
,
1020
0100
0001
0031
,
0010
0000
0100
0000
0001
0000
1000
0001
0000
1000
0100
0000
0010
0000
0001
0000
,
0021
0100
1000
1030
,
0010
0000
0100
0010
0000
0001
1000
0000
0010
0000
0100
0010
0000
1000
0001
0000
,
1000
0010
1000
0010
1000
0010
0101
0000
,
0001
0010
0001
0010
0001
0010
1100
0000
,
1000
0010
1000
0010
1000
0010
0101
0000
,
0001
0010
0100
1000
0001
1000
0010
0000
,
1000
0010
0100
0001
1000
0100
0010
0000
,
0011
0000
0011
0000
0001
1000
0010
0000
,
1000
0000
0001
0000
1000
0000
0100
1000
0000
0100
1000
0000
0100
0000
0010
0000
,
0001
0000
1000
0000
0001
0000
0100
0001
0000
0100
0001
0000
0100
0000
0010
0000
,
1000
0000
0010
0000
0100
0000
0001
1000
0000
0001
0010
0000
0100
0000
1000
0000
,
0010
0010
0100
0100
0000
0000
0000
0000
;

//--------------- dance-single - Pandy VS chronon ----------------
#NOTEDATA:;
#STEPSTYPE:dance-single;
#DESCRIPTION:Pandy VS chronon;
#DIFFICULTY:Hard;
#METER:15;
#RADARVALUES:0.700684,0.782602,0.177549,0.477163,0.671357,442,426,16,43,0,0,0,0,0,0.700684,0.782602,0.177549,0.477163,0.671357,442,426,16,43,0,0,0,0,0;
#CHARTNAME:;
#CHARTHASH:960068568;
#BANNER:;
#CHARTSTYLE:;
#METERF:0.000000;
#LASTSECONDHINT:86.473694;
#CREDIT:;
#NOTES:
0000
0000
0000
0000
,
0000
0000
0000
0000
,
0000
0000
0000
0000
0000
0000
0000
0000
0000
0000
0000
0000
0001
0100
0001
0100
,
2000
0000
3100
0000
0010
0000
1000
0000
0000
0100
0000
0000
1200
0000
0000
0000
,
0302
0000
0103
0000
0010
0000
0001
0000
0000
0100
0000
0000
0001
0100
0000
0000
,
2000
0000
3100
0000
0010
0000
1000
0000
0000
0100
0000
0000
1200
0000
0000
0000
,
0302
0000
0103
0000
0010
0000
0001
0000
1000
0000
0001
0000
1000
0001
1000
0001
,
1000
0020
0000
1030
0001
0020
0000
0000
,
0031
0000
0010
0000
0100
0000
0010
0000
0001
0000
1000
0001
0000
0000
0000
0000
,
0201
0000
0000
0000
0000
0000
0000
0000
0301
1000
0010
1000
0000
0001
0010
0000
,
0001
0000
0010
0000
0100
0000
0010
0000
0001
0000
1000
0001
0200
0000
0310
0000
,
0002
0000
0013
0000
0100
0000
0010
1000
0000
0100
1000
0000
1200
0000
0310
0000
,
2000
0000
3010
0000
0100
0000
0010
0001
0000
0100
0001
0000
0100
0010
0100
0000
,
2000
0000
3100
0000
0010
0000
0100
0001
0000
0010
0001
0000
0021
0000
0130
0000
,
0002
0000
0103
0000
0010
0000
0100
1000
0000
0010
1000
0000
0001
1000
0001
1000
,
0001
0100
0010
0100
0001
1000
1001
0000
,
1000
0000
0100
0000
0010
0000
0100
0000
1000
0000
0001
0200
0000
0000
0000
0000
,
2300
0000
0000
0000
3200
0000
0000
0000
0310
0100
0010
1000
0000
0001
1000
0000
,
0001
1000
0100
0010
0001
0010
0100
1000
0001
0000
1000
0001
0200
0000
0300
0000
,
0201
0000
0010
0310
,
1000
0000
0001
0000
0010
0000
0001
0010
0000
0100
1000
0000
0100
0000
1000
0000
,
1200
0000
0010
0310
,
0001
0010
0001
0010
0000
0100
1000
0001
1000
0010
1000
0010
0000
0100
0001
1000
,
0001
0000
1000
0010
0000
1000
0001
0000
1000
0010
0000
1000
0200
0000
0300
0000
,
1000
0001
1000
0100
0010
0001
1000
0001
0100
0010
1000
0000
0200
0000
0300
0000
,
1000
0000
0001
0010
0000
0001
1000
0000
0001
0010
0000
0001
0200
0000
0300
0000
,
0001
1000
0001
0100
0010
1000
0001
1000
0100
0010
0001
0000
0200
0000
0300
0000
,
0001
0100
0001
1000
0001
0010
0100
1000
0100
0000
1000
0000
0020
0000
0000
0000
,
0130
0000
0100
0000
0100
0001
1001
0000
,
2000
0010
3002
0010
,
2003
0000
0000
0000
0100
0000
0000
0000
3001
0000
0000
0000
0100
0001
0100
0001
,
1000
0000
0010
0000
0100
0000
0010
1000
0000
0001
1000
0000
0200
0000
0320
0000
,
0031
0000
0001
0000
1000
0000
1000
0000
0001
1000
0001
1000
0001
1000
0001
1000
,
0001
0100
0001
0000
0100
0000
0010
0000
1000
0000
0100
0000
0010
0000
0100
0000
,
1000
0100
1000
0000
0100
0000
0010
0000
0001
0000
0200
0000
0000
0000
0310
0000
,
1000
0010
1000
0000
0010
0000
0100
0000
0001
0000
0010
0000
0100
0000
0010
0000
,
2000
0000
0000
0000
3020
0000
0000
0000
0130
0010
0100
1000
0000
0001
0100
0000
,
0101
0000
0001
0000
1000
0000
0010
0100
2000
0000
3100
0010
2000
0000
3001
0000
,
1000
0000
0100
0000
0010
0000
0001
1000
0000
0001
0100
0010
1000
0000
0100
0000
,
1100
0000
1000
0000
0001
0000
0010
0100
0002
0000
0103
0010
0002
0000
1003
0000
,
0001
0010
0100
1000
0000
0100
1000
0001
1000
0010
0100
0001
0000
0100
0001
1000
,
0001
0000
0010
0000
0001
0000
0010
0000
0001
0000
0010
0001
0000
0010
0001
0000
,
1000
0000
0010
0000
1000
0000
0010
0000
1000
0000
0010
1000
0000
0010
1000
0000
,
0001
0000
0100
0000
0001
0000
0100
0000
0001
0000
0100
0001
0000
0100
0001
0000
,
0010
0100
1000
0000
0010
0100
0001
0000
0010
0100
0010
0100
1000
0001
1000
0000
,
0001
0100
0001
1000
0001
0010
0100
1000
0100
0000
1000
0000
0020
0000
0000
0000
,
0230
1300
0200
0310
0200
0301
1001
0000
,
1000
0000
0001
0000
0010
0000
0001
0010
0000
0010
0100
0010
0001
0000
0100
0000
,
0001
0000
1000
0000
0010
0000
1000
0010
0000
0010
0100
0010
1000
0001
1000
0001
,
1000
0000
0100
0000
0010
0000
0100
1000
0000
1000
0001
0100
0010
1000
0010
0000
,
1010
0110
0101
1001
0000
0000
0000
0000
;
