#TITLE:JET WORLD (Ryu☆Remix);
#SUBTITLE:;
#ARTIST:泉陸奥彦 Remixed by Ryu☆;
#TITLETRANSLIT:;
#SUBTITLETRANSLIT:;
#ARTISTTRANSLIT:Mutsuhiko Izumi Remixed by Ryu☆;
#GENRE:HARD COUNTRY REMIX;
#CREDIT:;
#BANNER:JET WORLD (Ryu Remix).png;
#BACKGROUND:JET WORLD (Ryu Remix)-bg.png;
#LYRICSPATH:;
#CDTITLE:;
#MUSIC:JET WORLD (Ryu Remix).ogg;
#OFFSET:0.008944;
#SAMPLESTART:27.628109;
#SAMPLELENGTH:15.380000;
#SELECTABLE:YES;
#BPMS:0.000000=165.000000
;
#STOPS:
;
#BGCHANGES:;
#KEYSOUNDS:;
#ATTACKS:;

//---------------dance-single - ----------------
#NOTES:
     dance-single:
     :
     Hard:
     17:
     0.787547,0.909300,0.158415,0.253463,0.748509,696.000000,676.000000,20.000000,32.000000,18.000000,0.000000,0.787547,0.909300,0.158415,0.253463,0.748509,696.000000,676.000000,20.000000,32.000000,18.000000,0.000000:
0000
0000
0000
0000
,
0000
0000
0000
0000
,
0000
0000
0000
0000
,
1001
0001
0100
0010
,
1000
0100
1000
0000
0001
0100
0001
0000
1000
0100
0010
0001
1000
0001
1000
0001
,
2000
0000
3010
0000
1000
0000
0001
0000
0100
0000
0001
0000
0010
0M00
0010
0000
,
2000
0000
3100
0000
0010
0000
0001
0000
1000
0000
0010
0000
0100
0001
0100
0000
,
0002
0000
0013
0000
0001
0000
1000
0000
0100
0000
1000
0000
0010
0M00
0010
0000
,
0001
0100
0001
0000
1000
0100
1000
0000
0001
0010
0100
1000
0001
0100
0010
1000
,
0200
0300
0000
0000
,
1000
0010
0100
0001
0000
1000
1001
0000
,
0001
0010
0000
0001
0010
0000
0100
0010
0000
0100
0010
0000
0001
0000
1000
0000
,
0001
0100
0000
0001
0100
0000
0010
0100
0000
0001
1000
0000
0100
0010
0100
0000
,
1000
0010
0000
1000
0010
0000
0100
0010
0000
0100
0010
0000
1000
0000
0010
0100
,
0001
0000
0010
0000
0100
1000
0001
0000
0100
0001
1000
0000
0100
0000
0010
0000
,
0001
0010
0000
0001
0010
0000
0100
1000
0000
0100
1000
0000
0001
0000
1000
0000
,
0001
0100
0000
0001
0100
0000
0010
1000
0000
0001
1000
0000
0100
0010
0100
0000
,
1000
0010
0000
1000
0010
0000
0100
0001
0000
0100
0001
0000
1000
0000
0001
0010
,
0100
0000
0010
0000
0001
1000
0010
0000
1000
0001
0010
0000
0100
0000
0000
0000
,
1000
1000
0010
1000
0100
0010
0001
0000
,
1000
0000
0010
0000
0100
0000
0010
0000
1000
0000
0100
1000
0000
0000
0100
0000
,
0002
0000
0000
0000
0103
0000
0000
0000
1000
0000
0010
0100
0000
0010
1000
0000
,
0001
0010
0100
0010
0001
1000
0001
0000
,
2000
0000
3010
0000
0100
0000
0001
0000
1000
0000
0100
0000
0010
M000
0010
0000
,
2000
0000
3100
0000
0010
0000
0001
0000
1000
0000
0010
0000
0100
0001
1000
0000
,
0002
0000
0013
0000
0100
0000
1000
0000
0001
0000
0100
0000
0010
000M
0010
0000
,
0001
1000
0010
0000
1000
0001
0010
0000
0001
1000
0100
1000
0001
0000
1000
0000
,
0001
0001
0010
0001
0100
0010
1000
0000
,
0001
0000
0010
0000
0100
0000
0010
0000
0001
0000
0100
0001
0000
0000
0100
0000
,
2000
0000
0000
0000
3100
0000
0000
0000
0001
0000
0010
0100
0000
0010
0001
0000
,
1000
0000
0010
0100
0000
0010
1000
0000
0001
0000
0010
0200
0000
0000
0300
0000
,
2001
0000
0001
3001
,
1000
0000
0010
0000
0100
0000
0001
0100
00M0
0100
1000
0000
0001
0000
1000
0000
,
1002
0000
1000
1003
,
0001
0010
0100
1000
0000
0100
1000
0000
0001
0100
0010
1000
0000
0010
1000
0000
,
0001
0000
0010
0001
0000
1000
0001
0000
0010
0001
0000
1000
0001
0000
0010
0000
,
0001
0000
1000
0000
0010
0000
0100
0000
0001
1000
0100
0000
1000
0001
0100
0010
,
1000
0000
0010
1000
0000
0001
1000
0000
0010
1000
0000
0001
1000
0000
0010
0000
,
1000
0000
0001
0000
0010
0000
0100
0000
1000
0001
0100
0001
1000
0100
0010
0000
,
0001
0000
1000
0100
0000
1000
0001
0100
0010
0000
0100
0000
0001
0000
0000
0000
,
0022
0033
2200
3300
1001
0001
0100
0000
,
0001
0000
0010
0000
0100
0000
1000
0100
00M0
0100
0001
0000
0010
0000
0010
0000
,
0001
0000
0100
0000
0010
0000
1000
0010
0M00
0010
0001
0000
1000
0000
1000
0000
,
0001
0000
0100
0000
0010
0000
1000
0100
00M0
0100
0001
0000
0010
0000
0010
0000
,
0001
0100
1000
0200
0000
0300
1001
0000
,
1100
0000
0000
0000
0100
0000
0000
0000
1000
0000
0000
0000
0010
0M00
0010
0000
,
0001
0000
0000
0000
0100
0000
0000
0000
0001
0000
0000
0000
1000
0100
00M0
0000
,
0101
0000
0000
0000
0100
0000
0000
0000
0001
0000
0000
0000
0010
0M00
0010
0000
,
1000
0000
0100
0000
1000
0100
0001
0000
,
0120
0031
0210
1300
,
0120
0031
0210
1300
,
0001
0100
0010
1000
0001
0010
0100
1000
,
0001
1000
0010
0100
0001
1000
0100
0010
0001
0100
0010
1000
0001
0010
0100
1000
,
0020
0030
0000
0000
,
1000
0100
0010
0001
0000
1000
1001
0000
,
0001
1000
0010
0100
0001
1000
0100
0010
0001
0100
0010
1000
0002
0000
0003
0000
,
1000
0010
0000
1000
0001
0000
0100
0001
0000
1000
0001
0000
0010
0000
0100
0000
,
1000
0010
0000
1000
0001
0000
0100
0001
0000
0010
0001
0000
1000
0100
0010
0001
,
1000
0100
0000
1000
0010
0000
0100
0001
0000
1000
0001
0000
0010
0000
0100
1000
,
0001
0100
0001
0000
0001
0010
0100
1000
0001
0100
0010
0000
0100
0001
1000
0000
,
0001
0010
0000
0001
1000
0000
0100
1000
0000
0001
1000
0000
0010
0000
0100
0000
,
0001
0010
0000
0001
1000
0000
0100
1000
0000
0010
1000
0000
0001
0100
0010
1000
,
0001
0100
0000
0001
0010
0000
0100
1000
0000
0001
1000
0000
0010
0000
0100
0001
,
1000
0100
1000
0000
1000
0010
0100
0001
1000
0100
0010
0000
0001
0000
0000
0000
,
1000
0010
1000
0010
0001
0010
0001
0010
,
1000
0100
1000
0100
0001
0100
0001
0100
,
1000
0100
0001
1000
0010
0001
0100
0010
,
1000
0010
1000
0010
1000
0010
1000
0010
0100
0001
0100
0001
0100
0001
0100
0001
,
2000
0000
0001
3001
,
1000
0000
0100
0000
0010
0000
0001
0100
00M0
0100
0010
0000
0001
0000
1000
0000
,
1002
0000
1000
1003
,
0001
0010
0100
1000
0000
0100
1000
0000
0001
0100
0010
1000
0000
0010
1000
0000
,
0001
0000
0010
0000
1000
0000
0010
0000
0001
0000
1000
0010
0M00
0010
0001
0000
,
1000
0000
0010
0000
0001
0000
0010
0000
1000
0000
0001
0010
0M00
0010
1000
0000
,
0001
0000
0100
0000
1000
0000
0100
0000
0001
0000
1000
0100
00M0
0100
0001
0000
,
1000
0100
0010
0001
1000
0100
0010
0001
1000
0100
1000
0100
0010
0001
1000
0001
,
1000
0000
0001
0100
0000
0001
1000
0100
0010
0000
0100
0000
1000
0000
0000
0000
,
2020
3030
0202
0303
1001
1000
0100
0000
,
1000
0000
0001
0000
0100
0000
0010
1000
0M00
1000
0100
0000
0010
0000
0010
0000
,
1000
0000
0001
0000
0010
0000
0100
1000
00M0
1000
0010
0000
0001
0000
0001
0000
,
1000
0000
0001
0000
0100
0000
0010
1000
0M00
1000
0100
0000
0010
0000
0010
0000
,
1000
0100
0001
0200
0000
0300
2002
0000
,
3003
0000
0000
0000
;

//---------------dance-single - ----------------
#NOTES:
     dance-single:
     :
     Medium:
     13:
     0.580476,0.617025,0.316829,0.198018,0.170296,513.000000,473.000000,40.000000,25.000000,0.000000,0.000000,0.580476,0.617025,0.316829,0.198018,0.170296,513.000000,473.000000,40.000000,25.000000,0.000000,0.000000:
// measure 0
0000
0000
0000
0000
,  // measure 1
0000
0000
0000
0000
,  // measure 2
0000
0000
0000
0000
,  // measure 3
0000
0000
0000
0000
,  // measure 4
0000
0000
0000
0000
,  // measure 5
0001
0010
0100
1000
0100
0010
0001
0001
,  // measure 6
1000
0010
0100
0001
0100
0010
1010
0000
,  // measure 7
1000
0100
0010
0001
1000
0001
0100
0100
,  // measure 8
0001
0010
0100
1000
0010
1000
0001
0000
,  // measure 9
2002
3003
0000
0000
,  // measure 10
0001
0010
0100
1000
0000
0001
1001
0000
,  // measure 11
1000
0000
0000
0100
0000
0000
0001
0000
0000
0100
0000
0000
1000
0000
0001
0000
,  // measure 12
1000
0000
0000
0010
0000
0000
0100
0000
0000
1000
0000
0000
0100
0000
0001
0000
,  // measure 13
1000
0000
0000
0010
0000
0000
0001
0000
0000
0010
0000
0000
1000
0000
0001
0000
,  // measure 14
1000
0100
0010
0001
0100
0010
1000
0001
,  // measure 15
1000
0000
0000
0100
0000
0000
0001
0000
0000
0100
0000
0000
1000
0000
0001
0000
,  // measure 16
1000
0000
0000
0010
0000
0000
0100
0000
0000
1000
0000
0000
0100
0000
0001
0000
,  // measure 17
1000
0000
0000
0010
0000
0000
0001
0000
0000
0010
0000
0000
1000
0000
0001
0000
,  // measure 18
1000
0100
0010
0001
0100
0010
1001
0000
,  // measure 19
1000
0100
0000
0100
1000
0001
0100
0000
,  // measure 20
0001
0010
0100
0010
0100
1000
0001
0000
,  // measure 21
1002
0000
0000
0000
0103
0000
0000
0000
0001
0000
0000
0010
0000
0000
0100
0000
,  // measure 22
1000
0010
0100
0010
1000
0100
0010
0000
,  // measure 23
0011
0000
0001
1000
0000
0001
0100
0100
,  // measure 24
0010
0000
1000
0010
0000
1000
0001
0000
,  // measure 25
1010
0000
1000
0001
0000
1000
0100
0100
,  // measure 26
0010
0000
0001
0010
0000
0001
1000
0000
,  // measure 27
0001
0100
0000
0100
0001
1000
0100
0000
,  // measure 28
1000
0010
0100
0010
0100
0001
1000
0000
,  // measure 29
2001
0000
0000
0000
3100
0000
0000
0000
1000
0000
0000
0010
0000
0000
0100
0000
,  // measure 30
0001
0000
0000
0010
0000
0000
0100
0000
0001
0000
0100
0000
1000
0000
0000
0000
,  // measure 31
1002
0000
1000
1003
,  // measure 32
0001
0000
0010
0000
0100
0000
0000
0010
0000
0000
0001
0000
1000
0000
0001
0000
,  // measure 33
2001
0000
0001
3001
,  // measure 34
1000
0000
0000
0010
0000
0000
0101
0000
0001
0000
0000
0010
0000
0000
1100
0000
,  // measure 35
1000
0000
0000
0010
0000
0000
0001
0000
0000
0010
0000
0000
1000
0000
0001
0000
,  // measure 36
1000
0100
0010
0001
0010
0100
1000
0001
,  // measure 37
1000
0000
0000
0100
0000
0000
0001
0000
0000
0100
0000
0000
1000
0000
0001
0000
,  // measure 38
1000
0010
0100
0001
0100
0010
1000
0000
,  // measure 39
0001
0010
0100
0010
1000
0010
0001
0000
,  // measure 40
0101
0000
1010
0000
1001
0001
1000
0000
,  // measure 41
0001
0000
0010
0000
0100
0000
1000
0100
0000
0000
0100
0000
0010
0000
0010
0000
,  // measure 42
0001
0000
0100
0000
0010
0000
1000
0010
0000
0000
0010
0000
0100
0000
0100
0000
,  // measure 43
0001
0000
1000
0000
0100
0000
1000
0001
0000
0000
0100
0000
0010
0000
0010
0000
,  // measure 44
0100
0001
0010
0200
0000
0300
1001
0000
,  // measure 45
2010
0010
3001
1000
,  // measure 46
0012
0010
1003
0001
,  // measure 47
2100
0100
3001
1000
,  // measure 48
0102
0100
1003
0001
,  // measure 49
0012
0103
2010
3100
,  // measure 50
2100
3010
0102
0013
,  // measure 51
0011
1100
0101
1010
,  // measure 52
0001
0010
0100
1000
0001
0100
0010
1000
,  // measure 53
2002
3003
0000
0000
,  // measure 54
1000
0100
0010
0001
0000
1000
1001
0000
,  // measure 55
0102
0000
0203
0000
1300
0001
0010
0000
,  // measure 56
1000
0000
0000
1000
0100
0000
1000
0000
0001
0000
0010
0000
0001
0000
0000
0000
,  // measure 57
1000
0000
0000
1000
0010
0000
1000
0000
0100
0000
0001
0000
0100
0000
0010
0000
,  // measure 58
0001
0000
0000
0001
0100
0000
0001
0000
1000
0000
0100
0000
0010
0000
0001
0000
,  // measure 59
0100
0100
0010
0010
1000
0100
0010
0000
,  // measure 60
0001
0000
0000
0001
0100
0000
0001
0000
1000
0000
0010
0000
1000
0000
0000
0000
,  // measure 61
0001
0000
0000
0001
0010
0000
0001
0000
0100
0000
1000
0000
0100
0000
0010
0000
,  // measure 62
1000
0000
0000
1000
0100
0000
1000
0000
0001
0000
0100
0000
0010
0000
1000
0000
,  // measure 63
0100
0100
0010
0010
0001
0100
0010
0000
,  // measure 64
1000
0010
1000
0010
1000
0010
1000
0010
,  // measure 65
0100
0001
0100
0001
0100
0001
0100
0001
,  // measure 66
1000
0010
0100
0001
1000
0010
0100
0001
,  // measure 67
0120
0000
0100
0130
,  // measure 68
2001
0000
0001
3001
,  // measure 69
1000
0000
0100
0000
0010
0000
0000
0100
0000
0000
1000
0000
0001
0000
1000
0000
,  // measure 70
1002
0000
1000
1003
,  // measure 71
0001
0000
0000
0100
0000
0000
1010
0000
1000
0000
0000
0100
0000
0000
0011
0000
,  // measure 72
0001
0000
0010
0000
0100
0000
0010
0000
0001
0000
0000
0100
0000
0000
0010
0000
,  // measure 73
0001
0000
0010
0000
0100
0000
0010
0000
0001
0000
0000
0010
0000
0000
1000
0000
,  // measure 74
0100
0000
0010
0000
1000
0000
0010
0000
0100
0000
0000
1000
0000
0000
0001
0000
,  // measure 75
0100
1000
0100
0001
0100
0100
0010
1000
,  // measure 76
0001
0010
0100
0010
1000
0010
0001
0000
,  // measure 77
0101
0000
1010
0000
1001
1000
0001
0000
,  // measure 78
1000
0000
0100
0000
0010
0000
0001
1000
0000
1000
0010
0000
0100
0000
0100
0000
,  // measure 79
0010
0000
1000
0000
0100
0000
0010
0001
0000
0001
1000
0000
0001
0000
0001
0000
,  // measure 80
1000
0000
0010
0000
0100
0000
0001
0010
0000
0010
0001
0000
0100
0000
0100
0000
,  // measure 81
0001
0010
1000
0020
0000
0030
2002
0000
,  // measure 82
3003
0000
0000
0000
;

//---------------dance-single - ----------------
#NOTES:
     dance-single:
     :
     Easy:
     8:
     0.389247,0.422175,0.269305,0.198018,0.000000,344.000000,310.000000,34.000000,25.000000,0.000000,0.000000,0.389247,0.422175,0.269305,0.198018,0.000000,344.000000,310.000000,34.000000,25.000000,0.000000,0.000000:
0000
0000
0000
0000
,
0000
0000
0000
0000
,
0000
0000
0000
0000
,
0000
0000
0000
0000
,
0000
0000
0000
0000
,
0001
0100
0010
1000
,
0001
0010
0100
1000
,
0001
0100
1000
0100
,
0001
0010
1000
0010
,
2002
3003
0000
0000
,
0001
0000
0000
1000
0000
0000
1001
0000
,
0001
0100
0010
1010
,
0010
0000
0100
0000
0001
0000
1000
0001
,
1000
0100
0010
0011
,
0001
0000
1000
0000
0010
0100
0001
0000
,
1000
0100
0010
0011
,
0010
0000
0100
0000
1000
0000
0001
1000
,
0001
0100
0010
1010
,
1000
0000
0001
0000
0010
0100
1000
0000
,
0002
0100
2003
0100
,
3001
0010
0100
1000
,
0002
0010
2003
0010
,
3001
0000
0010
0000
0100
1000
0100
0000
,
1000
0000
0010
0000
0100
0000
0001
0100
,
0001
0100
0010
1000
,
0001
0000
0010
0000
0100
0000
1000
0100
,
1000
0100
0010
1001
,
2000
0100
3002
0100
,
1003
0010
0100
0001
,
2000
0010
3002
0010
,
1003
0000
0010
0000
0100
0001
1000
0000
,
2002
0000
0000
3003
,
0001
0100
0001
0000
1000
0100
1000
0000
,
2002
0000
0000
3003
,
1000
0010
1000
0000
0001
0010
0001
0000
,
1000
0010
0001
0010
,
0100
0100
0001
1000
,
0001
0010
1000
0010
,
0100
0100
1000
0001
,
1000
0000
0010
0000
0100
0001
0100
0000
,
0001
0000
0010
0000
0100
1000
0100
0000
,
1000
0001
1000
0110
,
0001
1000
0001
0110
,
0001
0010
0100
1001
,
1000
0001
1000
0001
0000
0000
1001
0000
,
0101
0000
0000
1000
,
1010
0000
0000
0000
,
0001
0011
0000
0000
,
1000
1100
0000
0001
,
0101
0000
1010
0000
,
0011
0000
1100
0000
,
1001
1001
0110
0110
,
0001
0010
1000
0100
,
0002
0003
0000
0000
,
0010
0000
0000
0100
0000
0000
1001
0000
,
2002
0000
0000
3003
,
1000
0100
0010
0011
,
0010
0000
0100
0000
1000
0000
0001
1000
,
0001
0100
0010
1010
,
1000
0000
0001
0000
0010
0100
1000
0000
,
0001
0100
0010
1010
,
0010
0000
0100
0000
0001
0000
1000
0001
,
1000
0100
0010
0011
,
0001
0000
1000
0000
0010
0100
0001
0000
,
2000
0100
3001
1000
,
0002
0100
1003
0001
,
2000
0010
3001
1000
,
0001
1000
0001
1000
0001
1000
0001
1000
,
0002
0000
1000
1003
,
0001
0010
0100
0000
1000
0100
0010
0000
,
2001
0000
0001
3001
,
1000
0010
0100
0000
0001
0100
0010
0000
,
1000
0100
0001
0100
,
1000
0010
0001
0010
,
1000
0100
0001
1000
,
0010
0001
1000
1001
,
0001
0000
0100
0000
0010
1000
0001
0000
,
0010
0000
0100
0000
1000
0001
0100
0000
,
0010
0000
1000
0000
0100
0000
0010
0001
,
1000
0000
0010
0000
0100
0000
0001
0010
,
0100
0000
1000
0000
0001
0000
0100
0010
,
1000
0001
1000
0002
0000
0003
2002
0000
,
3003
0000
0000
0000
;

//---------------dance-single - ----------------
#NOTES:
     dance-single:
     :
     Beginner:
     4:
     0.216123,0.259008,0.063366,0.000000,0.000000,191.000000,183.000000,8.000000,0.000000,0.000000,0.000000,0.216123,0.259008,0.063366,0.000000,0.000000,191.000000,183.000000,8.000000,0.000000,0.000000,0.000000:
0000
0000
0000
0000
,
0000
0000
0000
0000
,
0000
0000
0000
0000
,
0000
0000
0000
0000
,
0000
0000
0000
0000
,
0001
0000
0000
0010
,
0010
0000
0000
0100
,
0100
0000
0000
1000
,
1000
0000
0000
0001
,
0001
0000
0000
0000
,
0100
0100
0100
0000
,
0010
0000
1000
0000
,
0001
0000
0010
0010
,
0010
0000
0100
0000
,
1000
0000
0001
0001
,
0001
0000
0100
0000
,
0010
0000
1000
1000
,
1000
0000
0001
0000
,
0010
0000
0100
0100
,
0100
0000
1000
0000
,
0001
0001
0001
0000
,
0100
0000
0010
0000
,
1000
1000
1000
0000
,
0001
0000
0010
0010
,
0010
0000
0100
0100
,
0100
0000
1000
1000
,
1000
0000
0001
0001
,
0001
0000
0100
0000
,
0010
0010
0010
0000
,
1000
0000
0001
0000
,
0100
0100
0100
0000
,
1001
0000
0000
0000
,
0010
0010
0010
0000
,
1001
0000
0000
0000
,
0100
0100
0100
0000
,
1000
0000
0100
0000
,
0001
0001
0001
0000
,
1000
0000
0010
0000
,
0001
0001
0001
0000
,
0100
0100
0100
0000
,
0010
0010
0010
0000
,
1000
0000
0001
0001
,
0001
0000
0010
0010
,
0010
0000
0100
0100
,
0100
0100
0100
0000
,
1000
0000
0000
0000
,
0001
0000
0000
0000
,
0100
0000
0000
0000
,
0010
0000
0000
0000
,
1000
0000
1000
0000
,
0001
0000
0001
0000
,
0010
0010
0010
0000
,
0100
0100
0100
0100
,
0100
0000
0000
0000
,
0010
0000
0000
0000
,
1001
0000
0000
0000
,
0001
0000
0100
0100
,
0100
0000
0010
0010
,
0010
0000
0001
0001
,
0001
0001
0001
0001
,
0001
0000
0010
0010
,
0010
0000
0100
0100
,
0100
0000
1000
1000
,
1000
1000
1000
0000
,
0001
0000
0000
0000
,
0100
0000
0000
0000
,
0010
0000
0000
0000
,
1000
1000
1000
0000
,
1001
0000
0000
0000
,
0001
0001
0001
0000
,
1001
0000
0000
0000
,
0100
0100
0100
0000
,
1000
1000
1000
0000
,
0010
0010
0010
0000
,
0100
0100
0100
0000
,
0001
0001
0001
0000
,
1001
0000
0000
0000
,
0110
0000
0000
0000
,
0001
0001
0001
0000
,
0010
0010
0010
0000
,
0100
0100
0100
0000
,
1000
1000
0000
1001
;
