#VERSION:0.83;
#TITLE:Insaner (L.E.D's Punishment Mix);
#SUBTITLE:;
#ARTIST:Jondi & Spesh;
#TITLETRANSLIT:;
#SUBTITLETRANSLIT:;
#ARTISTTRANSLIT:;
#GENRE:;
#CREDIT:;
#MUSIC:Insaner (LED's Punishment Mix).ogg;
#BANNER:Insaner (LED's Punishment Mix).png;
#BACKGROUND:Insaner (LED's Punishment Mix)-bg.png;
#CDTITLE:cdtitle.png;
#SAMPLESTART:55.749;
#SAMPLELENGTH:15.000;
#SELECTABLE:YES;
#OFFSET:-0.001;
#BPMS:0.000=155.000
,144.000=165.000
,212.000=155.000
,218.000=153.000
,220.000=156.000
,222.000=159.000
,224.000=173.000
,228.000=175.000
;
#STOPS:;
#SPEEDS:0.000=1.000=0.000=0;
#SCROLLS:0.000=1.000;
#TICKCOUNTS:0.000=4;
#TIMESIGNATURES:0.000=4=4;
#LABELS:0.000=Song Start;
#COMBOS:0.000=1;
#DISPLAYBPM:155.000:175.000;
#ORIGIN:;
#TAGS:;
#PREVIEWVID:;
#JACKET:Insaner (LED's Punishment Mix)-jacket.png;
#CDIMAGE:;
#DISCIMAGE:;
#BGCHANGES:;
#FGCHANGES:;

//--------------- dance-single - ----------------
#NOTEDATA:;
#STEPSTYPE:dance-single;
#DESCRIPTION:;
#DIFFICULTY:Beginner;
#METER:5;
#RADARVALUES:0.182172,0.259661,0.027722,0.110887,0,138,135,3,12,0,0,0,0,0,0.182172,0.259661,0.027722,0.110887,0,138,135,3,12,0,0,0,0,0;
#DISPLAYBPM:155.000:175.000;
#CHARTNAME:;
#CHARTHASH:2271962609;
#BANNER:;
#CHARTSTYLE:;
#METERF:0.000000;
#LASTSECONDHINT:104.659760;
#CREDIT:;
#NOTES:
0000
0000
0000
0000
,
0000
0000
0000
0000
,
0000
0000
0000
0000
,
0000
0000
0000
0000
,
0000
0000
0000
0000
,
1000
0000
0000
0000
,
1000
0000
0000
0000
,
0001
0000
0000
0000
,
0001
0000
0000
0000
,
0010
0000
0100
0000
,
0010
0000
0000
0000
,
0001
0000
1000
0000
,
0001
0000
0000
0000
,
2002
0000
0000
0000
,
3003
0000
0000
0000
,
0220
0000
0000
0000
,
0330
0000
0000
0000
,
0001
0000
0001
0000
,
1000
0000
0100
0000
,
0010
0000
0010
0000
,
0200
0000
0000
0000
,
1300
0001
0100
0000
,
0100
0000
0010
0000
,
1000
0001
0010
0000
,
0010
0000
0100
0000
,
0010
0001
1000
0000
,
1000
0000
0010
0000
,
0100
0010
1000
0000
,
0001
0000
0001
0000
,
1000
0000
1000
0000
,
0001
0000
0001
0000
,
0010
0100
0010
0000
,
0001
1000
0010
0000
,
2000
0000
0000
0000
,
3200
0000
0000
0000
,
0320
0000
0000
0000
,
0032
0000
0000
0000
,
1003
0000
0000
1000
0000
0000
1000
0000
,
0000
0001
0000
0001
0000
0000
0100
0000
,
0000
0100
0000
0000
0010
0000
0000
0010
,
0000
1000
1000
0000
,
0001
0000
0000
0001
0000
0000
0001
0000
,
0000
1000
0000
1000
0000
0000
0100
0000
,
0100
0000
0010
0001
,
2000
0000
0000
0000
,
3001
0000
0000
0001
0000
0000
0001
0000
,
0000
0100
0000
0100
0000
0000
0010
0000
,
1000
0000
0000
0000
1000
0000
0000
1000
,
0000
1001
0000
0001
,
1000
0000
0000
1000
0000
0000
1000
0000
,
0100
0000
0000
0100
0000
0000
0010
0000
,
0001
0000
0001
0000
,
1000
0000
1000
0001
,
2000
0000
0000
0000
,
0000
0000
0000
0000
,
3000
0000
0000
0000
,
0000
0000
0000
0000
,
1000
0010
0000
0010
,
1000
0001
0000
0001
,
0010
0100
0000
0100
,
0010
0001
0000
0001
,
1000
0010
0000
0010
,
0100
0001
0000
0001
,
1000
0100
0000
0100
,
1000
0001
0000
0001
,
0100
0010
0000
0010
,
1000
0100
0000
0100
,
0010
0001
0000
0001
,
1000
0010
1000
0010
,
2000
0000
0000
0000
,
0000
3000
0000
0000
;

//--------------- dance-single - ----------------
#NOTEDATA:;
#STEPSTYPE:dance-single;
#DESCRIPTION:;
#DIFFICULTY:Easy;
#METER:8;
#RADARVALUES:0.291739,0.357034,0.018481,0.101647,0.009241,221,219,2,11,0,0,0,0,0,0.291739,0.357034,0.018481,0.101647,0.009241,221,219,2,11,0,0,0,0,0;
#DISPLAYBPM:155.000:175.000;
#CHARTNAME:;
#CHARTHASH:1908575446;
#BANNER:;
#CHARTSTYLE:;
#METERF:0.000000;
#LASTSECONDHINT:104.659760;
#CREDIT:;
#NOTES:
0000
0000
0000
0000
,
0000
0000
0000
0000
,
0000
0000
0000
0000
,
0000
0000
0000
0000
,
0000
0000
0000
0000
,
0001
0010
0100
1000
,
0001
0000
0100
0000
,
0010
0100
0001
1000
,
0100
0000
0010
0000
,
0100
1000
0001
1000
,
0010
0000
0100
0000
,
0010
0100
0001
1000
,
0100
0100
0010
0010
,
1001
0000
0000
0000
,
0000
0000
0000
0000
0000
0000
0000
0001
,
0100
0001
0000
0000
0000
0000
0000
0000
,
0000
0000
0000
0000
,
1000
0100
0010
0001
,
1000
0010
0100
0000
,
0010
1000
0001
1000
,
0200
0000
0000
0000
,
0310
0001
1000
0001
,
0100
0010
1000
0000
,
0010
0100
0001
1000
,
0100
0010
0001
0000
,
1000
0001
0100
0010
,
1000
0001
0010
0000
,
0001
0010
0100
1000
,
0001
1000
0010
0000
,
0100
0010
0100
0001
,
1000
0001
1000
0100
,
0010
0001
0100
0010
,
1000
1000
0001
0001
,
0020
0000
0130
0000
,
0200
0000
1300
0000
,
2000
0000
3001
0000
,
0002
0000
0000
0000
,
1003
0000
0010
0000
0100
0000
0001
1000
,
0001
0000
0010
0010
,
0100
0000
1000
0000
0001
0000
0010
0100
,
0010
0001
0100
0010
,
0010
0000
1000
0000
0001
0000
0100
0010
,
0100
0000
0001
0001
,
1000
0000
0100
0000
0010
0000
0001
1000
,
0002
0000
0000
0000
,
1003
0100
0000
1000
0100
0000
0010
0001
,
0000
0001
0000
0100
0000
0010
0100
0000
,
0001
1000
0001
0000
1000
0010
0000
0010
,
0100
1000
0100
0010
,
0010
0000
1000
0000
0001
0000
0010
0100
,
0010
0001
1000
0010
,
0100
0100
0001
0001
,
1000
0100
0001
0100
,
2000
0000
0000
0000
,
3002
0000
0000
0000
,
0203
0000
0000
0000
,
0300
0000
0000
0000
,
0001
0000
0010
0000
0000
0001
0010
0000
,
0100
0000
0000
0000
1000
0000
0000
1000
0000
0000
0001
0000
0100
0000
0000
0000
,
0010
0000
1000
0000
0000
0010
1000
0000
,
0001
0000
1000
0000
0000
0001
1000
0000
,
0100
0000
0010
0000
0000
0100
0010
0000
,
0001
0000
0000
0000
1000
0000
0000
1000
0000
0000
0001
0000
0100
0000
0000
0000
,
0010
0000
0100
0000
0000
0010
0100
0000
,
0001
0000
1000
0001
0000
0010
0001
0000
,
1000
0000
0100
0000
0010
0001
0010
0000
,
0100
0000
1000
0000
0001
1000
0001
0000
,
0100
0000
0010
0000
0100
0001
0100
0000
,
0001
0001
1000
1000
,
2002
0000
0000
0000
,
0000
3003
0000
0000
;

//--------------- dance-single - ----------------
#NOTEDATA:;
#STEPSTYPE:dance-single;
#DESCRIPTION:;
#DIFFICULTY:Medium;
#METER:10;
#RADARVALUES:0.382825,0.454407,0.083165,0.203293,0.009241,290,281,9,22,0,0,0,0,0,0.382825,0.454407,0.083165,0.203293,0.009241,290,281,9,22,0,0,0,0,0;
#DISPLAYBPM:155.000:175.000;
#CHARTNAME:;
#CHARTHASH:2236667521;
#BANNER:;
#CHARTSTYLE:;
#METERF:0.000000;
#LASTSECONDHINT:104.659760;
#CREDIT:;
#NOTES:
0000
0000
0000
0000
,
0000
0000
0000
0000
,
0000
0000
0000
0000
,
0000
0000
0000
0000
,
0000
0000
0000
0000
,
1000
0010
1000
0001
,
0010
0000
0100
0000
1000
0000
0001
1000
,
0001
0100
0010
0100
,
0001
0000
1000
0000
0100
0000
0010
0001
,
0010
0100
1000
0001
,
1000
0000
0010
0000
0100
0000
0001
1000
,
0100
0010
0100
1000
,
0001
1000
0010
0000
0100
0001
1000
0000
,
1200
0000
0000
0000
,
0000
0000
0000
0000
0000
0000
0000
0310
,
2001
0001
0000
0000
0000
0000
0000
0000
,
0000
0000
0000
0000
,
3001
0100
0010
0000
1000
0000
0001
0000
,
1000
0001
0010
0000
0100
0000
1000
0000
,
0001
1000
0010
0000
0100
0000
0001
0000
,
0020
0000
0000
0000
,
0130
1000
0001
0000
0200
0010
0000
1000
,
0000
0010
0000
0001
0000
0310
0100
0010
,
1000
0001
0010
0000
0200
0010
0000
0001
,
0000
0010
0000
1000
0000
0310
0100
1000
,
0001
1000
0010
0000
0200
0010
0000
1000
,
0000
0010
0000
0001
0000
0310
0100
0001
,
1000
0001
0010
0000
0200
0010
0000
0001
,
0000
0010
0000
1000
0000
0310
0100
1000
,
0001
0100
0010
0000
1000
0000
0001
0000
,
1000
0100
0010
0000
0001
0000
1000
0000
,
0001
1000
0010
0000
1000
0001
0010
0000
,
0100
1000
0010
0000
0100
0001
0010
0000
,
0200
0000
1300
0000
,
0002
0000
0103
0000
,
0020
0000
1030
0000
,
2002
0000
3000
0000
,
1003
0000
0100
0010
0000
0001
0100
0020
,
0000
0001
0000
0100
0000
1030
0010
1000
,
0001
0010
0000
0000
0001
0100
0000
0100
,
0010
1000
0001
0000
1000
0000
0100
0010
,
0001
0000
0100
0010
0000
1000
0100
0020
,
0000
1000
0000
0100
0000
0031
0010
0001
,
1000
0010
1000
0000
0001
0100
0000
0100
,
0020
0000
0000
0000
,
1030
0100
0000
0100
0010
0000
0020
1000
,
0000
0100
0000
0130
0000
0010
0100
1000
,
0001
0100
0001
0000
1000
0010
0000
0010
,
0200
0000
1000
0000
0310
0000
0100
0001
,
1000
0000
0100
0010
0000
0001
0200
0010
,
0000
1000
0000
0010
0000
0301
0100
0001
,
1000
0100
0010
0000
0001
0100
0010
0000
,
1000
0001
0010
0000
0100
1000
0001
0000
,
0200
0000
0001
0000
,
0320
0000
0100
0000
,
2030
0000
0100
0000
,
3000
0000
0000
0000
,
0001
0000
0011
0000
0000
1000
0100
0000
,
1000
0000
0001
0000
0100
0000
0000
1000
0000
0000
1000
0000
0100
0000
0000
0000
,
0010
0000
0110
0000
0000
0100
0001
0000
,
1000
0000
1100
0000
0000
0001
0010
0000
,
0001
0000
0101
0000
0000
1000
0010
0000
,
1000
0000
0001
0000
0010
0000
0000
1000
0000
0000
1000
0000
0010
0000
0000
0000
,
0100
0000
0110
0000
0000
0010
0001
0000
,
1000
0000
0010
0010
0000
0100
0010
0000
,
1000
0001
0010
0000
0000
0100
0010
0000
,
0001
1000
0010
0000
0000
0100
0010
0000
,
0100
0001
1000
0000
0100
1000
0001
0000
,
0100
0010
1000
0000
1001
0000
0001
0010
,
0200
0000
0000
0000
,
0000
0300
0000
0000
;

//--------------- dance-single - ----------------
#NOTEDATA:;
#STEPSTYPE:dance-single;
#DESCRIPTION:;
#DIFFICULTY:Hard;
#METER:13;
#RADARVALUES:0.537275,0.584237,0.166331,0.240256,0.060064,407,389,18,26,0,0,0,0,0,0.537275,0.584237,0.166331,0.240256,0.060064,407,389,18,26,0,0,0,0,0;
#OFFSET:-0.001;
#BPMS:0.000=155.000
,144.000=165.000
,212.000=155.000
,218.000=153.000
,220.000=156.000
,222.000=159.000
,224.000=173.000
,228.000=175.000
;
#SPEEDS:0.000=1.000=0.000=0,
80.000=0.250=0.000=0,
80.125=1.000=0.000=0,
80.250=0.250=0.000=0,
80.375=1.000=0.000=0,
80.500=0.250=0.000=0,
80.625=1.000=0.000=0,
80.750=0.250=0.000=0,
80.875=1.000=0.000=0,
81.000=0.250=0.000=0,
81.021=1.000=0.400=0,
81.500=0.250=0.000=0,
81.521=1.000=0.400=0,
144.000=0.250=0.000=0,
144.021=1.000=3.000=0,
176.000=0.250=0.000=0,
176.021=1.000=3.000=0
;
#SCROLLS:0.000=1.000,
82.000=0.000,
82.063=2.000,
82.125=0.000,
82.188=2.000,
82.250=0.000,
82.313=2.000,
82.375=0.000,
82.438=2.000,
82.500=0.000,
82.563=2.000,
82.625=0.000,
82.688=2.000,
82.750=0.000,
82.813=2.000,
82.875=0.000,
82.938=2.000,
227.000=0.500,
227.250=0.625,
227.500=0.750,
227.750=0.875,
228.000=1.000
;
#TICKCOUNTS:0.000=4;
#TIMESIGNATURES:0.000=4=4;
#LABELS:0.000=Song Start;
#COMBOS:0.000=1;
#DISPLAYBPM:155.000:175.000;
#CHARTNAME:;
#CHARTHASH:2191726068;
#BANNER:;
#CHARTSTYLE:;
#METERF:0.000000;
#LASTSECONDHINT:104.659760;
#CREDIT:;
#NOTES:
0000
0000
0000
0000
,
0000
0000
0000
0000
,
0000
0000
0000
0000
,
0000
0000
0000
0000
,
0000
0000
0000
0000
,
1000
0010
0100
0000
0001
0000
0010
0000
,
0100
1000
0001
0000
0100
0000
0010
0010
,
0100
0001
1000
0000
0001
0000
0010
0000
,
0100
1000
0001
0000
0100
0000
0010
0010
,
1000
0001
0010
0001
1000
0100
0010
0000
,
0001
1000
0010
1000
0001
0100
0010
0000
,
1000
0001
0010
0100
1000
0001
0100
0010
,
1000
1000
0001
0001
0010
0010
0100
0100
,
2000
0000
0020
0030
0000
0200
0300
0000
,
0020
0030
0000
0200
0300
0000
3010
0100
,
1002
1000
0020
0030
0000
0200
0300
0000
,
0020
0030
0000
0200
0300
0000
0023
0000
,
0031
1000
0100
0000
0010
0100
0000
1000
,
0100
0000
0010
0100
0000
1000
0001
0001
,
0100
0010
1000
0000
0010
0100
0000
0010
,
2000
0000
0000
0000
,
3001
0100
0010
1000
0100
0010
0100
1000
,
0001
1000
0010
0100
0001
0100
0020
0000
,
1030
0001
0010
0100
1000
0010
1000
0001
,
0010
0000
0100
0000
1000
0000
0010
0000
0100
0000
0000
0100
0001
0000
1000
0000
,
0100
0010
0100
1000
0001
0100
0010
0100
,
0001
1000
0001
1000
0100
0010
0200
0000
,
1300
0001
0010
0100
1000
0001
1000
0010
,
0100
0000
0010
0000
1000
0000
0100
0000
1000
0000
0000
1000
0001
0000
0100
0000
,
0001
1000
0100
0010
0100
0001
0100
0010
,
0001
1000
0010
0100
0010
0001
0010
0100
,
0001
1000
0100
0010
0001
1000
0010
0100
,
0001
0001
1000
1000
0100
0100
0010
0010
,
0001
0000
0000
0100
0000
0000
0010
0000
0010
0000
0000
0000
0000
0000
0000
0000
,
1000
0000
0000
0001
0000
0000
0010
0000
0010
0000
0000
0000
0000
0000
0000
0000
,
0100
0000
0000
1000
0000
0000
0010
0000
0010
0000
0000
0000
0000
0000
0000
0000
,
0200
0000
0000
0300
,
0001
0010
0100
1000
0010
1000
0001
0010
,
0200
0000
0001
0000
0000
0000
0310
0000
0100
0000
0000
0100
1000
0000
0001
0000
,
1000
0010
0100
0001
0010
0100
1000
0100
,
0010
0000
0001
0000
0200
0000
0000
0000
0310
0000
0000
0010
1000
0000
0001
0000
,
1000
0100
0010
0001
0100
0001
1000
0100
,
0020
0000
1000
0000
0000
0000
0130
0000
0010
0000
0000
0010
0001
0000
1000
0000
,
0001
0100
0010
1000
0100
0010
0001
1000
,
0020
0000
0000
0000
,
0130
0010
1000
0100
0010
0001
0100
0010
,
0200
0000
1000
0000
0000
0000
0310
0000
0100
0000
0000
0100
0001
0000
1000
0000
,
0001
0010
0100
1000
0010
0100
0001
0010
,
0100
0000
1000
0000
2100
0000
0000
0000
3010
0000
0000
0010
0100
0000
0001
0000
,
1000
0100
0010
0001
0100
0001
1000
0100
,
0010
0000
1000
0000
0010
0000
0100
0000
0010
0000
0000
0010
0001
0000
1000
0000
,
0001
0100
0010
1000
0001
0010
0100
1000
,
0010
0100
0010
0100
0001
1000
0001
1000
,
0200
0000
0010
0000
,
2300
0000
0010
0000
,
3002
0000
0100
0000
,
0003
0000
0000
0000
,
0001
1000
1100
0000
0000
0001
0011
0000
,
0010
0000
0010
0000
0001
0000
0000
1001
0000
0000
1000
0000
0010
0000
0000
0000
,
0100
0001
0101
0000
0000
1000
1010
0000
,
0010
0010
1000
0001
1000
0100
0010
0000
,
0001
0010
0011
0000
0000
0100
1100
0000
,
1000
0000
1000
0000
0001
0000
0000
0101
0000
0000
0100
0000
0010
0000
0000
0000
,
1000
0010
1010
0000
0000
0100
0101
0000
,
0001
0001
1000
1100
0000
0001
0011
0000
,
0010
0100
1000
0001
0100
0010
0110
0000
,
0100
0010
1000
0001
0010
0100
0110
0000
,
0010
0100
1000
0010
0100
0001
0010
0100
,
1000
1000
0010
0100
0001
0010
0011
0000
,
2002
0000
0000
0000
,
0000
3003
0000
0000
;

//--------------- dance-single - ----------------
#NOTEDATA:;
#STEPSTYPE:dance-single;
#DESCRIPTION:;
#DIFFICULTY:Challenge;
#METER:16;
#RADARVALUES:0.722087,0.941271,0.212534,0.15709,0.365004,547,524,23,17,0,0,0,0,0,0.722087,0.941271,0.212534,0.15709,0.365004,547,524,23,17,0,0,0,0,0;
#OFFSET:-0.001;
#BPMS:0.000=155.000
,144.000=165.000
,212.000=155.000
,218.000=153.000
,220.000=156.000
,222.000=159.000
,224.000=173.000
,228.000=175.000
;
#SPEEDS:0.000=1.000=0.000=0,
144.000=0.250=0.000=0,
144.021=1.000=3.000=0,
176.000=0.250=0.000=0,
176.021=1.000=3.000=0
;
#SCROLLS:0.000=1.000,
224.000=0.000,
227.000=0.500,
227.250=0.625,
227.500=0.750,
227.750=0.875,
228.000=1.000
;
#TICKCOUNTS:0.000=4;
#TIMESIGNATURES:0.000=4=4;
#LABELS:0.000=Song Start;
#COMBOS:0.000=1;
#DISPLAYBPM:155.000:175.000;
#CHARTNAME:;
#CHARTHASH:2780616633;
#BANNER:;
#CHARTSTYLE:;
#METERF:0.000000;
#LASTSECONDHINT:104.659760;
#CREDIT:;
#NOTES:
0000
0000
0000
0000
,
0000
0000
0000
0000
,
0000
0000
0000
0000
,
0000
0000
0000
0000
,
0000
0000
0000
0000
,
0001
0010
0001
1000
0001
0100
0010
1000
,
0001
1000
0100
0010
0001
1000
0010
0010
,
0100
0001
1000
0001
0010
0001
1000
0010
,
0100
0010
1000
0001
0010
0001
1000
1000
,
0001
1000
0100
0010
0001
1000
0001
0100
,
0010
0100
0001
1000
0100
1000
0001
0001
,
0100
0010
1000
0001
0010
0100
1000
0001
,
0100
0000
0100
0000
0010
0000
0010
0000
0100
0010
1000
0001
1000
0100
0010
0001
,
1000
1000
0020
0000
0001
0001
0000
0100
,
0100
0000
1000
1000
0000
0100
0130
0110
,
1001
0001
0020
0000
1000
1000
0000
0100
,
0100
0000
0001
0001
0000
0100
0130
0010
,
0011
0000
0001
0000
0100
0000
0001
0000
1000
0000
0010
0100
0010
0000
1000
0000
,
0001
0000
0010
0000
0100
0000
0010
0000
0001
0000
1000
0100
1000
0000
0001
0000
,
0100
0000
0001
0000
0010
0000
0100
0000
1000
0000
0010
0100
0010
0000
1000
0000
,
0002
0100
2003
0100
,
3001
0010
0100
1000
0001
0100
0001
0010
,
0001
0000
0100
0000
0010
0000
0100
0000
0001
0000
0010
0100
0010
0000
0001
0000
,
1000
0000
0010
0000
0100
0000
0001
0000
1000
0100
0000
0100
1000
0000
0010
0000
,
0100
0001
0000
0001
0100
0000
0010
0000
1000
0000
0001
0010
0100
0000
0010
0000
,
0010
0100
1000
0001
0100
0010
1000
0100
,
1000
0000
0010
0000
0100
0000
0010
0000
1000
0000
0001
0010
0001
0000
1000
0000
,
1000
0000
0010
0000
0100
0000
0001
0000
0010
0100
0000
0100
0010
0000
0001
0000
,
1000
0010
0000
0010
1000
0000
0001
0000
0010
0000
0100
0010
0001
0000
1000
0000
,
1010
0000
0010
1000
0001
0000
0010
0001
1000
0000
0010
1000
0001
0000
0010
0000
,
0011
0000
0001
0100
0010
0000
1000
0100
0010
0000
0001
0100
0010
0000
0100
0000
,
0110
0010
1000
1000
0100
0100
0010
0010
,
0100
1000
0001
1000
0010
0100
0001
1000
0001
0010
0100
1000
0001
0100
0001
1000
,
0100
0000
0000
0010
0000
0000
0001
0000
0012
0000
0000
0000
1003
0000
0000
0000
,
0010
0000
0000
0100
0000
0000
0001
0000
0102
0000
0000
0000
1003
0000
0000
0000
,
0100
0000
0000
0010
0000
0000
0001
0000
0012
0000
0000
0000
2003
0000
0000
0000
,
0020
0000
0000
3030
,
0101
0100
0001
0010
0100
1000
0010
1000
,
0001
0000
0010
0000
0001
0000
0100
0000
0010
1000
0000
0001
0010
0000
0010
0000
,
0100
1000
0010
1000
0001
0100
0001
0010
,
0100
0010
0100
0000
0001
0000
0100
0000
0010
0000
0100
1000
0010
0000
0100
0000
,
0110
0010
1000
0100
0010
0001
0100
0010
,
1000
0000
0100
0000
1000
0000
0010
0000
0100
0001
0000
1000
0100
0000
0100
0000
,
0010
0100
0010
0100
1000
0000
0001
0000
0100
0000
1000
0000
0100
0000
0010
0000
,
0220
0000
0000
0330
,
0101
0001
0010
0100
0100
0010
1000
1000
,
0010
0000
0001
0000
0010
0000
0100
0000
1000
0001
0000
1000
0010
0000
0010
0000
,
0100
1000
1000
0100
0010
0010
0100
0001
,
1000
0001
0010
0000
0100
0000
0100
0000
1000
0001
0100
0000
0110
0000
0010
0000
,
1010
1000
0001
0100
0001
1000
0100
0010
,
0110
0000
0100
0000
0010
0000
0001
0000
1000
0000
0010
0100
0010
0000
1000
0000
,
0001
0010
0100
0000
0010
0000
0010
0000
0100
1000
0010
0000
0100
0000
0100
0000
,
0010
1000
0001
1000
0100
0010
0100
1000
0001
1000
0010
0100
0001
1000
0100
0010
,
0002
0000
0100
0000
,
2003
0000
3100
0010
0002
0000
1003
0010
,
0200
0000
0310
1000
0200
0000
0310
0001
,
0000
0000
0000
0000
,
1000
0100
0010
0010
0010
0100
0001
0100
,
1000
0000
1000
0000
0001
0000
0100
0001
0100
0000
0010
0000
0101
0000
0000
0000
,
0001
0100
0010
0010
0010
0100
1000
0100
,
0001
1000
0100
0010
0010
0100
0011
0000
,
0001
0010
0100
0100
0100
0010
1000
0010
,
0001
0000
0001
0000
1000
0000
0010
1000
0010
0000
0100
0000
1010
0000
0000
0000
,
1000
0010
0100
0100
0100
0010
0001
0010
,
1000
0000
0001
0000
0010
0000
0010
0000
0100
0010
0100
0010
0001
0000
0001
0000
,
1000
0001
1000
0010
0100
0000
0010
0000
0010
0000
0110
0000
1001
0000
0000
0000
,
0001
1000
0001
0010
0100
0000
0010
0000
0010
0000
0110
0000
1001
0000
0000
0000
,
0001
1000
0001
0100
0010
0000
0100
0000
0001
1000
0001
0010
0100
0000
0010
0000
,
0001
1000
0010
0100
0001
1000
0100
0010
0100
1000
0001
0100
0010
1000
0001
0010
,
0200
0000
0000
0000
,
0000
0300
0000
0000
;
