#VERSION:0.83;
#TITLE:Innocent Walls;
#SUBTITLE:;
#ARTIST:TaQ;
#TITLETRANSLIT:;
#SUBTITLETRANSLIT:;
#ARTISTTRANSLIT:;
#GENRE:TECHNO;
#ORIGIN:;
#CREDIT:;
#BANNER:Innocent Walls.png;
#BACKGROUND:Innocent Walls-bg.png;
#PREVIEWVID:;
#JACKET:Innocent Walls-jacket.png;
#CDIMAGE:;
#DISCIMAGE:;
#LYRICSPATH:;
#CDTITLE:cdtitle.png;
#MUSIC:Innocent Walls.ogg;
#OFFSET:-0.015000;
#SAMPLESTART:30.962999;
#SAMPLELENGTH:15.000000;
#SELECTABLE:YES;
#BPMS:0.000=155.000;
#STOPS:;
#DELAYS:;
#WARPS:;
#TIMESIGNATURES:0.000=4=4;
#TICKCOUNTS:0.000=4;
#COMBOS:0.000=1;
#SPEEDS:0.000=1.000=0.000=0;
#SCROLLS:0.000=1.000;
#FAKES:;
#LABELS:0.000=Song Start;
#BGCHANGES:0.000=Innocent Walls.avi=1.000=0=0=0=StretchNoLoop==CrossFade_Fastest==,
99999=-nosongbg-=1.000=0=0=0 // don't automatically add -songbackground-
;
#KEYSOUNDS:;
#ATTACKS:
;

//---------------dance-single - Daff_4K----------------
#NOTEDATA:;
#CHARTNAME:Daff_4K;
#STEPSTYPE:dance-single;
#DESCRIPTION:Daff_4K;
#CHARTSTYLE:;
#DIFFICULTY:Beginner;
#METER:5;
#RADARVALUES:0.169546,0.435441,0.253734,0.000000,0.000000,145.000000,114.000000,31.000000,0.000000,0.000000,0.000000,0.000000,0.000000,0.000000,0.169546,0.435441,0.253734,0.000000,0.000000,145.000000,114.000000,31.000000,0.000000,0.000000,0.000000,0.000000,0.000000,0.000000;
#CREDIT:Daff_4K;
#NOTES:
0000
0000
0000
0000
,
0000
0000
0000
0000
,
0000
0000
0000
0000
,
0000
0000
0000
0000
,
1001
0000
0000
0000
,
1000
0000
0000
0000
,
0001
0000
0000
0000
,
1000
0000
0000
0000
,
1001
0000
0000
0000
,
0001
0000
0000
0000
,
1000
0000
0000
0000
,
0001
0000
0000
0000
,
1001
0000
0000
0000
,
1000
0000
0000
0000
,
0010
0000
0000
0000
,
0100
0000
0000
0000
,
1001
0000
0000
0000
,
0001
0000
0000
0000
,
0010
0000
0000
0000
,
0100
0100
0100
0000
,
1001
0000
0000
0000
,
1000
0000
0010
0000
,
1000
0000
0000
0000
,
0001
0000
0000
0000
,
1001
0000
0000
0000
,
0001
0000
0010
0000
,
0001
0000
0000
0000
,
1000
0000
0000
0000
,
1001
0000
0000
0000
,
0001
0000
0100
0000
,
0010
0000
0000
0000
,
1000
0000
0001
0000
,
1001
0000
0000
0000
,
1000
0000
0100
0000
,
0010
0000
0000
0000
,
0001
0000
1000
0000
,
1001
0000
0000
0001
,
0001
0000
0000
0000
,
0100
0000
0000
1000
,
1000
0000
0000
0000
,
0010
0000
0000
0001
,
0001
0000
0000
0000
,
1000
0000
0000
0001
,
0001
0000
0000
0000
,
1001
0000
0000
1000
,
1000
0000
0000
0000
,
0100
0000
0000
0001
,
0001
0000
0000
0000
,
0010
0000
0000
1000
,
1000
0000
0000
0001
,
0001
0000
0010
0000
,
0110
0000
0000
0000
,
1001
0000
0000
1000
,
1000
0000
0010
0000
,
0110
0000
0000
0100
,
0100
0000
0001
0000
,
1001
0000
0000
0001
,
0001
0000
0010
0000
,
0110
0000
0000
0100
,
0100
0100
0100
0000
,
1001
0000
0000
1000
,
1000
0000
0100
0000
,
0110
0000
0000
0010
,
0010
0010
0010
0000
,
1001
0000
0000
0001
,
0001
0000
0100
0000
,
0110
0000
1001
0000
,
0110
0110
0110
0110
,
0110
0000
0000
0000
,
1001
0000
0000
0000
,
1000
0000
0010
0000
,
1001
0000
0000
0000
,
0001
0000
0010
0000
,
1001
0000
0000
0000
,
0100
0000
0010
0000
,
0110
0000
0000
1001
,
1001
0000
0000
0000
;

//---------------dance-single - Daff_4K----------------
#NOTEDATA:;
#CHARTNAME:Daff_4K;
#STEPSTYPE:dance-single;
#DESCRIPTION:Daff_4K;
#CHARTSTYLE:;
#DIFFICULTY:Easy;
#METER:7;
#RADARVALUES:0.339092,0.435441,0.245549,0.196440,0.000000,290.000000,260.000000,30.000000,24.000000,0.000000,0.000000,0.000000,0.000000,0.000000,0.339092,0.435441,0.245549,0.196440,0.000000,290.000000,260.000000,30.000000,24.000000,0.000000,0.000000,0.000000,0.000000,0.000000;
#CREDIT:Daff_4K;
#NOTES:
0000
0000
0000
0000
,
0000
0000
0000
0000
,
0000
0000
0000
0000
,
0000
0000
0000
0000
,
2001
3100
0000
1000
,
0001
0100
0000
0010
,
2010
3001
0000
1000
,
0100
0010
0001
1000
,
1002
0103
0000
0001
,
1000
0100
0000
0010
,
0012
1003
0000
0001
,
0100
0010
1000
0001
,
2001
3100
0000
0010
,
0001
1000
0000
0010
,
0210
0301
0000
1000
,
0001
1000
0100
0010
,
0012
0103
0000
0010
,
1000
0001
0000
0010
,
0210
1300
0001
1000
,
0020
0100
0130
1001
,
0001
0010
0001
1000
,
0001
0100
0010
1000
,
0001
0100
0001
1000
,
0001
0010
0100
0100
,
1000
0010
1000
0001
,
1000
0100
0010
0001
,
1000
0100
1000
0001
,
0100
0100
0010
0010
,
1000
0100
0001
0100
,
1000
0010
0100
0001
,
1000
0010
0001
0010
,
1000
0100
0010
0010
,
0001
0100
1000
0100
,
0001
0010
0100
1000
,
0001
0010
1000
0010
,
0001
0001
1000
1000
,
1020
0000
0100
0130
,
0001
1000
0100
0100
,
0020
0000
0001
0031
,
1000
0001
0100
0001
,
0021
0000
0100
0130
,
1000
0001
0100
0010
,
0020
0000
1000
1030
,
0001
1000
0100
0010
,
0012
0000
1000
1003
,
0001
0010
0100
0010
,
0020
0000
0001
0031
,
1000
0001
0100
0010
,
2010
0000
0001
3001
,
1000
0100
0001
0100
,
1001
0010
1001
0100
,
0220
0000
0330
1001
,
0001
0010
1000
0100
,
1000
0010
0001
1000
,
0001
0100
1000
0100
,
0010
0010
1000
0001
,
1000
0010
0001
0100
,
0001
0010
1000
0001
,
1000
0100
0001
0100
,
0010
1001
0100
1001
,
0001
0100
1000
0010
,
1000
0100
0001
1000
,
0001
0010
1000
0100
,
0001
0010
0100
0100
,
1000
0100
0001
0010
,
0001
0100
1000
0001
,
1000
0010
0001
0010
,
1001
0110
1001
0110
,
2002
0000
0000
3003
,
2001
3100
0000
1000
,
0001
0100
0000
0010
,
2010
3001
0000
1000
,
0100
0010
0001
1000
,
1002
0103
0000
0001
,
1000
0100
0000
0010
,
0012
1003
0000
0110
,
1001
0000
0000
0000
;

//---------------dance-single - Daff_4K----------------
#NOTEDATA:;
#CHARTNAME:Daff_4K;
#STEPSTYPE:dance-single;
#DESCRIPTION:Daff_4K;
#CHARTSTYLE:;
#DIFFICULTY:Medium;
#METER:11;
#RADARVALUES:0.520331,0.653161,0.253734,0.311029,0.106405,445.000000,414.000000,31.000000,38.000000,0.000000,0.000000,0.000000,0.000000,0.000000,0.520331,0.653161,0.253734,0.311029,0.106405,445.000000,414.000000,31.000000,38.000000,0.000000,0.000000,0.000000,0.000000,0.000000;
#CREDIT:Daff_4K;
#NOTES:
0000
0000
0000
0000
,
0000
0000
0000
0000
,
0000
0000
0000
0000
,
0000
0000
0000
0000
,
2010
0000
0000
0000
3001
0000
0000
1000
0000
0000
0100
0000
0010
0000
0000
0000
,
0100
0000
0000
0000
0001
0000
0000
0100
0000
0000
1000
0000
0001
0000
0000
0000
,
0201
0000
0000
0000
0310
0000
0000
1000
0000
0000
0100
0000
0010
0000
0000
0000
,
0001
0100
0010
1000
0000
0001
1000
0000
,
0012
0000
0000
0000
1003
0000
0000
0001
0000
0000
0100
0000
0010
0000
0000
0000
,
0100
0000
0000
0000
1000
0000
0000
0100
0000
0000
0001
0000
1000
0000
0000
0000
,
1200
0000
0000
0000
0310
0000
0000
0001
0000
0000
0100
0000
0010
0000
0000
0000
,
1000
0100
0010
0001
0000
1000
0001
0000
,
2001
0000
0000
0000
3010
0000
0000
0100
0000
0000
0001
0000
1000
0000
0000
0000
,
0001
1000
0100
0010
0000
0100
0001
0000
,
0120
0000
0000
0000
0031
0000
0000
1000
0000
0000
0001
0000
0100
0000
0000
0000
,
0010
1000
0001
1000
0100
0010
0001
0000
,
1002
0000
0000
0000
0013
0000
0000
0100
0000
0000
1000
0000
0001
0000
0000
0000
,
1000
0001
0100
0010
0000
1000
0001
0000
,
0021
0130
1020
0130
,
0001
0001
1000
1000
0100
0010
0002
0000
,
1003
0010
0100
0000
0010
1000
0001
0000
,
1000
0100
0010
0000
0001
1000
0020
0000
,
0130
0001
1000
0000
0001
0010
0100
0000
,
1000
0010
0100
0010
1000
0100
0020
0000
,
0031
0010
0100
0000
0010
0001
1000
0000
,
0001
0100
0010
0000
1000
0001
0020
0000
,
0130
1000
0001
0000
1000
0010
0100
0000
,
0001
0000
0000
0010
0000
0000
1000
0000
0000
0010
0000
0000
0001
0000
1000
0000
,
0001
0100
0010
0000
0001
0010
1000
0000
,
0001
0010
0100
0001
0100
0010
0002
0000
,
1003
0010
0100
0000
0001
1000
0100
0000
,
0001
0100
1000
0100
0010
0001
0100
0010
,
1000
0100
0010
0000
1000
0010
0001
0000
,
1000
0010
0100
1000
0100
0010
2000
0000
,
3001
0010
0100
0000
1000
0001
0100
0000
,
1000
0100
0001
0100
1000
0100
0001
0000
,
2001
0100
0010
3001
,
1000
0000
0100
0000
0010
0000
0000
0001
0000
0000
1000
0000
0010
0000
0000
0000
,
0200
1000
0010
0301
,
1000
0100
0010
0100
0000
1000
0001
0000
,
1002
0100
0010
1003
,
0001
0000
0100
0000
0010
0000
0000
1000
0000
0000
0001
0000
0010
0000
0000
0000
,
0200
0001
0010
1300
,
0001
0100
1000
0100
0001
0010
0100
0000
,
2100
0000
0001
0000
3010
1000
0100
0000
,
0010
0000
0001
0000
0100
0000
0000
0010
0000
0000
1000
0000
0001
0000
0000
0000
,
0020
0000
1000
0000
0130
0010
0001
0000
,
1000
0001
0100
1000
0100
0001
1000
0000
,
0102
0000
1000
0000
0013
0001
0100
0000
,
0010
0000
1000
0000
0100
0000
0000
0010
0000
0000
0001
0000
1000
0000
0000
0000
,
1020
0130
0021
0130
,
2002
0000
0000
3003
,
1000
0010
0100
0000
0010
0001
0010
1000
,
0100
0010
0001
0000
0100
0010
2000
0000
,
3001
0010
1000
0000
0010
0100
0010
0001
,
1000
0010
0100
0001
1000
0010
0100
0000
,
0001
0010
0100
0000
0010
1000
0010
0001
,
0100
0010
1000
0000
0100
0010
0002
0000
,
1003
0010
0001
0000
0010
0100
0010
1000
,
0200
0000
0000
0010
0000
0000
0010
0000
0000
0010
0000
0000
0320
0000
0000
0000
,
0031
0100
1000
0100
0001
1000
0100
0000
,
0010
0001
1000
0000
0001
0100
0020
0000
,
1030
0001
0010
0100
0010
0001
1000
0000
,
1010
0110
0101
1001
,
1000
0100
0001
0100
1000
0001
0100
0000
,
0010
1000
0001
0000
1000
0100
0020
0000
,
0031
0100
0010
1000
0100
0010
0001
0000
,
0110
0000
0000
0110
0000
0000
0110
0000
0000
0000
1001
0000
1001
0000
1001
0000
,
2002
0000
0000
3003
,
2001
0000
0000
0000
3100
0000
0000
1000
0000
0000
0001
0000
0100
0000
0000
0000
,
0010
0000
1000
0000
0100
0000
0000
0001
0000
0000
0100
0000
0010
0000
0000
0000
,
0012
0000
0000
0000
1003
0000
0000
0001
0000
0000
0100
0000
0010
0000
0000
0000
,
1000
0100
0001
0100
1000
0100
0010
0000
,
1002
0000
0000
0000
0103
0000
0000
0001
0000
0000
1000
0000
0100
0000
0000
0000
,
0010
0000
0001
0000
0100
0000
0000
1000
0000
0000
0100
0000
0010
0000
0000
0000
,
2010
0000
0000
0000
3001
0000
0000
1000
0000
0000
0001
0000
0010
0100
0000
0010
,
0100
0000
0000
0000
;

//---------------dance-single - Daff_4K----------------
#NOTEDATA:;
#CHARTNAME:Daff_4K;
#STEPSTYPE:dance-single;
#DESCRIPTION:Daff_4K;
#CHARTSTYLE:;
#DIFFICULTY:Hard;
#METER:14;
#RADARVALUES:0.613874,0.684264,0.114590,0.319214,0.536116,525.000000,511.000000,14.000000,39.000000,0.000000,0.000000,0.000000,0.000000,0.000000,0.613874,0.684264,0.114590,0.319214,0.536116,525.000000,511.000000,14.000000,39.000000,0.000000,0.000000,0.000000,0.000000,0.000000;
#CREDIT:Daff_4K;
#NOTES:
// measure 0
0000
0000
0000
0000
,  // measure 1
0000
0000
0000
0000
,  // measure 2
0000
0000
0000
0000
,  // measure 3
0000
0000
0000
0000
,  // measure 4
1002
0000
0000
0000
0103
0000
0000
0010
0000
0000
1000
0000
0001
1000
0000
0000
,  // measure 5
0200
0000
0000
0000
0310
0000
0000
0001
0000
0000
1000
0000
0010
0000
0000
0000
,  // measure 6
0102
0000
0000
0000
1003
0000
0000
0001
0000
0000
0010
0000
0100
0010
0000
0000
,  // measure 7
0001
1000
0010
0200
0000
0301
1000
0000
,  // measure 8
2001
0000
0000
0000
3100
0000
0000
0010
0000
0000
0001
0000
1000
0001
0000
0000
,  // measure 9
0200
0000
0000
0000
0310
0000
0000
1000
0000
0000
0001
0000
0010
0000
0000
0000
,  // measure 10
2100
0000
0000
0000
3001
0000
0000
1000
0000
0000
0010
0000
0100
0010
0000
0000
,  // measure 11
1000
0000
0001
0000
0010
0000
0200
0000
0000
0000
1300
0000
0001
1000
0000
0000
,  // measure 12
1020
0000
0000
0000
0130
0000
0000
0010
0000
0000
1000
0000
0001
1000
0000
0000
,  // measure 13
0100
0001
1000
0020
0000
0031
1000
0000
,  // measure 14
1002
0000
0000
0000
0103
0000
0000
0010
0000
0000
1000
0000
0001
1000
0000
0000
,  // measure 15
0100
0000
0001
0000
1000
0000
0010
0000
0100
0000
1000
0000
0001
1000
0000
0000
,  // measure 16
0021
0000
0000
0000
0130
0000
0000
0010
0000
0000
0001
0000
1000
0001
0000
0000
,  // measure 17
0100
0000
1000
0000
0100
0000
0000
0010
0000
0000
1000
0000
0001
0000
0000
0000
,  // measure 18
2001
0000
3100
0000
0012
0000
0103
0010
,  // measure 19
1000
0000
1000
0000
0001
0000
0001
0000
0010
0000
0100
0000
0010
0100
0000
0000
,  // measure 20
1000
0000
0010
0000
1000
0001
0000
0000
1000
0000
0100
0000
1000
0001
0000
0000
,  // measure 21
1000
0000
0010
0000
0100
0001
0000
0001
1000
0000
0100
0000
0020
0000
0000
0000
,  // measure 22
0031
0000
1000
0000
0001
0100
0000
0000
0010
0000
1000
0000
0010
0100
0000
0000
,  // measure 23
0001
0000
0010
0000
1000
0000
0010
0000
0001
0000
1000
0000
0010
0100
0000
0000
,  // measure 24
0001
0000
0010
0000
0001
1000
0000
0000
0001
0000
0100
0000
0001
1000
0000
0000
,  // measure 25
0001
0000
0010
0000
0100
1000
0000
1000
0001
0000
0100
0000
0020
0000
0000
0000
,  // measure 26
1030
0000
0001
0000
1000
0100
0000
0000
0010
0000
0001
0000
0010
0100
0000
0000
,  // measure 27
1000
0010
0000
1000
0010
0000
0100
0001
0000
0100
0001
0000
1000
0001
0000
1000
,  // measure 28
0001
0000
0100
0000
0010
0100
0000
0000
0001
0000
1000
0000
0100
1000
0000
0000
,  // measure 29
0001
0000
0010
0000
0100
1000
0000
1000
0001
0000
0100
0000
0020
0000
0000
0000
,  // measure 30
1030
0000
0001
0000
1000
0100
0000
0000
0010
0000
0001
0000
1000
0001
0000
0000
,  // measure 31
0100
0000
1000
0000
0100
0000
0001
0000
0100
0000
0010
0000
1000
0001
0000
0000
,  // measure 32
1000
0000
0100
0000
0010
0100
0000
0000
1000
0000
0001
0000
0100
0001
0000
0000
,  // measure 33
1000
0000
0010
0000
0100
0001
0000
0001
1000
0000
0100
0000
0020
0000
0000
0000
,  // measure 34
0031
0000
1000
0000
0001
0100
0000
0000
0010
0000
1000
0000
0001
1000
0000
0000
,  // measure 35
0100
0010
0000
0100
0010
0000
0100
0010
0000
0100
0010
0000
0001
1000
0000
0001
,  // measure 36
2000
0000
0000
0000
0010
0000
0000
0001
0000
0000
0100
0000
3100
0000
0000
0000
,  // measure 37
0010
0000
0001
0000
1000
0000
0000
0001
0000
0000
0100
0000
0010
0000
0000
0000
,  // measure 38
0200
0000
0000
0000
0010
0000
0000
0001
0000
0000
0010
0000
0310
0000
0000
0000
,  // measure 39
1000
0000
0100
0000
0010
0000
0001
0000
0000
0000
1000
0000
0001
1000
0000
0000
,  // measure 40
0002
0000
0000
0000
0010
0000
0000
1000
0000
0000
0100
0000
0103
0000
0000
0000
,  // measure 41
0010
0000
1000
0000
0001
0000
0000
1000
0000
0000
0100
0000
0010
0000
0000
0000
,  // measure 42
0200
0000
0000
0000
0010
0000
0000
1000
0000
0000
0010
0000
0310
0000
0000
0000
,  // measure 43
0001
0000
0100
0000
0010
0000
1000
0000
0000
0000
0001
0000
1000
0001
0000
0000
,  // measure 44
2000
0000
0000
0000
0100
0000
0000
0010
0000
0000
0001
0000
3001
0000
0000
0000
,  // measure 45
1000
0000
0010
0000
1000
0000
0000
0001
0000
0000
0010
0000
0001
0000
0000
0000
,  // measure 46
0200
0000
0000
0000
0001
0000
0000
0010
0000
0000
0001
0000
0301
0000
0000
0000
,  // measure 47
1000
0000
0001
0000
0010
0000
0100
0000
0000
0000
1000
0000
0001
1000
0000
0000
,  // measure 48
0002
0000
0000
0000
0100
0000
0000
0010
0000
0000
1000
0000
1003
0000
0000
0000
,  // measure 49
0001
0000
0010
0000
0001
0000
0000
1000
0000
0000
0010
0000
1000
0000
0001
0000
,  // measure 50
0020
0000
0130
1000
0020
0000
0130
0001
,  // measure 51
2002
0000
0000
3003
,  // measure 52
1000
0000
0010
0000
1000
0001
0000
0001
0010
0000
0100
0000
0010
0001
0000
0000
,  // measure 53
1000
0000
0010
0000
1000
0001
0000
0001
0010
0000
0100
0000
2000
0000
0000
0000
,  // measure 54
3010
0000
0100
0000
0001
0100
0000
0100
0010
0000
1000
0000
0001
1000
0000
0000
,  // measure 55
0100
0010
0000
0100
0010
0000
0001
1000
0000
0001
1000
0000
0010
0000
0100
0000
,  // measure 56
0001
0000
0010
0000
0001
1000
0000
1000
0010
0000
0100
0000
0010
1000
0000
0000
,  // measure 57
0001
0000
0010
0000
0001
1000
0000
1000
0010
0000
0100
0000
0002
0000
0000
0000
,  // measure 58
0013
0000
0100
0000
1000
0100
0000
0100
0010
0000
0001
0000
1000
0001
0000
0000
,  // measure 59
0100
0010
0000
0100
0001
0000
1000
0001
0000
0010
0100
0000
1000
0000
0001
0000
,  // measure 60
1000
0000
0010
0000
0100
0001
0000
0001
1000
0000
0100
0000
0010
0001
0000
0000
,  // measure 61
0100
0000
0010
0000
1000
0001
0000
0001
0010
0000
0100
0000
0020
0000
0000
0000
,  // measure 62
0031
0000
1000
0000
0010
0100
0000
0100
0001
0000
1000
0000
0100
0010
0000
0000
,  // measure 63
0001
0100
1000
0100
0001
0100
1000
0100
,  // measure 64
0001
0000
0010
0000
0100
1000
0000
1000
0001
0000
0100
0000
0010
1000
0000
0000
,  // measure 65
0100
0000
0010
0000
0001
1000
0000
1000
0010
0000
0100
0000
0020
0000
0000
0000
,  // measure 66
1030
0000
0001
0000
0010
0001
0000
0000
0001
0000
1000
0000
0010
1000
0000
0000
,  // measure 67
1000
0100
0000
0100
0001
0000
0001
0100
0000
0100
1000
0001
1000
0001
1000
0001
,  // measure 68
0200
0000
0000
0300
,  // measure 69
1002
0000
0000
0000
0013
0000
0000
0100
0000
0000
1000
0000
0001
1000
0000
0000
,  // measure 70
0010
0000
0100
0000
0010
0000
0000
1000
0000
0000
0001
0000
0010
0000
0000
0000
,  // measure 71
0012
0000
0000
0000
1003
0000
0000
0001
0000
0000
0100
0000
0010
0100
0000
0000
,  // measure 72
0001
0000
0010
0000
1000
0000
0020
0000
0000
0000
0031
0000
1000
0001
0000
0000
,  // measure 73
2001
0000
0000
0000
3010
0000
0000
0100
0000
0000
0001
0000
1000
0001
0000
0000
,  // measure 74
0010
0000
0100
0000
0010
0000
0000
0001
0000
0000
1000
0000
0010
0100
0000
0000
,  // measure 75
0102
0000
0000
0000
1003
0000
0000
0001
0000
0000
0010
0000
0100
0010
0000
0001
,  // measure 76
1000
0000
0000
0000
;

//---------------dance-single - INNOCENT || DAFF----------------
#NOTEDATA:;
#CHARTNAME:INNOCENT || DAFF;
#STEPSTYPE:dance-single;
#DESCRIPTION:INNOCENT || DAFF;
#CHARTSTYLE:;
#DIFFICULTY:Challenge;
#METER:16;
#RADARVALUES:0.733140,0.839779,0.081850,0.425619,0.937180,627.000000,617.000000,10.000000,52.000000,0.000000,0.000000,0.000000,0.000000,0.000000,0.733140,0.839779,0.081850,0.425619,0.937180,627.000000,617.000000,10.000000,52.000000,0.000000,0.000000,0.000000,0.000000,0.000000;
#CREDIT:INNOCENT || DAFF;
#NOTES:
// measure 0
0000
0000
0000
0000
,  // measure 1
0000
0000
0000
0000
,  // measure 2
0000
0000
0000
0000
,  // measure 3
0000
0000
0000
0000
,  // measure 4
2001
0000
0000
0000
3100
0000
0010
0001
0000
0001
1000
0000
0001
0100
0000
0000
,  // measure 5
0020
0000
0000
0000
1030
0000
0001
1000
0000
0000
0100
0000
0010
0001
0000
0000
,  // measure 6
0200
0000
0000
0000
0310
0000
1000
0001
0000
0001
0010
0000
0100
1000
0000
0000
,  // measure 7
0001
0000
0100
0000
0010
0000
2000
0000
0000
0000
3100
0000
0010
0001
0000
0000
,  // measure 8
1002
0000
0000
0000
0103
0000
0010
1000
0000
1000
0001
0000
1000
0100
0000
0000
,  // measure 9
0020
0000
0000
0000
0031
0000
1000
0001
0000
0000
0100
0000
0010
1000
0000
0000
,  // measure 10
0200
0000
0000
0000
0310
0000
0001
1000
0000
1000
0010
0000
0100
0001
0000
0000
,  // measure 11
1000
0000
0100
0000
0010
0000
0002
0000
0000
0000
0103
0000
0010
1000
0000
0000
,  // measure 12
1002
0000
0000
0000
0013
0000
0001
1000
0000
0001
0100
0000
0010
1000
0000
0000
,  // measure 13
0200
0000
0000
0000
0301
0000
0100
0010
0000
0010
0001
0000
1000
0010
0000
0000
,  // measure 14
0200
0000
0000
0000
0301
0000
1000
0001
0000
0010
0100
0000
0100
1000
0000
0000
,  // measure 15
0010
0000
0100
0000
0001
0000
2000
0000
0000
0000
3100
0000
0010
0001
0000
0000
,  // measure 16
2001
0000
0000
0000
3010
0000
1000
0001
0000
1000
0100
0000
0010
0001
0000
0000
,  // measure 17
0200
0000
0000
0000
1300
0000
0100
0010
0000
0010
1000
0000
0001
0010
0000
0000
,  // measure 18
0210
0000
0000
0000
1300
0000
0000
0010
0200
0000
0000
0000
0301
0000
0000
1000
,  // measure 19
0200
0000
0010
0000
0010
0000
0010
0000
0010
0000
0310
0000
0001
2000
0000
0000
,  // measure 20
3001
0000
0100
0000
0001
1000
0000
1000
0001
0000
0010
0000
0001
1000
0000
1000
,  // measure 21
0001
0000
0100
0000
0010
1000
0000
1000
0001
0000
0010
0000
0100
2000
0000
0000
,  // measure 22
3001
0000
1000
0000
0010
0100
0000
0100
0001
0000
0010
0000
0100
1000
0000
1000
,  // measure 23
0001
0000
0100
0000
1000
0100
0000
0100
0001
0000
0010
0000
0100
0010
0000
0001
,  // measure 24
1000
0000
0100
0000
1000
0001
0000
0001
1000
0000
0010
0000
1000
0001
0000
0001
,  // measure 25
1000
0000
0100
0000
0010
0001
0000
0001
1000
0000
0010
0000
0100
0002
0000
0000
,  // measure 26
1003
0000
0001
0000
0010
0100
0000
0100
1000
0000
0010
0000
0100
0001
0000
0001
,  // measure 27
0010
0100
0000
0010
0001
0000
1000
0010
0000
0100
0010
0000
1000
0001
0000
1000
,  // measure 28
0001
0000
0010
0000
0001
1000
0000
1000
0010
0000
0001
0000
0010
1000
0000
1000
,  // measure 29
0100
0000
0010
0000
0100
1000
0000
1000
0010
0000
0001
0000
0010
0200
0000
0000
,  // measure 30
0301
0000
1000
0000
0100
0010
0000
0010
0001
0000
1000
0000
0010
0100
0000
0100
,  // measure 31
0001
0000
0010
0000
1000
0010
0000
0010
0001
0000
0100
0000
0010
1000
0000
0001
,  // measure 32
1000
0000
0010
0000
1000
0001
0000
0001
0010
0000
1000
0000
0010
0001
0000
0001
,  // measure 33
0100
0000
0010
0000
0100
0001
0000
0001
0010
0000
1000
0000
0010
0200
0000
0000
,  // measure 34
1300
0000
0001
0000
0100
0010
0000
0010
1000
0000
0001
0000
0010
0100
0000
0100
,  // measure 35
1000
0010
0000
0100
0001
0000
1000
0100
0000
0010
0001
0000
0100
0010
0100
0010
,  // measure 36
2000
0000
0000
0000
0100
0000
0000
0001
0000
0000
3010
0000
1000
0010
0000
0000
,  // measure 37
0100
0000
0001
0000
0020
0000
0000
0100
0000
0000
0031
0000
0010
0100
0000
0000
,  // measure 38
2000
0000
0000
0000
0010
0000
0000
0001
0000
0000
3100
0000
1000
0100
0000
0000
,  // measure 39
1000
0000
0001
0000
0100
0000
0020
0000
0000
0000
1030
0000
0100
0010
0000
0010
,  // measure 40
0002
0000
0000
0000
0100
0000
0000
1000
0000
0000
0013
0000
0001
0010
0000
0000
,  // measure 41
0100
0000
1000
0000
0020
0000
0000
0100
0000
0000
1030
0000
0010
0100
0000
0000
,  // measure 42
0002
0000
0000
0000
0010
0000
0000
1000
0000
0000
0103
0000
0001
0100
0000
0000
,  // measure 43
0001
0000
0010
0000
1000
0000
0010
0000
0001
0000
1000
0000
0001
0200
0000
0000
,  // measure 44
0320
0000
0000
0000
0001
0000
0000
0100
0000
0000
1030
0000
0010
0100
0000
0000
,  // measure 45
0001
0000
1000
0000
0200
0000
0000
0010
0000
0000
1300
0000
0001
1000
0000
0000
,  // measure 46
0002
0000
0000
0000
0100
0000
0000
0010
0000
0000
1003
0000
0001
0010
0000
0000
,  // measure 47
0100
0000
1000
0000
0010
0000
0200
0000
0000
0000
0310
0000
1000
0001
0000
0001
,  // measure 48
0020
0000
0000
0000
1000
0000
0000
0100
0000
0000
0031
0000
0010
0100
0000
0000
,  // measure 49
1000
0000
0001
0000
0200
0000
0000
0010
0000
0000
0301
0000
1000
0001
0000
1000
,  // measure 50
0200
0000
0310
0001
0200
0000
0310
1000
,  // measure 51
2002
0000
0000
3003
,  // measure 52
0001
0000
0010
0000
0001
1000
0000
1000
0010
0100
0010
0000
0100
0001
0000
0001
,  // measure 53
1000
0000
0100
0000
1000
0001
0000
0001
0100
0010
0100
0000
0010
2000
0000
0000
,  // measure 54
3100
0000
0010
0000
0001
1000
0000
1000
0010
0100
0010
0000
0100
0001
0000
1000
,  // measure 55
0001
0010
0000
0010
0100
0000
0100
1000
0000
1000
0010
0000
0010
0100
0000
0001
,  // measure 56
1000
0000
0010
0000
1000
0001
0000
0001
0010
0100
0010
0000
0100
1000
0000
1000
,  // measure 57
0001
0000
0100
0000
0001
1000
0000
1000
0100
0010
0100
0000
0010
0002
0000
0000
,  // measure 58
0103
0000
0010
0000
1000
0001
0000
0001
0010
0100
0010
0000
0100
1000
0000
0001
,  // measure 59
1000
0010
0000
0100
0001
0000
0010
0100
0000
1000
0001
0000
0100
0010
0000
1000
,  // measure 60
0001
0000
1000
0000
0001
0100
0000
0100
0010
1000
0001
0000
0010
0100
0000
0100
,  // measure 61
1000
0000
0001
0000
1000
0010
0000
0010
0100
0001
1000
0000
0100
0020
0000
0000
,  // measure 62
0031
0000
0100
0000
0010
1000
0000
1000
0001
0010
0100
0000
0010
0100
0000
1000
,  // measure 63
0001
0100
0001
0100
0010
1000
0010
1000
0100
0010
0100
0010
0001
0100
0000
0010
,  // measure 64
1000
0000
0001
0000
1000
0100
0000
0100
0010
0001
1000
0000
0010
0100
0000
0100
,  // measure 65
0001
0000
1000
0000
0001
0010
0000
0010
0100
1000
0001
0000
0100
0020
0000
0000
,  // measure 66
1030
0000
0100
0000
0010
0001
0000
1000
0001
0000
0100
0000
0010
1000
0000
0001
,  // measure 67
1000
0100
0000
0001
0100
0000
1000
0100
0000
0001
0100
0001
0100
0001
0100
0001
,  // measure 68
0200
0000
0000
0300
,  // measure 69
2001
0000
0000
0000
3100
0000
0010
0001
0000
0001
1000
0000
0010
0100
0000
0000
,  // measure 70
0010
0000
1000
0000
0001
0000
1000
0200
0000
0000
0310
0000
0001
0000
0000
0000
,  // measure 71
2001
0000
0000
0000
3010
0000
0100
0001
0000
0001
1000
0000
0100
0010
0000
0000
,  // measure 72
0001
0000
0100
0000
1000
0000
0100
0020
0000
0000
1030
0000
0001
1000
0000
0000
,  // measure 73
1002
0000
0000
0000
0103
0000
0010
1000
0000
1000
0001
0000
0010
0100
0000
0000
,  // measure 74
0010
0000
0001
0000
1000
0000
0001
0200
0000
0000
0310
0000
1000
0001
0000
0000
,  // measure 75
0021
0000
0000
0000
1030
0000
0010
0100
0000
0100
0010
0000
0001
1000
0000
0010
,  // measure 76
0100
0000
0000
0000
;
