#VERSION:0.83;
#TITLE:怒れる大きな白い馬;
#SUBTITLE:;
#ARTIST:Morning Blue Dragon;
#TITLETRANSLIT:Tino's White Horse;
#SUBTITLETRANSLIT:;
#ARTISTTRANSLIT:;
#GENRE:;
#CREDIT:;
#MUSIC:Tino's White Horse.ogg;
#BANNER:Tino's White Horse.png;
#BACKGROUND:Tino's White Horse-bg.png;
#CDTITLE:;
#SAMPLESTART:66.100;
#SAMPLELENGTH:15.000;
#SELECTABLE:YES;
#OFFSET:0.000;
#BPMS:0.000=149.500
,4.000=148.000
,116.000=109.700
,124.000=116.000
,132.000=118.000
,134.000=120.000
,136.000=121.000
,137.000=126.000
,138.000=129.500
,139.000=137.000
,140.000=140.000
,144.000=143.000
,149.000=145.000
,150.000=147.500
,151.000=146.000
,152.000=148.000
;
#STOPS:;
#SPEEDS:0.000=1.000=0.000=0;
#SCROLLS:0.000=1.000;
#TICKCOUNTS:0.000=4;
#TIMESIGNATURES:0.000=4=4;
#LABELS:0.000=Song Start;
#COMBOS:0.000=1;
#DISPLAYBPM:110.000:148.000;
#ORIGIN:;
#PREVIEWVID:;
#JACKET:Tino's White Horse-jacket.png;
#CDIMAGE:;
#DISCIMAGE:;
#BGCHANGES:;
#FGCHANGES:;

//--------------- dance-single - Kingly + kaya ----------------
#NOTEDATA:;
#STEPSTYPE:dance-single;
#DESCRIPTION:Kingly + kaya;
#DIFFICULTY:Hard;
#METER:13;
#RADARVALUES:0,0,0,0,0;
#NOTES:
0000
0000
0000
0000
,
0000
0000
0000
0000
,
0000
0000
0000
0000
,
0001
0000
0000
0001
0100
0000
0000
0100
0010
0000
0000
0010
1000
0000
0000
1000
,
0001
0000
0000
0001
0010
0000
0000
0010
0100
0000
0000
0100
1000
0000
0000
1000
,
0001
0000
0000
0001
0100
0000
0000
0100
1000
0000
0000
1000
0100
0000
0000
0100
,
0001
0000
0000
0001
0010
0000
0000
0010
1000
0000
0000
1000
0010
0000
0000
0010
,
0001
0000
0000
1000
0001
0000
0000
0010
0001
0000
0000
1000
0001
0000
0000
0001
,
1000
0000
0000
0001
1000
0000
0000
0100
1000
0000
0000
0001
1000
0000
0000
1000
,
0010
0000
0000
0010
0100
0000
0001
0000
0010
0000
0000
0010
0100
0000
1000
0000
,
0010
0000
0000
0010
0100
0000
0001
0000
1000
0010
1000
0000
0001
0000
0100
0000
,
0010
0000
0000
0010
1000
0000
0100
0000
1000
0001
0000
0000
1000
0000
0100
0000
,
0010
0000
0000
0010
0001
0000
1000
0000
0001
0100
0000
0100
0010
0000
0000
0000
,
0100
0000
0000
0100
0001
0000
0010
0000
0001
1000
0000
0000
0010
0000
1000
0000
,
0100
0000
0000
0100
1000
0000
0010
0000
1000
0100
0000
0100
0010
0000
0000
0000
,
0001
0000
0000
0001
0010
0000
0100
0000
1000
0010
0000
0000
0100
0000
0001
0000
,
1000
0000
0000
1000
0010
0000
0100
0000
0001
0010
0000
0010
0100
0000
0000
0000
,
1000
0000
0000
1000
0100
0000
0010
0000
0001
0100
0000
0000
0010
0000
1000
0000
,
0001
0000
0000
0001
0100
0000
0010
0000
1000
0001
0000
0000
0110
0000
0000
0000
,
1000
0000
0000
0000
0010
0000
0100
0001
0000
0100
0010
0000
1000
0000
0000
0000
,
0001
0000
0000
0000
0010
0000
0100
0000
1000
0001
1000
0000
0010
0000
0100
0000
,
0001
0000
0000
0001
0010
0000
0000
0010
0100
0000
0000
0100
0010
0000
0000
0010
,
0001
0000
0000
0001
0100
0000
0000
0100
0010
0000
0000
0010
1000
0000
0000
0001
,
1000
0000
0000
1000
0100
0000
0000
0100
0010
0000
0000
0010
0100
0000
0000
0100
,
1000
0000
0000
1000
0010
0000
0000
0010
0100
0000
0000
0001
1000
0000
0000
0000
,
1001
0000
0000
0001
0010
0000
0000
0010
0100
0000
0000
1000
0001
0000
0000
0000
,
1001
0000
0000
1000
0010
0000
0000
0010
0100
0000
0000
0001
1000
0000
0000
0000
,
1001
0000
0000
0001
0100
0000
0000
0100
0010
0000
0000
1000
0001
0000
0000
0000
,
0100
0000
0001
0010
0000
0010
0000
0100
0000
0100
0000
1000
0000
1000
0010
0000
,
0100
0000
0000
0000
,
0002
0003
1000
0100
0002
0003
1000
0010
,
0002
0000
0013
0000
0100
0000
0010
0000
0002
0000
0003
0000
0001
0000
1000
0001
,
2000
3010
0100
0010
2000
3000
0001
0010
,
2000
3000
0001
0100
2000
3000
0001
0100
,
0001
0000
0010
0000
0100
0000
1000
0000
0001
0000
0010
0000
0100
0000
1000
0010
,
1000
0000
0001
0000
1000
0000
0100
0000
1000
0000
0000
0000
1000
0000
0001
0010
,
0001
1000
0001
0100
0001
0000
0001
1000
,
0020
0001
0230
1000
,
0301
0000
0001
0000
1000
0000
1000
0000
0010
0100
0000
0010
0100
0000
0001
0000
,
1000
0000
0000
1000
0100
0000
0000
0100
0001
0000
0000
0001
0100
0000
0000
0100
,
1000
0000
0000
1000
0010
0000
0000
0010
0001
0000
0000
0001
0010
0000
0000
0010
,
1000
0000
0000
1000
0001
0000
0000
0001
0010
0000
0000
0010
0100
0000
0000
0100
,
1000
0000
0000
1000
0100
0000
0000
0100
0010
0000
0000
0010
0001
0000
1000
0001
,
1000
0000
0000
0001
0100
0000
0000
0100
1000
0000
0000
1000
0100
0000
0000
0100
,
0001
0000
0000
0001
0010
0000
0000
0010
1000
0000
0000
1000
0010
0000
0000
0010
,
0001
0000
0000
0001
1000
0000
0000
1000
0010
0000
0000
0010
0100
0000
0000
0100
,
0001
0000
0001
0000
1000
0000
1000
0000
0100
0010
0000
0100
0010
0000
0001
0000
,
1000
0010
0000
1000
0000
0010
0000
1000
0000
0010
0000
0100
0001
0000
0000
0000
,
0001
0010
0000
0001
0000
0010
0000
0001
0000
0010
0000
0100
1000
0000
0001
0000
,
0001
0100
0000
0001
0000
0100
0000
0001
0000
0100
0000
0010
1000
0000
0000
0000
,
1000
0100
0000
1000
0000
0100
0000
1000
0000
0100
0000
0010
0001
0000
1000
0000
,
0001
0010
0000
0010
0000
0100
0000
0100
0000
1000
0000
1000
0001
0000
0000
0000
,
1000
0010
0000
0010
0000
0100
0000
0100
0000
0001
0000
0001
1000
0000
0001
0000
,
0100
0001
0000
0001
0000
0010
0000
0010
0000
0100
0000
0100
1000
0000
0000
0000
,
0100
1000
0000
1000
0000
0001
0000
0001
0100
0010
0000
0100
0010
0000
1000
0000
,
0100
0000
0010
0001
0010
0000
0100
1000
0100
0000
0110
0000
1001
0000
0000
0000
;

//--------------- dance-single - kaya + Kingly ----------------
#NOTEDATA:;
#STEPSTYPE:dance-single;
#DESCRIPTION:kaya + Kingly;
#DIFFICULTY:Challenge;
#METER:15;
#RADARVALUES:0.737699,0.73142,0.178427,0.104957,0.902631,492,475,17,10,0,0,0,0,0,0.737699,0.73142,0.178427,0.104957,0.902631,492,475,17,10,0,0,0,0,0;
#DISPLAYBPM:110.000:148.000;
#CHARTNAME:;
#CHARTSTYLE:;
#CREDIT:kaya + Kingly;
#NOTES:
0000
0000
0000
0000
,
0000
0000
0000
0000
,
0000
0000
0000
0000
0000
0000
0000
1000
,
1001
0000
0000
0001
0010
0000
0000
0010
0100
0000
0000
0100
1000
0000
0000
1000
,
0001
0000
1000
0010
1000
0000
0001
0100
0001
0000
1000
0100
1000
0000
0001
0100
,
0001
0000
0000
1000
0100
0000
0000
0100
0001
0000
0000
0001
0100
0000
0000
0100
,
1000
0000
0000
0001
0010
0000
0000
0010
1000
0000
0000
1000
0010
0000
0000
0010
,
0001
0000
1000
0100
1000
0000
0001
0100
0001
0000
1000
0010
1000
0000
0001
0010
,
0001
0000
1000
0100
0010
0000
0001
1000
0010
0000
0100
0001
1000
0000
0100
0010
,
0001
0000
0000
1000
0100
0000
0100
0000
0010
0000
0000
0001
0100
0000
0100
0000
,
0010
0000
0000
1000
0100
0000
0100
0000
0010
0001
0010
0000
0100
0000
1000
0010
,
1000
0000
0001
0010
0001
0000
0100
0000
0010
1000
0000
0100
1000
0000
0001
0000
,
0100
0000
0010
1000
0010
0000
0100
0000
0001
0010
0000
0001
1000
0000
0000
0000
,
0001
0000
1000
0010
1000
0000
0100
0000
0010
0001
0000
0100
0001
0000
1000
0000
,
0100
0000
0010
0001
0010
0000
0100
0000
1000
0010
0000
1000
0001
0000
0000
0000
,
1000
0000
0001
0010
0001
0000
0100
0000
0010
1000
0100
1000
0001
0000
0010
0000
,
0100
0000
1000
0010
1000
0000
0001
0000
0010
0001
0100
0001
1000
0000
0000
0000
,
0001
0000
1000
0010
1000
0000
0100
0000
0010
0001
0100
0001
1000
0000
0010
0000
,
0100
0000
0001
0010
0001
0000
1000
0000
0010
1000
0100
1000
0001
0000
0000
0000
,
1000
0100
0000
0010
0100
0000
0001
0100
0000
0010
0100
0000
1000
0000
1000
0000
,
0001
0100
0000
0010
0100
0000
1000
0100
0000
0010
0100
0000
0001
0000
0001
0000
,
1000
0000
0000
1000
0100
0000
0000
0100
0010
0000
0000
0010
0001
0000
0000
0001
,
1000
0000
0000
1000
0010
0000
0000
0010
0100
0000
0000
0100
0001
0000
0000
0000
,
1001
0000
0000
1000
0100
0000
0000
0100
0001
0000
0000
0001
0100
0000
0000
0100
,
1000
0000
0000
1000
0100
0000
0000
0100
0001
0000
0000
0000
0110
0000
0000
0000
,
1001
0000
0000
0001
0100
0000
0000
0100
1000
0000
0000
0000
0110
0000
0000
0000
,
1001
0000
0000
0001
0010
0000
0000
0010
1000
0000
0000
0000
0110
0000
0000
0000
,
1001
0000
0000
1000
0010
0000
0000
0010
0001
0000
0000
0000
0110
0000
0000
0000
,
1000
0000
0001
0100
0001
0010
0000
0100
0000
1000
0000
0010
0000
1000
0001
0000
,
1001
0000
0000
0000
,
2000
0000
3001
0001
0200
0000
0301
0001
,
0020
0000
0100
0000
0031
0000
0001
0000
2000
0000
0000
0000
3100
0000
0100
1000
,
0002
0000
0010
0000
1003
0000
1000
0000
0200
0000
0000
0000
1300
0000
1000
0001
,
0020
0000
0130
0100
0002
0000
0103
0100
,
1000
0100
1000
0100
0010
0001
0010
0001
1000
0010
1000
0010
0100
0001
0100
0001
,
1000
0000
0100
0000
0001
0000
0200
0000
0000
0000
0310
0000
0001
0000
0001
1000
,
0001
0100
1000
0200
0000
0000
0310
1000
,
0001
0101
1000
1100
,
0110
0000
0001
0000
0110
0000
1000
0000
0100
0010
0000
0100
0010
0000
0001
0000
,
1000
0000
0001
0000
0100
0000
0010
1000
0001
0000
0010
0000
0100
1000
0100
0010
,
0001
0000
1000
0000
0001
0010
0100
1000
0010
0000
1000
0000
0001
0000
0010
0000
,
0001
0000
0100
0001
0100
0000
0010
0000
1000
0000
0100
1000
0100
0000
0010
0000
,
0001
0000
0100
0001
0010
0000
0100
1000
0010
0000
0100
0001
0010
0000
0100
1000
,
0001
0000
1000
0000
0100
0000
0010
0001
1000
0000
0010
0000
0100
0001
0100
0010
,
1000
0000
0001
0000
1000
0010
0100
0001
0010
0000
0001
0000
1000
0000
0010
0000
,
1000
0000
0100
1000
0100
0000
0010
0000
0001
0000
0100
0001
0100
0000
0010
0000
,
0110
0000
1000
0000
0110
0000
0001
0000
0100
0010
0000
0100
0010
0000
1000
0000
,
0001
0010
0000
0100
0000
0010
0000
0001
0000
0010
0000
0100
1000
0000
0000
0000
,
1000
0010
0000
0100
0000
0010
0000
1000
0000
0010
0000
0100
0001
0000
0000
0000
,
1000
0100
0000
0010
0000
0100
0000
1000
0000
0100
0000
0010
0001
0000
0000
0000
,
0001
0100
0000
0010
0000
1000
0000
0010
0000
0100
0001
1000
0100
0000
1000
0001
,
0010
0001
0000
0100
0000
0010
0000
1000
0100
1000
0000
0001
0100
0000
0000
0000
,
0010
1000
0000
0100
0000
0010
0000
0001
0100
0001
0000
1000
0010
0000
0000
0000
,
0100
0001
0000
0010
0000
0001
0000
1000
0010
1000
0000
0001
0010
0000
0000
0000
,
0100
1000
0000
0010
0000
1000
0000
0001
0010
0100
0010
0100
1000
0010
0100
0001
,
1000
0000
0100
0010
0001
0000
0100
0010
1000
0000
0001
0000
1001
0000
0000
0000
;
