#VERSION:0.83;
#TITLE:I Know (Club Mix);
#SUBTITLE:;
#ARTIST:Seo Taiji & Boys;
#TITLETRANSLIT:;
#SUBTITLETRANSLIT:;
#ARTISTTRANSLIT:;
#GENRE:;
#ORIGIN:;
#CREDIT:;
#BANNER:I Know (Club Mix).png;
#BACKGROUND:I Know (Club Mix)-bg.png;
#PREVIEWVID:;
#JACKET:I Know (Club Mix)-jacket.png;
#CDIMAGE:;
#DISCIMAGE:;
#LYRICSPATH:;
#CDTITLE:;
#MUSIC:I Know (Club Mix).ogg;
#OFFSET:-0.269000;
#SAMPLESTART:87.881828;
#SAMPLELENGTH:15.330849;
#SELECTABLE:YES;
#DISPLAYBPM:109.583000;
#BPMS:0.000=54.792,
8.000=109.583;
#STOPS:;
#DELAYS:;
#WARPS:;
#TIMESIGNATURES:0.000=4=4;
#TICKCOUNTS:0.000=4;
#COMBOS:0.000=1;
#SPEEDS:0.000=1.000=0.000=0;
#SCROLLS:0.000=1.000;
#FAKES:;
#LABELS:0.000=Song Start;
#BGCHANGES:;
#KEYSOUNDS:;
#ATTACKS:
;

//---------------dance-single - ----------------
#NOTEDATA:;
#CHARTNAME:;
#STEPSTYPE:dance-single;
#DESCRIPTION:;
#CHARTSTYLE:;
#DIFFICULTY:Beginner;
#METER:2;
#RADARVALUES:0.095600,0.147068,0.015563,0.000000,0.000000,86.000000,84.000000,2.000000,0.000000,0.000000,0.000000,0.000000,0.000000,0.000000,0.095600,0.147068,0.015563,0.000000,0.000000,86.000000,84.000000,2.000000,0.000000,0.000000,0.000000,0.000000,0.000000,0.000000;
#CREDIT:MILEN;
#DISPLAYBPM:109.583000;
#NOTES:
0000
0000
0000
0000
,
0000
0000
0000
0000
,
1000
0000
0000
0000
,
1000
0000
0000
0000
,
1000
0000
0000
0000
,
1000
0000
1000
0000
,
1000
0000
0001
0000
,
1000
0000
0001
0000
,
0100
0000
0010
0000
,
0100
0000
0010
0000
,
1000
0000
0000
0000
,
0100
0000
0000
0000
,
0010
0000
0000
0000
,
0001
0000
0000
0000
,
0001
0000
0000
0000
,
0010
0000
0000
0000
,
0100
0000
0000
0000
,
1000
0000
0000
0000
,
1000
0000
0001
0000
,
1000
0000
0001
0000
,
0010
0000
0100
0000
,
0010
0000
0100
0000
,
1000
0000
0100
0000
,
0010
0000
0001
0000
,
0001
0000
0010
0000
,
0100
0000
1000
0000
,
1001
0000
0000
0000
,
0000
0000
0000
0000
,
0001
0000
1000
0000
,
0001
0000
1000
1000
,
1000
0000
0000
0000
,
0010
0000
0000
0000
,
0100
0000
0000
0000
,
0001
0000
0000
0000
,
0010
0000
0000
0000
,
0100
0000
0000
0000
,
1000
0000
0000
0000
,
0010
0000
0100
0000
,
0010
0000
0010
0000
,
0010
0000
0010
0000
,
1000
0000
0001
0000
,
0100
0000
0000
0000
,
0100
0000
0100
0000
,
0100
0000
0100
0000
,
0001
0000
1000
0000
,
0010
0000
0000
0000
,
0010
0000
0100
0000
,
0010
0000
1000
0000
,
0001
0000
1000
0000
,
0001
0000
0100
0000
,
0001
0000
1000
0000
,
0001
0000
1000
0000
,
0010
0000
0100
0000
,
0010
0010
0010
0000
,
1001
0000
0000
0000
;

//---------------dance-single - ----------------
#NOTEDATA:;
#CHARTNAME:;
#STEPSTYPE:dance-single;
#DESCRIPTION:;
#CHARTSTYLE:;
#DIFFICULTY:Easy;
#METER:4;
#RADARVALUES:0.158962,0.189087,0.038907,0.000000,0.000000,143.000000,138.000000,5.000000,0.000000,0.000000,0.000000,0.000000,0.000000,0.000000,0.158962,0.189087,0.038907,0.000000,0.000000,143.000000,138.000000,5.000000,0.000000,0.000000,0.000000,0.000000,0.000000,0.000000;
#CREDIT:MILEN;
#DISPLAYBPM:109.583000;
#NOTES:
0000
0000
0000
0000
,
0000
0000
0000
0000
,
1000
0000
0000
0000
,
1000
0000
0000
0000
,
1000
0000
1000
0000
,
1000
1000
1000
0000
,
0001
1000
0001
0000
,
1000
0001
1000
0000
,
0001
1000
0001
0000
,
1000
0001
1000
0000
,
1001
0000
0001
0000
,
0100
0000
0010
0000
,
1000
0000
0100
0000
,
0010
0000
0001
0000
,
1001
0000
1000
0000
,
0010
0000
0100
0000
,
0001
0000
0010
0000
,
0100
0000
1000
0000
,
0010
0100
0010
0000
,
0100
0010
0100
0000
,
0010
0100
0010
0000
,
0100
0010
0100
0000
,
0010
1000
0010
0000
,
0100
0001
0100
0000
,
0010
1000
0001
0000
,
0100
0001
1000
0000
,
1001
0000
0000
0000
,
0000
0000
0000
0000
,
0001
0000
1000
0000
,
0001
0000
1000
1000
,
1000
0100
1000
0000
,
0001
0010
0001
0000
,
0100
0000
0010
0000
,
0100
0010
0100
0100
,
0001
0010
0001
0000
,
1000
0100
1000
0000
,
0010
0000
0100
0000
,
0010
0010
0100
0010
,
0100
0001
1000
0000
,
0010
1000
0001
0000
,
0100
0001
1000
0010
,
0100
0000
0100
0000
,
0010
1000
0001
0000
,
0100
0001
1000
0000
,
0010
1000
0001
0100
,
0010
0000
0010
0000
,
1000
0100
0010
0001
,
0010
0001
0100
0010
,
0100
0000
0001
0000
,
1000
0000
1001
0000
,
0001
0010
0100
1000
,
0100
1000
0010
0100
,
0010
0000
1000
0000
,
0001
0000
1000
0000
,
1001
0000
0000
0000
;

//---------------dance-double - ----------------
#NOTEDATA:;
#CHARTNAME:;
#STEPSTYPE:dance-double;
#DESCRIPTION:;
#CHARTSTYLE:;
#DIFFICULTY:Easy;
#METER:4;
#RADARVALUES:0.152293,0.168078,0.070032,0.000000,0.000000,137.000000,128.000000,9.000000,0.000000,0.000000,0.000000,0.000000,0.000000,0.000000,0.152293,0.168078,0.070032,0.000000,0.000000,137.000000,128.000000,9.000000,0.000000,0.000000,0.000000,0.000000,0.000000,0.000000;
#CREDIT:MILEN;
#DISPLAYBPM:109.583000;
#NOTES:
00000000
00000000
00000000
00000000
,
00000000
00000000
00000000
00000000
,
00001000
00000000
00000000
00000000
,
00001000
00000000
00000000
00000000
,
00001000
00000000
00001000
00000000
,
00001000
00001000
00001000
00000000
,
00010000
00001000
00010000
00000000
,
00001000
00010000
00001000
00000000
,
00010000
00001000
00010000
00000000
,
00001000
00010000
00001000
00000000
,
00011000
00000000
00010000
00000000
,
00000100
00000000
00001000
00000000
,
00000100
00000000
00010000
00000000
,
00001000
00000000
00010000
00000000
,
00011000
00000000
00001000
00000000
,
01000000
00000000
00010000
00000000
,
01000000
00000000
00001000
00000000
,
00010000
00000000
00001000
00000000
,
00100000
00010000
00100000
00000000
,
00010000
00100000
00001000
00000000
,
00010000
00001000
00010000
00000000
,
00001000
00010000
00000100
00000000
,
00001000
00000100
00001000
00000000
,
00000100
00010000
00001000
00000000
,
00010000
00001000
00010000
00000000
,
00001000
00100000
00010000
00000000
,
10010000
00000000
00000000
00000000
,
00000000
00000000
00000000
00000000
,
10000000
00000000
01000000
00000000
,
00010000
00000000
00001000
00001000
,
00001000
00000000
00000100
00000000
,
00001000
00000000
00010000
00000000
,
01000000
00000000
00010000
00000000
,
00001000
00010000
00011000
00000000
,
00010000
00000000
00100000
00000000
,
00010000
00000000
00001000
00000000
,
00000010
00000000
00001000
00000000
,
00010000
00001000
00011000
00000000
,
00001000
00010000
00100000
00000000
,
00100000
10000000
01000000
00000000
,
01000000
00010000
00001000
00000000
,
00010000
00000000
00011000
00000000
,
00010000
00001000
00000010
00000000
,
00000010
00000001
00000100
00000000
,
00000100
00001000
00010000
00000000
,
00001000
00000000
00011000
00000000
,
00001000
00010000
00100000
01000000
,
00100000
00000000
10000000
01000000
,
00100000
00000000
00001000
00000000
,
00010000
00000000
00011000
00000000
,
00010000
00001000
00000100
00000010
,
00000100
00000000
00000001
00000010
,
00000100
00000000
00010000
00000000
,
00001000
00000000
00010000
00000000
,
00011000
00000000
00000000
00000000
;

//---------------dance-single - ----------------
#NOTEDATA:;
#CHARTNAME:;
#STEPSTYPE:dance-single;
#DESCRIPTION:;
#CHARTSTYLE:;
#DIFFICULTY:Hard;
#METER:14;
#RADARVALUES:0.595831,0.588272,0.326818,0.000000,0.676980,536.000000,494.000000,42.000000,0.000000,0.000000,0.000000,0.000000,0.000000,0.000000,0.595831,0.588272,0.326818,0.000000,0.676980,536.000000,494.000000,42.000000,0.000000,0.000000,0.000000,0.000000,0.000000,0.000000;
#CREDIT:MILEN;
#DISPLAYBPM:109.583000;
#NOTES:
// measure 0
0000
0000
0000
0000
,  // measure 1
0000
0000
0000
0000
,  // measure 2
1001
0000
0000
0001
0100
0000
0100
0000
0000
0000
0001
0000
0011
0000
0000
0000
,  // measure 3
0001
0100
0000
0010
0100
0000
0010
0000
0000
0000
1000
0000
1100
0000
0001
0000
,  // measure 4
1001
0000
0000
1000
0010
0000
0010
0000
0000
0000
1000
0000
1100
0000
0000
0000
,  // measure 5
1000
0010
0000
0100
0010
0000
0001
0010
0000
0100
0010
0000
1000
0001
1000
0001
,  // measure 6
0010
0000
0001
0000
0100
0000
0001
0010
0000
0010
0000
0001
0100
0000
0100
0000
,  // measure 7
0010
1000
0100
0000
0100
0000
0010
0100
0000
0100
0000
1000
0010
0000
0100
0000
,  // measure 8
0110
0000
0010
0000
1000
0000
0100
0010
0000
0010
0000
0100
1000
0000
1000
0000
,  // measure 9
0010
0100
0001
0000
0001
0000
0010
0100
0000
0100
0000
0010
0001
0100
0010
0100
,  // measure 10
0010
0000
0000
1010
0000
0000
1001
0000
0000
0000
0001
0000
0100
0000
0010
0000
,  // measure 11
1000
0100
1000
0100
0010
0000
0001
0100
0000
0100
0000
0010
0100
0010
1000
0000
,  // measure 12
0001
0000
0100
0010
0000
0100
0001
0000
0000
0000
0010
0000
0001
0010
0001
0010
,  // measure 13
0100
0000
1000
0000
0010
0100
0000
0100
0000
0010
0000
0010
0000
1000
0001
0000
,  // measure 14
0010
0000
0000
0011
0000
0000
1001
0000
0000
0000
1000
0000
0100
0000
0010
0000
,  // measure 15
0001
0100
0001
0100
0010
0000
1000
0100
0000
0100
0000
0010
0100
0010
0001
0000
,  // measure 16
1000
0000
0100
0010
0000
0100
1000
0000
0000
0000
0010
0000
1000
0010
1000
0010
,  // measure 17
0100
0000
0001
0000
0010
0100
0000
0100
0000
0010
0000
0010
0000
0001
1000
0000
,  // measure 18
0010
0100
0000
0110
0000
0010
1000
0010
0100
0000
0000
0100
0001
0000
0000
0001
,  // measure 19
1000
0000
0010
1000
0100
0000
0100
0010
0001
0010
0000
0011
0000
0001
0100
0010
,  // measure 20
0000
0010
0100
0010
1000
0000
0000
1100
0000
0100
0000
0010
0000
0001
0010
0100
,  // measure 21
0010
0000
0001
0100
0000
0010
0000
1010
0000
1000
0100
1000
0000
0001
0010
0001
,  // measure 22
0010
0100
0000
0100
1000
0010
0100
0001
0000
0001
0010
0100
1000
0000
1000
0000
,  // measure 23
1001
0000
0001
0010
0100
0010
0001
0100
0000
0100
0010
1000
0100
0000
0010
0000
,  // measure 24
0001
0100
0010
1000
0010
0000
0000
1010
0000
1000
0001
0010
0001
0000
0100
0000
,  // measure 25
0110
0000
0010
1000
0100
1000
0000
0100
0000
0010
0100
0010
0001
0000
1000
0000
,  // measure 26
1001
0000
0001
0000
0100
0010
0100
0010
0100
0000
0010
0000
1000
0100
1000
0100
,  // measure 27
1000
0000
0100
0000
0010
0001
0010
0001
0010
0000
0100
0000
1000
0001
1000
0001
,  // measure 28
1000
0000
0001
0000
0100
0010
1000
0001
0010
0000
0100
0000
1000
0010
0100
0001
,  // measure 29
1000
0000
0100
0000
0010
0001
1000
0010
0100
0000
0000
0101
0000
0000
1100
0000
,  // measure 30
1001
0000
0000
0000
0001
0000
0100
0010
0000
0000
1010
0000
1000
0000
0100
0000
,  // measure 31
0001
0000
0100
0000
1000
0000
0010
0100
0000
0010
0000
0000
0100
0000
0001
0000
,  // measure 32
0011
0000
0000
0000
0010
0000
0100
0000
1100
0000
0000
0000
1010
0000
0000
0011
,  // measure 33
0000
0000
0101
0000
0100
0000
0010
0100
0000
0010
0000
0000
1010
0000
0000
0000
,  // measure 34
0101
0001
0010
1000
0010
0001
0100
1000
,  // measure 35
0100
0000
0001
0000
0010
0000
0100
0010
0000
0000
0000
0000
0100
0000
1000
0010
,  // measure 36
0100
0000
0000
0000
0110
0000
0010
0100
0000
0001
0100
0000
0010
0000
1000
0100
,  // measure 37
0000
0000
1000
0000
1001
0000
0001
0000
0010
0001
0010
0001
1000
0100
1000
0100
,  // measure 38
0010
0001
0000
0100
0001
0000
0010
0000
0001
0000
1000
0000
1001
0000
0000
0000
,  // measure 39
0001
0100
0001
0100
0010
0000
0100
0000
0001
0000
0100
0000
0110
0000
0000
0000
,  // measure 40
0010
1000
0000
0100
1000
0000
0001
0000
1000
0000
0100
0000
1100
0000
0000
0000
,  // measure 41
1000
0010
1000
0010
0100
0000
0001
0000
1000
0100
0010
0000
0011
0000
0000
0000
,  // measure 42
0001
0100
0000
0010
0100
0000
1000
0000
0100
0000
0010
0000
0110
0000
0000
0000
,  // measure 43
0100
0001
0100
0001
1000
0000
0100
0000
0010
0000
0001
0000
1001
0000
0000
0000
,  // measure 44
1000
0010
0000
0100
0010
0000
0001
0000
0010
0000
0100
0000
0101
0000
0000
0000
,  // measure 45
0001
1000
0001
1000
0100
0000
1000
0000
0001
0010
0100
0000
1100
0000
0000
0000
,  // measure 46
1000
0010
1000
0000
0100
0000
0010
0000
0001
0100
0010
0000
1000
0000
0000
0000
,  // measure 47
0100
1000
0100
0010
0001
0000
0010
0000
0100
0000
0010
0000
0011
0000
0000
0000
,  // measure 48
0001
0100
0001
0000
0010
0000
0100
0000
1000
0010
0100
0000
0001
0000
1000
0000
,  // measure 49
0001
0010
0100
1000
0100
0000
0010
0000
0100
1000
0010
0000
0110
0000
0000
0000
,  // measure 50
0100
0001
0100
0000
0010
0000
0001
0000
0010
1000
0100
0000
0010
0000
0000
0000
,  // measure 51
0001
0100
0010
1000
0010
0000
0001
0000
0010
0000
1000
0000
1100
0000
0000
0000
,  // measure 52
0100
0010
0100
0000
0001
0000
0100
0000
1000
0010
0100
0000
0001
0000
1000
0000
,  // measure 53
0010
1000
0010
0100
0001
0000
0010
0000
0100
1000
0100
1000
0100
0010
0100
0010
,  // measure 54
0001
0000
0000
0000
;

//---------------dance-double - ----------------
#NOTEDATA:;
#CHARTNAME:;
#STEPSTYPE:dance-double;
#DESCRIPTION:;
#CHARTSTYLE:;
#DIFFICULTY:Hard;
#METER:14;
#RADARVALUES:0.563594,0.525243,0.272348,0.000000,0.606947,507.000000,472.000000,35.000000,0.000000,0.000000,0.000000,0.000000,0.000000,0.000000,0.563594,0.525243,0.272348,0.000000,0.606947,507.000000,472.000000,35.000000,0.000000,0.000000,0.000000,0.000000,0.000000,0.000000;
#CREDIT:MILEN;
#DISPLAYBPM:109.583000;
#NOTES:
00000000
00000000
00000000
00000000
,
00000000
00000000
00000000
00000000
,
00011000
00000000
00000000
00001000
01000000
00000000
01000000
00000000
00000000
00000000
00010000
00000000
01010000
00000000
00000000
00000000
,
01000000
00100000
00000000
01000000
00001000
00000000
00010000
00000000
00000000
00000000
00000100
00000000
00010000
00000000
00001000
00000000
,
00011000
00000000
00000000
00010000
00000100
00000000
00000100
00000000
00000000
00000000
00001000
00000000
00001100
00000000
00000000
00000000
,
00000100
00001000
00000000
00000100
00010000
00000000
00001000
00010000
00000000
00001000
00100000
00000000
00010000
00100000
00010000
00100000
,
01000000
00000000
10000000
00000000
01000000
00000000
00010000
01000000
00000000
01000000
00000000
10000000
00100000
00000000
00100000
00000000
,
00010000
00001000
00010000
00000000
00001000
00000000
00000100
00001000
00000000
00001000
00000000
00010000
00001000
00000000
00000100
00000000
,
00000100
00000000
00000001
00000000
00000100
00000000
00001000
00000100
00000000
00000100
00000000
00000001
00000010
00000000
00000010
00000000
,
00001000
00010000
00001000
00000000
00000010
00000000
00001000
00010000
00000000
00010000
00000000
00001000
00010000
00001000
00010000
00001000
,
01000000
00000000
00000000
01010000
00000000
00000000
10100000
00000000
00000000
00000000
10000000
00000000
01000000
00000000
00100000
00000000
,
01000000
00010000
01000000
00010000
00001000
00000000
00010000
00000100
00000000
00000100
00000000
00001000
00000010
00000000
00000100
00000000
,
00000001
00000000
00000010
00000100
00000000
00000010
00001000
00000000
00000000
00000000
00000010
00000000
00000001
00000100
00000001
00000100
,
00000010
00000000
00001000
00000000
00000100
00000010
00000000
00000010
00000000
00001000
00000000
00010000
00000000
00001000
00010000
00000000
,
00000100
00000000
00000000
00001100
00000000
00000000
00000011
00000000
00000000
00000000
00000001
00000000
00000100
00000000
00000010
00000000
,
00000100
00001000
00000100
00001000
00010000
00000000
00001000
01000000
00000000
01000000
00000000
00010000
00100000
00000000
01000000
00000000
,
10000000
00000000
00100000
01000000
00000000
00100000
00010000
00000000
00000000
00000000
00100000
00000000
10000000
01000000
10000000
01000000
,
00100000
00000000
00010000
00000000
01000000
00100000
00000000
00100000
00000000
00010000
00000000
00001000
00000000
00010000
00001000
00000000
,
00000100
00000001
00000000
00000010
00000000
00000001
00000100
00000001
00000100
00000000
00000000
00000100
00001000
00000000
00000000
00001000
,
00010000
00000000
00010000
01000000
00100000
00000000
00010000
00000000
01000000
00100000
00000000
10000000
00000000
01000000
00100000
01000000
,
00000000
10000000
00100000
00000000
00010000
00000000
00000000
00011000
00000000
00001000
00000000
00000100
00000000
00000001
00000010
00000100
,
00000010
00000000
00000001
00000100
00000000
00000010
00000000
00001000
00000000
00000100
00010000
00001000
00000000
00100000
00010000
00000000
,
00100000
01000000
00000000
10000000
00100000
01000000
00100000
00010000
00000000
00010000
00001000
00000000
00000100
00000000
00000001
00000000
,
00001001
00000000
00001000
00000010
00001000
00000010
00010000
00001000
00000000
00010000
00001000
00000000
00100000
00000000
01000000
00000000
,
10000000
00100000
01000000
00100000
00010000
00000000
00000000
00001000
00000000
00010000
00001000
00010000
00000100
00000000
00001000
00000000
,
00000001
00000000
00000100
00000010
00000100
00001000
00000000
00010000
00000000
00001000
00010000
00000000
01000000
00000000
10000000
00000000
,
10010000
00000000
00010000
00000000
01000000
00100000
01000000
00000000
00001000
00000000
00010000
00000000
00000010
00000100
00000010
00000000
,
00010000
00000000
00001000
00000000
00100000
01000000
00100000
00000000
00001000
00000000
00010000
00000000
00000100
00000010
00000100
00000000
,
00010000
00000000
00001000
00000000
01000000
00010000
00100000
00000000
00001000
00000000
00010000
00000000
00000010
00001000
00000100
00000000
,
00010000
00000000
00001000
00000000
00100000
01000000
10000000
00000000
10100000
00000000
00000000
01010000
00000000
00000000
00101000
00000000
,
00011000
00000000
00000000
00000000
00010000
00000000
00001000
00000100
00000000
00000000
00001000
00000000
00010000
00000000
01000000
00000000
,
00010000
00000000
00001000
00000000
00000010
00000000
00000001
00000100
00000000
00000010
00000000
00000000
00001000
00000000
00000100
00000000
,
00010100
00000000
00000000
00000000
00010000
00000000
00001000
00000000
00101000
00000000
00000000
00000000
00110000
00000000
00000000
11000000
,
00000000
00000000
10100000
00000000
00100000
00000000
00010000
00001000
00000000
00010000
00000000
00000000
00010100
00000000
00000000
00000000
,
00001100
00001000
00000010
00000001
00000010
00010000
00001000
01000000
,
10000000
00000000
01000000
00000000
00010000
00000000
00100000
01000000
00000000
00000000
00000000
00000000
10000000
00000000
00100000
00010000
,
00001000
00000000
00000000
00000000
00011000
00000000
00010000
00000100
00000000
00001000
00000100
00000000
00000010
00000000
00000001
00000100
,
00000000
00000000
00001000
00000000
00011000
00000000
00010000
00000000
00001000
00100000
00001000
00100000
00010000
01000000
00010000
01000000
,
00100000
10000000
00000000
00010000
10000000
00000000
01000000
00000000
00010000
00000000
00001000
00000000
00011000
00000000
00000000
00000000
,
00010000
00001000
00000000
00010000
00000100
00000000
00000010
00000000
00000001
00000000
00000100
00000000
00000110
00000000
00000000
00000000
,
00000010
00001000
00000000
00000010
00010000
00000000
00001000
00000000
00100000
00000000
01000000
00000000
11000000
00000000
00000000
00000000
,
10000000
01000000
00000000
10000000
00100000
00000000
00010000
00000000
00001000
00010000
00001000
00000000
00011000
00000000
00000000
00000000
,
00010000
00001000
00000000
00001000
00000100
00000000
00000001
00000000
00000010
00000000
00000100
00000000
00000110
00000000
00000000
00000000
,
00000010
00001000
00000000
00001000
00010000
00000000
01000000
00000000
10000000
00000000
00100000
00000000
01100000
00000000
00000000
00000000
,
01000000
00010000
00000000
00010000
00100000
00000000
01000000
00000000
00010000
00000000
00001000
00000000
00001010
00000000
00000000
00000000
,
00000010
00000001
00000000
00000001
00000100
00000000
00001000
00000000
00010000
00100000
01000000
00000000
01100000
00000000
00000000
00000000
,
00100000
10000000
00100000
00000000
00010000
00000000
00001000
00000000
00000100
00000010
00000100
00000000
00000001
00000000
00000000
00000000
,
00000010
00000100
00000010
00000000
00000001
00000000
00000100
00000000
00001000
00000000
00010000
00000000
00110000
00000000
00000000
00000000
,
00100000
01000000
00100000
00000000
10000000
00000000
01000000
00000000
00010000
00001000
00010000
00000000
01000000
00000000
10000000
00000000
,
00100000
00010000
00001000
00000000
00000010
00000000
00000100
00000000
00000010
00000001
00001000
00000000
00001010
00000000
00000000
00000000
,
00000010
00000100
00000010
00000000
00001000
00000000
00000100
00000000
00000010
00001000
00010000
00000000
00100000
00000000
00000000
00000000
,
10000000
01000000
00100000
00000000
01000000
00000000
00010000
00000000
00001000
00000010
00000100
00000000
00001100
00000000
00000000
00000000
,
00001000
00000010
00000001
00000000
00000010
00000000
00000100
00000000
00001000
00010000
00001000
00000000
00000100
00000000
00000001
00000000
,
00000010
00001000
00010000
00000000
00000100
00000000
00000010
00000000
00001000
00010000
00001000
00010000
01000000
00100000
01000000
00100000
,
10000000
00000000
00000000
00000000
;

//---------------dance-single - ----------------
#NOTEDATA:;
#CHARTNAME:;
#STEPSTYPE:dance-single;
#DESCRIPTION:;
#CHARTSTYLE:;
#DIFFICULTY:Medium;
#METER:9;
#RADARVALUES:0.310143,0.294136,0.070032,0.000000,0.007781,279.000000,270.000000,9.000000,0.000000,0.000000,0.000000,0.000000,0.000000,0.000000,0.310143,0.294136,0.070032,0.000000,0.007781,279.000000,270.000000,9.000000,0.000000,0.000000,0.000000,0.000000,0.000000,0.000000;
#CREDIT:MILEN;
#DISPLAYBPM:109.583000;
#NOTES:
0000
0000
0000
0000
,
0000
0000
0000
0000
,
1000
0000
1000
0000
0000
1000
1000
0000
,
0001
0000
0001
0000
0000
0001
0001
0000
,
1000
0000
1000
0000
0000
1000
1000
0000
,
0001
0000
0000
0001
0000
0000
0001
0000
0000
0000
0001
0000
0001
0000
0000
0000
,
1000
0001
1000
0000
0010
0000
0100
0100
,
0001
1000
0001
0000
0100
0000
0110
0000
,
0001
1000
0001
0000
0100
0000
0010
0010
,
1000
0001
1000
0000
0010
0000
0100
0010
,
0110
0000
0100
0000
0010
1000
0010
0000
,
0100
0000
0010
0000
0100
0001
0100
0000
,
0010
0000
0100
0000
0001
0010
0001
0000
,
0100
0000
0010
0000
1000
0100
1000
0000
,
0001
0000
0100
0000
0010
1000
0010
0000
,
1000
0000
0100
0000
0010
0001
0010
0000
,
0001
0000
0010
0000
0100
1000
0100
0000
,
1000
0000
0010
0000
0100
0001
0100
0000
,
0110
0000
0010
0000
1000
0001
0100
0000
,
0010
0000
0100
0000
0001
1000
0010
0000
,
0100
0000
0010
0000
1000
0100
0010
0000
,
0100
0000
0010
0000
0001
0010
0100
0000
,
1000
0010
1000
0000
0001
0010
0001
0000
,
1000
0100
1000
0000
0001
0100
0001
0000
,
1000
0001
1000
0000
0010
0100
0010
0000
,
1000
0001
1000
0001
0100
0010
0100
0000
,
0010
1000
0000
0000
1000
0100
0000
0000
,
0100
0001
0000
0000
0001
0010
0000
0000
,
0010
1000
0100
0000
0010
0001
0100
0000
,
0010
0000
1000
0000
0001
0000
0000
0000
0100
0000
0000
0100
0000
0000
0001
0000
,
1000
0010
0001
0010
,
1000
0000
0100
0000
0010
0000
0001
0100
,
0001
0010
0100
0010
,
0001
0100
0001
0100
0010
0010
1000
0000
,
0001
0100
1000
0100
,
0001
0010
0001
0010
0100
0000
0000
0000
,
1100
0000
1000
0010
0100
0000
0010
0000
,
0001
0000
0010
0000
0100
0010
0100
0010
,
1000
0000
0100
0000
0010
0100
0000
0100
,
1000
0000
0001
0010
0000
0010
0100
0000
,
0110
0010
0001
1000
,
0100
0000
0010
0100
0000
0100
1000
0000
,
0001
0000
0100
0000
0010
0100
0000
0100
,
0001
0000
1000
0010
0000
0010
0100
0000
,
0110
0010
1000
0001
,
0100
0000
0010
0100
0000
0100
0001
0000
,
0010
0001
0100
0000
0010
1000
0100
0000
,
0010
0100
1000
0000
0001
0010
0100
0000
,
1100
0000
1000
0000
0010
0100
0000
0100
,
0001
0000
0100
0010
0000
0010
1000
0010
,
0100
0001
0010
0000
0100
1000
0010
0000
,
0100
0001
1000
0000
0010
1000
0001
0000
,
1001
0000
1000
0000
0010
0100
0000
0100
,
0001
0000
1000
0010
0000
0010
0100
0010
,
0110
0000
0000
0000
;

//---------------dance-double - ----------------
#NOTEDATA:;
#CHARTNAME:;
#STEPSTYPE:dance-double;
#DESCRIPTION:;
#CHARTSTYLE:MILEN;
#DIFFICULTY:Medium;
#METER:9;
#RADARVALUES:0.294581,0.294136,0.077814,0.000000,0.007781,265.000000,255.000000,10.000000,0.000000,0.000000,0.000000,0.000000,0.000000,0.000000,0.294581,0.294136,0.077814,0.000000,0.007781,265.000000,255.000000,10.000000,0.000000,0.000000,0.000000,0.000000,0.000000,0.000000;
#CREDIT:;
#DISPLAYBPM:109.583000;
#NOTES:
00000000
00000000
00000000
00000000
,
00000000
00000000
00000000
00000000
,
00001000
00000000
00001000
00000000
00000000
00001000
00001000
00000000
,
00010000
00000000
00010000
00000000
00000000
00010000
00010000
00000000
,
00001000
00000000
00001000
00000000
00000000
00001000
00001000
00000000
,
00010000
00000000
00000000
00010000
00000000
00000000
00010000
00000000
00000000
00000000
00010000
00000000
00010000
00000000
00000000
00000000
,
00001000
00000000
00000100
00000000
00000001
00000000
00000010
00000010
,
00000100
00000010
00001000
00011000
,
00010000
00000000
01000000
00000000
10000000
00000000
00100000
00100000
,
01000000
00000000
00100000
00000000
00010000
00000000
00001000
00010000
,
00001000
00000000
00000100
00000000
00000001
00000010
00000001
00000000
,
00000100
00000000
00001000
00000000
00010000
00001000
00010000
00000000
,
01000000
00000000
10000000
00000000
00100000
01000000
00100000
00000000
,
10000000
00000000
01000000
00000000
00010000
00001000
00010000
00000000
,
00001000
00000000
00000010
00000000
00000001
00000100
00000001
00000000
,
00000010
00000000
00001000
00000000
00010000
00001000
00010000
00000000
,
00100000
00000000
10000000
00000000
01000000
00100000
01000000
00000000
,
10000000
00000000
00100000
00000000
00010000
00001000
00010000
00000000
,
00011000
00000000
00001000
00000000
00000100
00000001
00000010
00000000
,
00000100
00000000
00000010
00000000
00001000
00010000
01000000
00000000
,
10000000
00000000
00100000
00000000
01000000
00100000
00010000
00000000
,
00001000
00000000
00000100
00000000
00000001
00000010
00000100
00000000
,
00000010
00000001
00000010
00000000
00000100
00001000
00000100
00000000
,
00010000
00001000
00010000
00000000
01000000
10000000
01000000
00000000
,
00100000
00010000
00100000
00000000
00001000
00010000
00001000
00000000
,
00000100
00000001
00000010
00000100
00000010
00000100
00001000
00000000
,
00000010
00000010
00000000
00000000
00010000
00010000
00000000
00000000
,
00001000
00001000
00000000
00000000
01000000
01000000
00000000
00000000
,
00100000
10000000
01000000
00000000
00100000
00010000
01000000
00000000
,
00100000
00000000
00010000
00000000
00001000
00000000
00000000
00000000
00010000
00000000
00000000
00010000
00000000
00000000
00010000
00000000
,
00000010
00001000
00000100
00000001
,
00000100
00001000
00000010
00010000
,
00011000
00001000
00100000
01000000
,
10000000
00100000
00010000
00011000
,
00100000
00010000
01000000
10000000
,
01000000
00010000
00100000
00000000
,
01100000
01000000
00010000
00001000
,
00000010
00000000
00000001
00000000
00000100
00000010
00000100
00000010
,
00001000
00000000
00000100
00000000
00000010
00001000
00000000
00010000
,
00001000
00000000
00000010
00001000
00000000
00010000
00001000
00000000
,
00011000
00010000
01000000
10000000
,
00100000
00000000
00010000
00001000
00000000
00001000
00100000
00000000
,
00010000
00000000
01000000
00000000
00100000
00010000
00000000
00001000
,
00010000
00000000
00100000
00010000
00000000
00001000
00010000
00000000
,
00011000
00001000
00000100
00000001
,
00000010
00000000
00001000
00010000
00000000
00010000
00000010
00000000
,
00001000
00000100
00000010
00000000
00000001
00000000
00000100
00000000
,
00001000
00000100
00000010
00000000
00010000
00000000
00001000
00000000
,
00011000
00000000
00010000
00000000
01000000
10000000
00000000
01000000
,
00010000
00000000
01000000
10000000
00000000
01000000
00010000
00001000
,
00010000
00100000
01000000
00000000
00100000
00000000
10000000
00000000
,
00010000
00100000
01000000
00000000
00010000
00000000
00001000
00000000
,
00011000
00000000
00010000
00000000
00000100
00001000
00000000
00000100
,
00000001
00000000
00000100
00001000
00000000
00000100
00010000
00001000
,
00011000
00000000
00000000
00000000
;
